#VERSION:0.83;
#TITLE:THINKING BACK;
#ARTIST:Fergu$on;
#BANNER:THINKING BACK.png;
#BACKGROUND:THINKING BACK-bg.png;
#JACKET:THINKING BACK-jacket.png;
#MUSIC:THINKING BACK.ogg;
#OFFSET:-0.441112;
#SAMPLESTART:37.364;
#SAMPLELENGTH:15;
#DISPLAYBPM:78:156;
#BPMS:0=156,145=78,145.25=312,145.75=156,154=78,202=156,286=78,286.25=312,286.75=156;
#STOPS:28=1.154,89=1.154,230=1.154;
#TIMESIGNATURES:0=4=4,28=1=4,29=4=4,89=1=4,90=4=4,230=1=4,231=4=4;

//---------------dance-single - Marten & Pandemonium X-ESP----------------
#NOTEDATA:;
#CHARTNAME:Marten & Pandemonium X-ESP;
#STEPSTYPE:dance-single;
#DESCRIPTION:Marten & Pandemonium X-ESP;
#DIFFICULTY:Hard;
#METER:14;
#RADARVALUES:0.569111,0.737142,0.299854,0.242739,0.542594,558,516,42,34,0,0,0,0,0,0.569111,0.737142,0.299854,0.242739,0.542594,558,516,42,34,0,0,0,0,0;
#CREDIT:Marten & Pandemonium X;
#NOTES:
0000
0000
0000
0000
,
0000
0000
0000
0000
,
0000
0000
0000
0000
,
0000
0000
0000
0000
,
1000
0000
0000
1000
0000
0000
0000
0000
,
0000
0000
0001
0010
0001
0000
0001
0000
0000
0000
0000
0000
0100
0000
0100
0000
,
0001
0000
0000
0001
0000
0000
0000
0001
,
0000
1001
0200
0310
,
0002
0000
1003
0000
0010
1000
0100
0020
,
0000
0030
0002
0013
,
2000
0000
3100
0001
0100
0010
0002
0000
,
0103
0010
1001
0000
2000
0000
3100
0000
,
0002
0000
0103
0010
0100
0010
0100
0002
,
0000
0003
1001
0000
0002
0000
0103
0000
,
0020
0000
0130
1000
0100
0001
2000
0000
,
3001
0010
0002
0000
0010
0000
0100
0000
,
0010
0100
1000
0100
,
1003
2000
0010
0100
,
0010
0100
0100
0001
,
3001
0000
1000
0010
1000
0010
1000
0010
,
1000
0010
0100
0001
0100
0001
0100
0001
,
0100
0000
0001
0000
1000
0001
1000
0001
1000
0001
1000
0001
1000
0001
1000
0001
,
1000
0001
1000
0001
0000
0000
0000
0000
1001
0000
0000
0000
0000
0000
0000
0000
,
0000
0010
0100
0010
0000
0000
0010
0000
0000
0000
1000
0000
0000
0000
1000
0000
,
0001
0000
0000
0000
1001
0000
0000
0000
0101
0000
0000
0001
1000
0000
0100
0000
,
0010
0001
0010
0000
0001
1000
0000
0000
0010
0000
0000
0010
1000
0000
0001
0000
,
0100
0001
0100
0000
0001
1000
0000
0000
1001
0000
0000
0000
1000
0010
1000
0010
,
0100
0000
0000
0010
0000
0000
1000
0000
0001
1000
0001
0000
0000
0000
0010
0000
,
0010
0000
0000
0000
0110
0000
0000
0000
1100
0000
0000
0100
1000
0000
0100
0000
,
1000
0010
1000
0000
0000
0001
0000
0000
0011
0000
0000
0001
1000
0000
0010
0000
,
0100
0001
0100
0000
0001
1000
0000
0000
1001
0000
0000
0000
0001
1000
0001
1000
,
0100
0000
0000
0010
0000
0000
0001
0000
0100
0010
0100
0000
0001
0000
1000
0000
,
1000
0000
0000
0000
0001
0010
0001
0010
0100
0000
0000
1000
0100
0000
0010
0000
,
0001
1000
0001
0000
0100
0001
0000
0000
0010
0000
0000
0010
0100
0000
0010
0000
,
0001
1000
0001
0000
0100
0010
0000
0000
0110
0000
0000
0000
0000
0000
0000
0000
,
0110
0000
0000
0010
1000
0000
0001
0000
1000
0100
1000
0000
0001
0000
0100
0000
,
0100
0000
0000
0000
0020
0000
0000
0000
0130
0000
0000
0001
0100
0000
0001
0000
,
0010
0100
0010
0000
0001
1000
0000
0000
0010
0000
0000
0010
1000
0000
0010
0000
,
0200
0000
0000
0000
0301
0000
1000
0000
1001
0000
0000
1000
0000
0000
0000
0000
,
0000
0000
0010
0100
0010
0000
0010
0000
0000
0000
0000
0000
0100
0000
0100
0000
0001
0000
0000
0000
0000
0000
0001
0000
0000
0000
0000
0000
0000
0000
0001
0000
,
0000
1000
1000
1000
0000
0000
0000
0000
0110
0000
0000
0001
0000
1001
0000
0000
,
1010
0000
1000
0010
1000
0000
1000
0000
0000
0000
0000
0000
0100
0000
0100
0000
0110
0000
0000
0000
0000
0000
0100
0000
0000
0000
0110
0000
0000
0000
0010
0000
,
0000
0000
1001
0000
0001
0000
0001
0000
0000
1000
0010
0000
0010
0000
0000
0000
0101
0000
0000
0000
0000
0000
0100
0000
0000
0000
0110
0000
0000
0000
0000
0000
,
0110
0000
0001
1000
0001
0000
0001
0000
0000
0000
0000
0000
1000
0000
1000
0000
1010
0000
0000
0000
0000
0000
0100
0000
0000
0000
0101
0000
0000
0000
0010
0000
,
0000
0000
0100
0000
0100
0000
0100
0000
0000
0001
1000
0000
1000
0000
0000
0000
1010
0000
0000
0000
0000
0000
1000
0000
0000
0000
1100
0000
0000
0000
0000
0000
,
0110
0000
0010
0001
0010
0000
0010
0000
0000
0000
0000
0000
0001
0000
0001
0000
1001
0000
0000
0000
0000
0000
1000
0000
0000
0000
0101
0000
0000
0000
0010
0000
,
0000
0000
1000
0000
1000
0000
1000
0000
0000
0001
0100
0000
0100
0000
0000
0000
1001
0000
0000
0000
2000
0000
0000
0000
3200
0000
0000
0000
0302
0000
0000
0000
,
0103
1000
0100
0001
0100
0020
0000
0000
0031
0000
2000
0000
3020
0000
0032
0000
,
0013
0100
0010
0100
0002
0000
1003
0001
1001
0000
2000
0000
3020
0000
0032
0000
,
0013
0100
0001
1000
0100
0020
0000
0000
0030
0000
0200
0000
2300
0000
3020
0000
,
0130
1000
0100
0001
2000
0000
3001
1000
0001
0000
0000
0000
0001
0000
0000
0000
,
0010
0000
0010
0001
1000
0000
1000
0000
,
0010
0000
0000
0000
0010
1000
0010
0000
1000
0000
0000
0000
1000
0000
0000
0000
,
0100
0000
0000
0000
1000
0100
1000
0000
0001
0000
0000
0000
0001
0000
0000
0000
,
0100
0000
0000
0000
0100
0001
0100
0000
0001
0000
0010
0000
0001
0000
0010
0000
,
0100
0010
0100
0010
0100
1000
0100
1000
,
0001
0000
1000
0000
0001
0000
1000
0000
0010
0100
0010
0100
0010
0100
0010
0100
,
0010
0100
0010
0100
0010
0100
0010
0100
0000
0000
0000
0000
0010
0000
0000
0000
,
0000
0000
0000
0000
0000
0100
0010
0100
0000
0000
0100
0000
0000
0000
0001
0000
,
0000
0000
0001
0000
1000
0000
0000
0000
1001
0000
0000
0000
0110
0000
0000
0010
,
1000
0000
0100
0000
1000
0001
1000
0000
0001
0100
0000
0000
0010
0000
0000
0010
,
0100
0000
0001
0000
0010
0100
0010
0000
0001
1000
0000
0000
1001
0000
0000
0000
,
0001
1000
0001
1000
0010
0000
0000
0100
0000
0000
0001
0000
1000
0100
1000
0000
,
0001
0000
0010
0000
0010
0000
0000
0000
0110
0000
0000
0000
0011
0000
0000
0001
,
0100
0000
0010
0000
1000
0001
1000
0000
0001
0010
0000
0000
0100
0000
0000
0100
,
0010
0000
0001
0000
1000
0010
1000
0000
0100
1000
0000
0000
1010
0000
0000
0000
,
0010
1000
0010
1000
0100
0000
0000
0010
0000
0000
0001
0000
1000
0001
1000
0000
,
0001
0000
0100
0000
0100
0000
0000
0000
0001
0010
0001
0010
0100
0000
0000
0010
,
0001
0000
0100
0000
0001
1000
0001
0000
1000
0010
0000
0000
0110
0000
0000
0100
,
0010
0000
1000
0000
0001
0010
0001
0000
0010
0100
0000
0000
0110
0000
0000
0000
,
0000
0000
0000
0000
0110
0000
0000
0010
0001
0000
1000
0000
0010
0100
0010
0000
,
1000
0000
0001
0000
0001
0000
0000
0000
0020
0000
0000
0000
0130
0000
0000
1000
,
0001
0000
1000
0000
0100
1000
0100
0000
0010
0100
0000
0000
0010
0000
0000
0010
,
0001
0100
0020
0000
1030
0001
1001
0000
;

//---------------dance-single - Marten & Pandemonium X-DSP----------------
#NOTEDATA:;
#CHARTNAME:Marten & Pandemonium X-DSP;
#STEPSTYPE:dance-single;
#DESCRIPTION:Marten & Pandemonium X-DSP;
#DIFFICULTY:Medium;
#METER:10;
#RADARVALUES:0.386547,0.526530,0.114230,0.085673,0.228460,379,363,16,12,0,0,0,0,0,0.386547,0.526530,0.114230,0.085673,0.228460,379,363,16,12,0,0,0,0,0;
#CREDIT:Marten & Pandemonium X;
#NOTES:
0000
0000
0000
0000
,
0000
0000
0000
0000
,
0000
0000
0000
0000
,
0000
0000
0000
0000
,
1000
0000
0000
1000
0000
0000
0000
0000
,
0000
0001
0100
0001
0000
0000
0100
0000
,
0010
0000
0000
0010
0000
0000
0000
0010
,
0000
0100
0010
1000
,
0010
0000
0001
0000
0010
0100
0001
0200
,
0000
0300
0010
0100
,
0010
0000
1000
0100
1000
0100
0020
0000
,
0130
1000
0001
0000
1000
0000
0010
0000
,
0001
0000
0010
0000
0100
0010
0100
0002
,
0000
0003
0010
0001
,
1000
0000
0010
0100
0010
1000
0200
0000
,
0310
0100
1000
0000
1000
0000
1000
0000
,
1000
0001
0001
0001
,
0001
0100
0100
0100
,
0100
0010
0010
0010
,
0010
1000
0010
0100
,
0001
1000
0010
0100
,
0001
0000
1000
0001
1000
0001
1000
0001
,
1000
0001
0000
0000
1001
0000
0000
0000
,
0000
0100
0000
0100
0000
0000
0010
0000
0000
0000
0010
0000
0000
0000
0010
0000
,
0010
0000
0000
0000
1010
0000
0000
0000
0101
0000
0000
0001
0000
0000
1000
0000
,
0100
0000
1000
0000
0000
1000
0000
0000
0010
0000
0000
0010
0000
0000
1000
0000
,
0001
0000
0010
0000
0000
0010
0000
0000
0110
0000
0000
0000
0010
0000
0001
0000
,
1000
0000
0000
1000
0000
0000
1000
0000
0010
0000
0100
0000
0000
0000
0001
0000
,
1000
0000
0000
0000
1001
0000
0000
0000
0011
0000
0000
0001
0000
0000
0001
0000
,
1000
0000
0010
0000
0000
0100
0000
0000
0010
0000
0000
0010
0000
0000
0010
0000
,
1000
0000
0100
0000
0000
0010
0000
0000
0110
0000
0000
0000
0010
0000
0001
0000
,
1000
0000
0000
1000
0000
0000
1000
0000
0010
0000
1000
0000
0000
0000
0100
0000
,
0010
0000
0000
0000
0020
0000
0000
0000
0031
0000
0000
0001
0000
0000
0100
0000
,
0001
0000
1000
0000
0000
1000
0000
0000
0010
0000
0000
0010
0000
0000
1000
0000
,
0100
0000
0010
0000
0000
0001
0000
0000
1001
0000
0000
0000
0000
0000
0000
0000
,
0001
0000
0000
0010
0000
0000
0001
0000
1000
0000
0100
0000
0000
0000
1000
0000
,
0001
0000
0000
0000
0020
0000
0000
0000
0130
0000
0000
0100
0000
0000
1000
0000
,
0001
0000
1000
0000
0000
0010
0000
0000
0100
0000
0000
0100
0000
0000
0001
0000
,
0020
0000
0130
0100
1000
0000
0000
0000
,
0001
0000
0100
0000
,
0010
0000
1001
0000
,
1000
0000
0001
0000
,
0010
0000
0000
0000
0000
0000
0000
0000
0100
0000
0000
1000
0000
0000
0000
0000
,
0000
0010
0100
0010
0000
0000
0100
0000
0010
0000
0000
1000
0000
0000
0000
1000
,
0000
0001
0010
0001
0000
0000
0000
0000
0010
0000
0000
0001
0000
0000
0000
0000
,
0000
0100
0010
0100
0000
0000
0010
0000
1000
0000
0000
0001
0000
0000
0000
1000
,
0000
0001
0100
0001
0000
0000
0000
0000
0000
0000
0100
0000
0010
0000
1000
0000
,
0001
0000
0010
0100
1000
0200
0000
0000
0300
0000
0010
0000
0001
0000
0100
0000
,
0010
1000
0010
0100
0010
0000
0100
0001
1000
0000
0100
0000
1000
0000
0010
0000
,
0100
0000
0001
1000
0001
0020
0000
0000
0030
0000
0100
0000
0010
0000
0001
0000
,
0010
0100
1000
0001
0100
0000
0010
0100
0001
0000
0000
0000
0001
0000
0000
0000
,
0001
0000
0001
0010
0100
0000
0100
0000
,
0100
0000
0100
0100
1000
0000
1000
0000
,
1000
0000
1000
1000
0010
0000
0010
0000
,
0010
0000
0010
0010
0100
0001
1000
0000
,
0100
1000
0001
0000
0010
0001
1000
0000
,
0010
1000
0001
0000
0010
0100
0010
0100
,
0010
0100
0010
0100
0000
0000
0010
0000
,
0000
0000
0000
0000
0000
0100
0000
0100
0000
0000
0010
0000
0000
0000
0010
0000
,
0000
0000
0010
0000
0010
0000
0000
0000
0011
0000
0000
0000
1100
0000
0000
1000
,
0000
0000
0001
0000
0100
0000
0001
0000
0000
0001
0000
0000
0010
0000
0000
0010
,
0000
0000
0001
0000
1000
0000
0010
0000
0000
0010
0000
0000
0110
0000
0000
0000
,
0010
0000
1000
0000
0001
0000
0000
0001
0000
0000
0001
0000
0010
0000
0100
0000
,
0000
0000
1000
0000
0001
0000
0000
0000
1001
0000
0000
0000
1010
0000
0000
1000
,
0000
0000
1000
0000
0001
0000
0010
0000
0000
0100
0000
0000
0010
0000
0000
0010
,
0000
0000
0010
0000
0001
0000
0100
0000
0000
0010
0000
0000
0110
0000
0000
0000
,
0010
0000
1000
0000
0001
0000
0000
0001
0000
0000
0001
0000
0010
0000
0001
0000
,
0000
0000
0100
0000
0010
0000
0000
0000
0020
0000
0000
0000
1030
0000
0000
1000
,
0000
0000
0100
0000
1000
0000
0001
0000
0000
0001
0000
0000
0010
0000
0000
0010
,
0000
0000
0001
0000
0100
0000
0010
0000
0000
1000
0000
0000
1001
0000
0000
0000
,
0000
0000
0000
0000
1000
0000
0000
0010
0000
0000
1000
0000
0001
0000
0100
0000
,
0000
0000
0001
0000
1000
0000
0000
0000
0020
0000
0000
0000
0130
0000
0000
0100
,
0000
0000
0001
0000
1000
0000
0001
0000
0000
0010
0000
0000
0100
0000
0000
0100
,
0000
1000
0020
0000
0130
0100
0001
0000
;

//---------------dance-single - Marten & Pandemonium X-BSP----------------
#NOTEDATA:;
#CHARTNAME:Marten & Pandemonium X-BSP;
#STEPSTYPE:dance-single;
#DESCRIPTION:Marten & Pandemonium X-BSP;
#DIFFICULTY:Easy;
#METER:6;
#RADARVALUES:0.252938,0.368571,0.092812,0.114230,0,248,235,13,16,0,0,0,0,0,0.252938,0.368571,0.092812,0.114230,0,248,235,13,16,0,0,0,0,0;
#CREDIT:Marten & Pandemonium X;
#NOTES:
0000
0000
0000
0000
,
0000
0000
0000
0000
,
0000
0000
0000
0000
,
0000
0000
0000
0000
,
1000
0000
0000
1000
0000
0000
0000
0000
,
0000
0001
0000
0001
,
1000
0000
0000
1000
0000
0000
0000
1000
,
0000
0000
0010
1000
,
0010
0001
0010
0200
,
0000
0300
0010
1000
,
0001
0010
0010
0002
,
2003
3001
0100
0001
,
0010
0001
0001
2000
,
0000
3000
0100
1000
,
0010
0100
0100
0020
,
1030
1002
0000
1000
,
0000
1000
0000
1000
,
0000
1000
0000
1000
,
0000
1000
0000
1000
,
0000
1003
0010
1000
,
0010
0100
0001
0100
,
0001
0010
0100
1000
,
0100
0000
1001
0000
,
0000
0000
0000
0010
0000
0010
0000
0000
,
0010
0100
0110
0010
,
1000
1000
0001
0010
,
0100
0100
0010
0000
,
0001
1000
0010
0010
,
0100
0110
1001
0001
,
1000
1000
0001
1000
,
0010
0010
0100
0000
,
0001
0100
0001
0010
,
0100
0110
1001
1000
,
0001
0001
0100
0010
,
0100
0100
0001
0000
,
0010
0010
0100
0010
,
0001
2000
3010
0010
,
0100
0010
1000
1000
,
0200
0000
1300
0000
,
0000
0000
0001
0000
,
0000
0000
0100
0000
,
0000
0000
0010
0000
,
0000
0000
1000
0000
,
0100
0000
0010
0000
,
0001
0000
0100
0000
,
0010
0000
1000
0000
,
0001
0000
0000
0000
0000
0010
0001
0100
,
0001
0001
0002
0000
0003
1000
0001
0100
,
0010
0010
2000
3200
0300
0010
0100
1000
,
0010
0010
0020
0000
0030
0100
0010
1000
,
0001
0001
2000
3002
0103
0000
0100
0000
,
0100
0100
0001
0001
,
0001
0001
1000
1000
,
1000
1000
0010
0010
,
0010
0010
1000
0100
,
1000
0100
0010
0001
,
0010
0001
0100
0010
,
1000
0010
0000
0100
,
0000
0000
0000
0000
0000
0010
0000
0010
,
0000
0010
0100
0110
,
1001
0001
0001
1000
,
0010
0100
0100
0010
,
0000
1000
0001
0010
,
0010
0100
0110
1001
,
1000
0001
0001
1000
,
0001
0010
0010
0100
,
0000
1000
0100
1000
,
0010
0100
0110
1001
,
0001
1000
1000
0100
,
0010
0100
0100
1000
,
0000
0010
0010
0100
,
0010
1000
0002
0013
,
0010
0100
0010
0001
,
0001
0200
0000
0310
;

//---------------dance-single - Marten & Pandemonium X-bSP----------------
#NOTEDATA:;
#CHARTNAME:Marten & Pandemonium X-bSP;
#STEPSTYPE:dance-single;
#DESCRIPTION:Marten & Pandemonium X-bSP;
#DIFFICULTY:Beginner;
#METER:2;
#RADARVALUES:0.084653,0.157959,0.014279,0,0,83,81,2,0,0,0,0,0,0,0.084653,0.157959,0.014279,0,0,83,81,2,0,0,0,0,0,0;
#CREDIT:Marten & Pandemonium X;
#NOTES:
0000
0000
0000
0000
,
0000
0000
0000
0000
,
0000
0000
0000
0000
,
0000
0000
0000
0000
,
1000
0000
0000
0000
,
0000
0000
0000
0000
,
1000
0000
0000
0000
,
0000
0001
0000
0000
,
0000
1000
0000
0000
,
0000
0001
0000
0000
,
0000
0100
0000
0000
,
0000
0010
0000
0000
,
0000
1000
0000
0000
,
0000
0100
0000
0000
,
0000
1000
0000
0000
,
0000
1001
0000
0000
,
0000
0000
0000
0000
,
0000
0010
0000
0000
,
0000
0000
0000
0000
,
0000
0100
0000
0000
,
0000
0010
0000
0000
,
0000
1000
0000
0001
,
0000
0000
0010
0000
,
0000
0000
0000
0000
,
0010
0000
0010
0000
,
0000
0000
0001
0000
,
0000
0000
1000
0000
,
0000
0000
0010
0000
,
0010
0000
0010
0000
,
0000
0000
0100
0000
,
0000
0000
0001
0000
,
0000
0000
1000
0000
,
1000
0000
1000
0000
,
0000
0000
0100
0000
,
0000
0000
0010
0000
,
0000
0000
0001
0000
,
0001
0000
0001
0000
,
0000
0000
1000
0000
,
0000
0000
1000
0000
,
0000
0000
0001
0000
,
0000
0000
0100
0000
,
0000
0000
0010
0000
,
0000
0000
1000
0000
,
0000
0000
0100
0000
,
0000
0000
1000
0000
,
0000
0000
0010
0000
,
0000
0000
0100
0000
,
0001
0000
1000
0000
,
0100
0100
0100
0000
,
0010
0000
0001
0000
,
1000
0001
1000
0000
,
0000
0000
1000
0000
,
0000
0000
0001
0000
,
0000
0000
0001
0000
,
0000
0000
0100
0000
,
0000
0000
0100
0000
,
0000
0000
0010
0000
,
0010
0000
0000
0010
,
0000
0000
0000
0000
,
0000
0010
0000
0010
,
0000
0000
0000
1000
,
0000
0000
0000
0001
,
0000
0000
0000
0010
,
0000
0010
0000
0010
,
0000
0000
0000
0100
,
0000
0000
0000
1000
,
0000
0000
0000
0001
,
0000
0001
0000
0001
,
0000
0000
0000
0100
,
0000
0000
0000
0010
,
0000
0000
0000
1000
,
0000
1000
0000
1000
,
0000
0000
0000
0001
,
0000
0000
0000
1001
;

//---------------dance-double - Marten & Pandemonium X-BDP----------------
#NOTEDATA:;
#CHARTNAME:Marten & Pandemonium X-BDP;
#STEPSTYPE:dance-double;
#DESCRIPTION:Marten & Pandemonium X-BDP;
#DIFFICULTY:Easy;
#METER:6;
#RADARVALUES:0.277416,0.368571,0.107091,0.235600,0,272,257,15,33,0,0,0,0,0,0.277416,0.368571,0.107091,0.235600,0,272,257,15,33,0,0,0,0,0;
#CREDIT:Marten & Pandemonium X;
#NOTES:
00000000
00000000
00000000
00000000
,
00000000
00000000
00000000
00000000
,
00000000
00000000
00000000
00000000
,
00000000
00000000
00000000
00000000
,
10000000
00000000
00000000
10000000
00000000
00000000
00000000
00000000
,
00000000
01000000
00000000
00100000
,
00010000
00000000
00000000
00010000
00000000
00000000
00000000
00110000
,
00000000
00001000
00020000
00030010
,
00000200
00000301
00000010
00000200
,
00000000
00000300
00001000
00000000
00000200
00000000
00010300
00000000
,
00002000
01003000
00200000
20300000
,
31000000
00000000
00200000
01300000
,
20000000
30100000
01000000
00020000
,
00000000
00030000
00000000
00000000
00200000
00000000
00301000
00000000
,
00020000
00030010
00000100
00000001
,
00000010
00000100
00001000
00000100
,
00010000
00001000
01000000
00200000
,
00000000
00300000
00000000
00000000
01000000
00000000
00010000
00000000
,
00100000
00001000
00010000
00000010
,
00000100
00000010
00001000
00000100
,
00010000
00001000
01000000
00100000
,
10000000
01000000
00100000
00010000
,
00100000
00000000
10010000
00000000
,
00000000
00000000
00000000
00100000
00000000
00100000
00000000
00000000
,
00100000
01000000
01100000
01000000
,
00010000
00010000
00100000
00001000
,
00010000
00010000
00000100
00000000
,
00000010
00000001
00001000
00001000
,
00000010
00000110
00001001
00001000
,
00000010
00000010
00010000
00001000
,
00010000
00010000
01000000
00000000
,
10000000
00100000
10000000
01000000
,
00100000
01100000
10010000
00010000
,
01000000
01000000
00001000
00010000
,
00001000
00001000
00010000
00000000
,
00000100
00000010
00000001
00000001
,
00001000
00000020
00000130
00000001
,
00001000
00001000
00000100
00010000
,
00001000
00100000
00020000
00000000
,
00000000
00000000
00230000
00000000
,
00000000
00000000
00302000
00000000
,
00000000
00000000
00023000
00000000
,
00000000
00000000
00030100
00001000
,
00000010
00000100
00000010
00000000
00000100
00000000
00000001
00000000
,
00001000
00000100
00001000
00000010
00001000
00000000
00000100
00000000
,
00010000
00001000
00010000
00000000
00001000
00000000
01000000
00000000
,
00100000
10000000
00100000
00000000
00000000
20000000
31000000
00200000
,
00310000
00000000
01000000
00000000
00200000
00000000
00000000
00300000
00000000
00000000
02000000
00000000
03010000
00000000
00200000
00000000
,
00301000
00010000
00000200
00002300
00003000
00000020
00000130
00000002
,
00001003
00000000
00000100
00000000
00020000
00000000
00000000
00030000
00000000
00000000
00002000
00000000
01003000
00000000
00200000
00000000
,
10300000
01000000
00200000
02300000
13000000
00000000
10000000
00000000
,
10000000
10000000
00100000
00100000
,
00100000
00100000
01000000
01000000
,
01000000
01000000
00010000
00010000
,
00010000
00010000
10000000
01000000
,
00100000
00010000
01000000
00010000
,
00100000
00001000
00010000
00000100
,
00001000
00000001
00000000
00001001
,
00000000
00000000
00000000
00000000
00000000
00000010
00000000
00000010
,
00000000
00000010
00000110
00001001
,
00000001
00001000
00001000
00000010
,
00010000
00001000
00001000
01000000
,
00000000
00100000
10000000
00010000
,
00010000
00100000
01100000
10010000
,
00010000
00100000
00100000
00001000
,
00010000
00001000
00001000
00000100
,
00000000
00000001
00000010
00000001
,
00000100
00000010
00000110
00001001
,
00001000
00000100
00000100
00010000
,
00001000
00010000
00010000
00001000
,
00000000
01000000
00100000
10000000
,
10000000
00010000
00200000
01300000
,
10000000
00010000
00010000
01000000
,
00001000
00010000
00000010
00000110
;

//---------------dance-double - Marten & Pandemonium X-DDP----------------
#NOTEDATA:;
#CHARTNAME:Marten & Pandemonium X-DDP;
#STEPSTYPE:dance-double;
#DESCRIPTION:Marten & Pandemonium X-DDP;
#DIFFICULTY:Medium;
#METER:10;
#RADARVALUES:0.406945,0.500203,0.135648,0.235600,0.282006,399,380,19,33,0,0,0,0,0,0.406945,0.500203,0.135648,0.235600,0.282006,399,380,19,33,0,0,0,0,0;
#CREDIT:Marten & Pandemonium X;
#NOTES:
00000000
00000000
00000000
00000000
,
00000000
00000000
00000000
00000000
,
00000000
00000000
00000000
00000000
,
00000000
00000000
00000000
00000000
,
10000000
00000000
00000000
10000000
00000000
00000000
00000000
00000000
,
00000000
00010000
00100000
00010000
00000000
00000000
00100000
00000000
,
00001000
00000000
00000000
00001000
00000000
00000000
00000000
00011000
,
00000000
00011000
00200000
00301000
,
00020000
00000000
00030100
00000000
00001000
00000000
00000010
00000200
,
00000000
00000300
00000000
00000000
00000020
00000000
00001030
00000000
,
00000200
00000000
00010300
00001000
00100000
01000000
20000000
00000000
,
30100000
00000000
02000000
03010000
,
00200000
00000000
01300000
00000000
10000000
00000000
00010000
02000000
,
00000000
03000000
00020000
00130000
,
00002000
00000000
00013000
00000100
00001000
00000010
00000200
00000000
,
00000302
00000013
00000010
00000100
,
00000100
00000000
00001000
00000000
00001000
00000000
00000100
00020000
,
00000000
00031000
00001000
01000000
,
01000000
00100000
00100000
20000000
,
32000000
00000000
03100000
00010000
00100000
00000000
00001000
00010000
,
00001000
00000000
00010000
00000100
00010000
00000000
00000010
00001000
,
00000010
00000000
00000100
00000010
00010000
00000000
00000100
00010000
,
00001000
00110000
10010000
00000000
,
00000000
00010000
00000000
00010000
00000000
00000000
01000000
00000000
00000000
00000000
01000000
00000000
00000000
00000000
01000000
00000000
,
01000000
00000000
00000000
00000000
01010000
00000000
00000000
00000000
10100000
00000000
00000000
00100000
00000000
00000000
10000000
00000000
,
01000000
00000000
10000000
00000000
00000000
10000000
00000000
00000000
00100000
00000000
00000000
00100000
00000000
00000000
01000000
00000000
,
00010000
00000000
01000000
00000000
00000000
01000000
00000000
00000000
00010000
00000000
00000000
00000000
00100000
00000000
00001000
00000000
,
00010000
00000000
00000000
00010000
00000000
00000000
00001000
00000000
00010000
00000000
00000100
00000000
00000000
00000000
00000010
00000000
,
00000010
00000000
00000000
00000000
00000011
00000000
00000000
00000000
00001001
00000000
00000000
00000001
00000000
00000000
00000100
00000000
,
00000010
00000000
00000100
00000000
00000000
00000100
00000000
00000000
00000010
00000000
00000000
00001000
00000000
00000000
00000100
00000000
,
00010000
00000000
00001000
00000000
00000000
01000000
00000000
00000000
00100000
00000000
00000000
00000000
10000000
00000000
00010000
00000000
,
00100000
00000000
00000000
00100000
00000000
00000000
01000000
00000000
00100000
00000000
00010000
00000000
00000000
00000000
01000000
00000000
,
01000000
00000000
00000000
00000000
02000000
00000000
00000000
00000000
03010000
00000000
00000000
00100000
00000000
00000000
00001000
00000000
,
00010000
00000000
00000100
00000000
00000000
00000100
00000000
00000000
00000010
00000000
00000000
00000010
00000000
00000000
00000001
00000000
,
00001000
00000000
00000010
00000000
00000000
00010000
00000000
00000000
00001000
00000000
00000000
00000000
00000000
00000000
00000000
00000000
,
01000000
00000000
00000000
00100000
00000000
00000000
10000000
00000000
00010000
00000000
10000000
00000000
00000000
00000000
01000000
00000000
,
01000000
00000000
00000000
00000000
00200000
00000000
00000000
00000000
00301000
00000000
00000000
00000010
00000000
00000000
00000001
00000000
,
00001000
00000000
00000001
00000000
00000000
00000100
00000000
00000000
00000010
00000000
00000000
00010000
00000000
00000000
00001000
00000000
,
00100000
00000000
00000000
00000000
00010000
00000000
00100000
00000000
00110000
00000000
00000000
00100000
00000000
00000000
00000000
00000000
,
00000000
00010000
10000000
00010000
00000000
00000000
01000000
01000000
00001000
00000000
00000000
00001000
00000000
00000000
00000000
00001000
,
00000000
00010000
00000100
00010000
00000000
00000000
00000000
00000000
00000100
00000000
00000000
00001000
00000000
00000000
00000000
00000000
,
00000000
00000010
00000100
00000100
00000000
00000000
00000010
00000010
00001000
00000000
00000000
00000001
00000000
00000000
00000000
00000010
,
00000000
00000100
00001000
00000010
00000000
00000000
00000000
00000000
00000110
00000000
00000000
00000010
00000000
00000000
00000000
00000000
,
00000000
00010000
00001000
01000000
00000000
00000000
00100000
00100000
10000000
00000000
00000000
00010000
00000000
00000000
00000000
00100000
,
00000000
00100000
00001000
00010000
00000000
00000000
00000000
00000000
00011000
00000000
00000000
00000100
00000000
00000000
00000000
00000000
,
00000000
00001000
00000010
00000100
00000000
00000000
00000010
00000010
00000100
00000000
00000000
00000001
00000000
00000000
00000000
00000001
,
00000000
00001000
00000010
00001000
00000000
00000000
00000000
00000000
00001100
00000000
00000200
00000000
00010300
00000000
00002000
00000000
,
01003000
00000000
00100000
00000000
10000000
00020000
00000000
00000000
00030000
00000000
00200000
00000000
00301000
00000000
00020000
00000000
,
00030010
00000100
00000001
00000010
00000200
00000000
00002300
00000000
00003001
00000000
00000200
00000000
00000310
00000000
00002000
00000000
,
00003100
00000000
00010000
00000000
00001000
02000000
00000000
00000000
03000000
00000000
00200000
00000000
10300000
00000000
02000000
00000000
,
03100000
01000000
10000000
00100000
02000000
00000000
03010000
00100000
00001000
00000000
00000000
00000000
00001000
00000000
00000000
00000000
,
00001000
00000000
00001000
00010000
00000100
00000000
00000100
00000000
,
00000100
00000000
00000100
00000100
00000010
00000000
00000010
00000000
,
00000010
00000000
00000010
00000010
00000001
00000000
00000001
00000000
,
00000001
00000000
00000001
00000001
00001000
00000010
00000100
00000000
,
00000010
00010000
00001000
00000000
00100000
00001000
01000000
00000000
,
00010000
10000000
01000000
00000000
00100000
00010000
00100000
00001000
,
00010000
00000010
00001000
00000010
00001010
00000000
00001001
00000000
,
00000000
00000000
00000000
00000000
00000000
00001000
00000000
00001000
00000000
00000000
00000100
00000000
00000000
00000000
00000100
00000000
,
00000000
00000000
00000100
00000000
00000100
00000000
00000000
00000000
00001100
00000000
00000000
00000000
00000011
00000000
00000000
00000010
,
00000000
00000000
00000001
00000000
00000100
00000000
00000001
00000000
00000000
00000001
00000000
00000000
00000010
00000000
00000000
00000010
,
00000000
00000000
00000100
00000000
00001000
00000000
00000100
00000000
00000000
00000100
00000000
00000000
00001000
00000000
00000000
00000000
,
00000010
00000000
00010000
00000000
00001000
00000000
00000000
00001000
00000000
00000000
00010000
00000000
00001000
00000000
01000000
00000000
,
00000000
00000000
00100000
00000000
00100000
00000000
00000000
00000000
10100000
00000000
00000000
00000000
10010000
00000000
00000000
10000000
,
00000000
00000000
01000000
00000000
00100000
00000000
01000000
00000000
00000000
01000000
00000000
00000000
00100000
00000000
00000000
00010000
,
00000000
00000000
01000000
00000000
00001000
00000000
00010000
00000000
00000000
00000100
00000000
00000000
00000010
00000000
00000000
00000000
,
00000001
00000000
00001000
00000000
00000010
00000000
00000000
00000010
00000000
00000000
00000100
00000000
00000010
00000000
00001000
00000000
,
00000000
00000000
00000100
00000000
00000100
00000000
00000000
00000000
00000200
00000000
00000000
00000000
00001300
00000000
00000000
00000010
,
00000000
00000000
00010000
00000000
00001000
00000000
01000000
00000000
00000000
01000000
00000000
00000000
00100000
00000000
00000000
00100000
,
00000000
00000000
10000000
00000000
00010000
00000000
00100000
00000000
00000000
00001000
00000000
00000000
00010000
00000000
00000000
00000000
,
00000000
00000000
00000000
00000000
00000100
00000000
00000000
00000010
00000000
00000000
00000001
00000000
00001000
00000000
00000001
00000000
,
00000000
00000000
00000100
00000000
00000100
00000000
00000000
00000000
00000020
00000000
00000000
00000000
00010030
00000000
00000000
00100000
,
00000000
00000000
10000000
00000000
00010000
00000000
10000000
00000000
00000000
01000000
00000000
00000000
00100000
00000000
00000000
00001000
,
00000000
00010000
00000010
00000000
00001000
00000010
00001010
00000000
;

//---------------dance-double - NewbStepper & Pandemonium X-EDP----------------
#NOTEDATA:;
#CHARTNAME:NewbStepper & Pandemonium X-EDP;
#STEPSTYPE:dance-double;
#DESCRIPTION:NewbStepper & Pandemonium X-EDP;
#DIFFICULTY:Hard;
#METER:14;
#RADARVALUES:0.559932,0.658162,0.371248,0.199903,0.503327,549,497,52,28,0,0,0,0,0,0.559932,0.658162,0.371248,0.199903,0.503327,549,497,52,28,0,0,0,0,0;
#CREDIT:NewbStepper & Pandemonium X;
#NOTES:
// measure 0
00000000
00000000
00000000
00000000
,  // measure 1
00000000
00000000
00000000
00000000
,  // measure 2
00000000
00000000
00000000
00000000
,  // measure 3
00000000
00000000
00000000
00000000
,  // measure 4
10000000
00000000
00000000
10000000
00000000
00000000
00000000
00000000
,  // measure 5
00000000
00000000
00010000
00100000
00010000
00000000
00100000
00000000
00000000
00000000
00000000
00000000
00010000
00000000
00010000
00000000
,  // measure 6
00100000
00000000
00000000
00100000
00000000
00000000
00000000
00011000
,  // measure 7
00000000
00010100
00020000
00030010
,  // measure 8
00000200
00000000
00000301
00000010
00001000
00000010
00000100
00002000
,  // measure 9
00000000
00003000
00000200
00010300
,  // measure 10
00002000
00000000
01003000
10000000
01000000
00100000
20000000
00000000
,  // measure 11
31000000
00100000
00010000
00000000
00200000
00000000
00301000
00000000
,  // measure 12
00020000
00000000
00030010
00000100
00000001
00001000
00000100
00000002
,  // measure 13
00000000
00000003
00000200
00001300
,  // measure 14
00000020
00000000
00000130
00000010
00001000
00000100
00020000
00000000
,  // measure 15
00031000
01000000
00100000
00000000
00100000
00000000
01000000
00000000
,  // measure 16
01000000
00010000
00010000
00100000
,  // measure 17
00100000
00001000
00001000
00010000
,  // measure 18
00010000
00000100
00000100
00001000
,  // measure 19
00001000
00000000
00000010
00000100
00000010
00000100
00000010
00001000
,  // measure 20
00000010
00001000
00000100
00001000
00000100
00001000
00000100
00010000
,  // measure 21
00000100
00000000
00010000
00000000
00001000
00100000
00001000
00100000
00001000
00100000
00001000
00100000
00001000
00100000
00001000
00100000
,  // measure 22
00001000
00100000
00001000
00100000
00000000
00000000
00000000
00000000
00101000
00000000
00000000
00000000
00000000
00000000
00000000
00000000
,  // measure 23
00000000
00010000
00001000
00010000
00000000
00000000
00010000
00000000
00000000
00000000
00100000
00000000
00000000
00000000
00100000
00000000
,  // measure 24
10000000
00000000
00000000
00000000
10010000
00000000
00000000
00000000
01010000
00000000
00000000
00010000
10000000
00000000
01000000
00000000
,  // measure 25
00100000
00001000
00100000
00000000
00001000
00010000
00000000
00000000
00000010
00000000
00000000
00000010
00001000
00000000
00000001
00000000
,  // measure 26
00000100
00000010
00000100
00000000
00000010
00010000
00000000
00000000
00010010
00000000
00000000
00000000
00010000
00001000
00010000
00001000
,  // measure 27
00000100
00000000
00000000
00000010
00000000
00000000
00001000
00000000
00000001
00001000
00000001
00000000
00000000
00000000
00000010
00000000
,  // measure 28
00000010
00000000
00000000
00000000
00000110
00000000
00000000
00000000
00010100
00000000
00000000
00010000
00001000
00000000
00100000
00000000
,  // measure 29
00010000
01000000
00010000
00000000
00000000
10000000
00000000
00000000
10100000
00000000
00000000
00100000
01000000
00000000
00010000
00000000
,  // measure 30
01000000
00001000
00010000
00000000
00001000
00100000
00000000
00000000
00101000
00000000
00000000
00000000
00001000
00010000
00001000
00010000
,  // measure 31
01000000
00000000
00000000
00100000
00000000
00000000
00010000
00000000
10000000
00010000
10000000
00000000
01000000
00000000
00010000
00000000
,  // measure 32
00010000
00000000
00000000
00000000
00001000
00010000
00001000
00010000
00000010
00000000
00000000
00001000
00000100
00000000
00000010
00000000
,  // measure 33
00000001
00001000
00000001
00000000
00000100
00001000
00000000
00000000
00010000
00000000
00000000
00010000
00100000
00000000
10000000
00000000
,  // measure 34
01000000
00100000
01000000
00000000
10000000
00010000
00000000
00000000
10010000
00000000
00000000
00000000
00000000
00000000
00000000
00000000
,  // measure 35
10010000
00000000
00000000
01010000
00000000
00000000
01001000
00000000
00001000
00010000
00001000
00000000
00000010
00000000
00000001
00000000
,  // measure 36
00000100
00000000
00000000
00000000
00000020
00000000
00000000
00000000
00010030
00000000
00000000
00010000
00001000
00000000
00000100
00000000
,  // measure 37
00000001
00000010
00000001
00000000
00001000
00000010
00000000
00000000
00010000
00000000
00000000
00010000
00001000
00000000
00100000
00000000
,  // measure 38
00020000
00000000
00000000
00000000
01030000
00000000
00000000
00000000
10010000
00000000
00000000
10010000
00000000
00000000
00000000
00000000
,  // measure 39
00000000
00000000
00100000
01000000
00100000
00000000
01000000
00000000
00000000
00000000
00000000
00000000
00010000
00000000
00010000
00000000
00110000
00000000
00000000
00000000
00000000
00000000
00110000
00000000
00000000
00000000
00000000
00000000
00000000
00000000
00110000
00000000
,  // measure 40
00000000
00100000
00001000
00001000
00000000
00000000
00000000
00000000
00011000
00000000
00000000
00011000
00000000
00000000
00000000
00000000
,  // measure 41
00000000
00000000
00000100
00001000
00000100
00000000
00001000
00000000
00000000
00000000
00000000
00000000
00000001
00000000
00000001
00000000
00000101
00000000
00000000
00000000
00000000
00000000
00000101
00000000
00000000
00000000
00000000
00000000
00000000
00000000
00000101
00000000
,  // measure 42
00000000
00000000
00000010
00001000
00000010
00000000
00000100
00000000
00000000
00000000
00000000
00000000
00000000
00000000
00000000
00000000
00000110
00000000
00000000
00000000
00000000
00000000
00001010
00000000
00000000
00000000
00000000
00000000
00000000
00000000
00000000
00000000
,  // measure 43
00000000
00000000
00000100
00010000
00001000
00000000
00010000
00000000
00000000
00000000
00000000
00000000
00001000
00000000
00001000
00000000
00011000
00000000
00000000
00000000
00000000
00000000
01010000
00000000
00000000
00000000
00000000
00000000
00000000
00000000
01010000
00000000
,  // measure 44
00000000
10000000
00100000
00010000
00000000
00000000
00000000
00000000
01100000
00000000
00000000
10100000
00000000
00000000
00000000
00000000
,  // measure 45
00000000
00000000
10000000
01000000
00100000
00000000
01000000
00000000
00000000
00000000
00000000
00000000
00100000
00000000
00100000
00000000
00110000
00000000
00000000
00000000
00000000
00000000
00101000
00000000
00000000
00000000
00000000
00000000
00000000
00000000
00011000
00000000
,  // measure 46
00000000
00010000
00000100
00000100
00000000
00000000
00000000
00000000
00001010
00000000
00000020
00000000
00000130
00000000
00000002
00000000
,  // measure 47
00001003
00000000
00000100
00000000
00010000
00000000
00001000
00000000
00010000
00000000
02000000
00000000
00000000
00000000
00000000
03000000
10010000
00000000
00000000
00000000
00200000
00000000
00000000
00000000
10300000
00000000
00000000
00000000
02000000
00000000
00000000
00000000
,  // measure 48
03100000
01000000
10000000
00010000
02000000
00000000
03001000
00010000
00010100
00000000
00020000
00000000
00030010
00000000
00000200
00000000
,  // measure 49
00000310
00000000
00001000
00000000
00000100
00000000
00000001
00000000
00000100
00000000
00002000
00000000
00000000
00000000
00000000
00003000
00001100
00000000
00000000
00000000
00000200
00000000
00000000
00000000
00010300
00000000
00000000
00000000
00002000
00000000
00000000
00000000
,  // measure 50
01003000
10000000
01000000
00010000
00200000
00000000
01300000
00100000
00010000
00000000
00000000
00000000
00010000
00000000
00000000
00000000
,  // measure 51
00100000
00000000
00100000
00001000
00010000
00000000
00010000
00000000
,  // measure 52
00001000
00000000
00000000
00000000
00001000
00010000
00001000
00000000
00000010
00000000
00000000
00000000
00000010
00000000
00000000
00000000
,  // measure 53
00000001
00000000
00000000
00000000
00000100
00000010
00000100
00000000
00001000
00000000
00000000
00000000
00001000
00000000
00000000
00000000
,  // measure 54
00010000
00000000
00000000
00000000
00010000
00001000
00010000
00000000
00100000
00000000
10000000
00000000
00100000
00000000
10000000
00000000
,  // measure 55
01000000
10000000
01000000
00010000
01000000
00010000
00001000
00010000
,  // measure 56
00001000
00000000
00000010
00000000
00001000
00000000
00000010
00000000
00000001
00001000
00000001
00001000
00000001
00001000
00000001
00001000
,  // measure 57
00000001
00001000
00000001
00001000
00000001
00001000
00000001
00001000
00000000
00000000
00000000
00000000
00010010
00000000
00000000
00000000
,  // measure 58
00000000
00000000
00000000
00000000
00000000
00001000
00010000
00001000
00000000
00000000
00001000
00000000
00000000
00000000
00000010
00000000
,  // measure 59
00000000
00000000
00000010
00000000
00000001
00000000
00000000
00000000
00001001
00000000
00000000
00000000
00001100
00000000
00000000
00001000
,  // measure 60
00000001
00000000
00000100
00000000
00000010
00010000
00000010
00000000
00010000
00001000
00000000
00000000
00100000
00000000
00000000
00100000
,  // measure 61
00010000
00000000
10000000
00000000
01000000
00100000
01000000
00000000
00100000
00001000
00000000
00000000
00101000
00000000
00000000
00000000
,  // measure 62
00001000
00010000
00001000
00010000
01000000
00000000
00000000
00100000
00000000
00000000
00010000
00000000
10000000
00010000
10000000
00000000
,  // measure 63
01000000
00000000
00010000
00000000
00001000
00000000
00000000
00000000
00011000
00000000
00000000
00000000
00010010
00000000
00000000
00000010
,  // measure 64
00001000
00000000
00000100
00000000
00000010
00000001
00000010
00000000
00000001
00001000
00000000
00000000
00001001
00000000
00000000
00000001
,  // measure 65
00000100
00000000
00000010
00000000
00001000
00000010
00001000
00000000
00000100
00010000
00000000
00000000
00010010
00000000
00000000
00000000
,  // measure 66
00010000
00001000
00010000
00001000
00000100
00000000
00000000
00000010
00000000
00000000
00001000
00000000
00000001
00001000
00000001
00000000
,  // measure 67
00000100
00000000
00001000
00000000
00010000
00000000
00000000
00000000
00100000
10000000
00100000
10000000
01000000
00000000
00000000
01000000
,  // measure 68
00010000
00000000
00001000
00000000
00000010
00000100
00000010
00000000
00000001
00000100
00000000
00000000
00000110
00000000
00000000
00000010
,  // measure 69
00001000
00000000
00000001
00000000
00000010
00000100
00000010
00000000
00000100
00010000
00000000
00000000
00011000
00000000
00000000
00000000
,  // measure 70
00000000
00000000
00000000
00000000
00011000
00000000
00000000
01001000
00000000
00000000
01010000
00000000
00010000
10000000
00010000
00000000
,  // measure 71
10000000
00000000
01000000
00000000
00010000
00000000
00000000
00000000
00002000
00000000
00000000
00000000
00003010
00000000
00000000
00000010
,  // measure 72
00000001
00000000
00000100
00000000
00001000
00010000
00001000
00000000
00100000
00010000
00000000
00000000
10000000
00000000
00000000
10000000
,  // measure 73
01000000
00100000
00020000
00000000
10030000
00010000
10010000
00000000
;
