// oh my god, i'm going to africa
#TITLE:THE SAFARI;
#ARTIST:Lion Musashi;
#BANNER:THE SAFARI.png;
#BACKGROUND:THE SAFARI-bg.png;
#MUSIC:THE SAFARI.ogg;
#OFFSET:0.223;
#SAMPLESTART:32.177;
#SAMPLELENGTH:15;
#BPMS:0=150;
#STOPS:12.5=0.4;

//---------------dance-single - NewbStepper-ESP----------------
#NOTES:
     dance-single:
     NewbStepper:
     Hard:
     13:
     0.631647,0.669545,0.378988,0.195236,0.476606,385,352,33,17,0,0,0.631647,0.669545,0.378988,0.195236,0.476606,385,352,33,17,0,0:
0000
0000
0000
0000
,
0002
0023
2030
3002
,
0203
2300
3002
0203
,
0310
0000
1001
0000
0100
0000
0010
1000
,
0200
0010
0000
0310
,
0002
0100
0000
0103
,
2000
0100
0000
3100
,
0001
0000
0010
0000
0100
0000
1000
0001
,
0100
0010
1000
0000
0001
0000
1100
0000
,
0100
0010
0001
0000
1000
0000
0101
0000
,
0010
1000
0100
0000
0010
0000
1001
0000
,
0001
0100
0000
0100
0000
0100
0000
0100
0000
0000
0001
0000
1000
0000
0001
0000
,
1001
0000
0100
0000
1000
0001
0100
0010
,
1000
0000
0100
0000
0010
0001
0100
0010
,
1000
0000
0100
0000
0001
0100
1000
0010
,
0100
0001
1000
0000
0100
1000
0001
0000
,
1001
0000
0100
0000
0001
1000
0100
0010
,
0001
0000
0100
0000
0010
1000
0100
0010
,
0001
0000
0100
0000
1000
0100
0001
0010
,
0100
1000
0000
0001
0000
1000
0000
2000
0000
0000
3001
0000
0000
0000
0010
0000
,
0011
0000
0000
0010
0100
0000
0000
0100
1000
0000
0010
0000
0001
0000
0010
0000
,
1000
0000
0000
1000
0100
0000
0000
0100
0010
0000
0001
0000
0100
0000
0010
0000
,
1000
0000
0000
1000
0100
0000
0000
0100
0001
0000
0100
0000
1000
0000
0010
0000
,
0100
0000
0000
0100
0001
0000
0000
0001
1000
0000
1100
0000
0000
0000
1001
0000
,
1010
0000
0000
0010
0100
0000
0000
0100
0001
0000
0010
0000
1000
0000
0010
0000
,
0001
0000
0000
0001
0100
0000
0000
0100
0010
0000
1000
0000
0100
0000
0010
0000
,
0001
0000
0000
0001
0100
0000
0000
0100
1000
0000
0100
0000
0001
0000
0000
0000
,
1000
0100
0010
0001
0100
0010
1000
0001
,
0011
0000
0000
1000
0000
0000
0101
0000
0000
0000
0010
0000
1000
0000
0100
0000
,
0110
0000
0000
0001
0000
0000
1001
0000
0000
0000
0001
0000
0100
0000
0010
0000
,
1010
0000
0000
0001
0000
0000
1100
0000
0000
0000
0010
0000
0001
0000
0100
0000
,
0110
0000
0000
1001
0000
0000
0110
0000
0001
1000
0000
0001
1000
0000
0100
0000
,
1100
0000
0000
1010
0000
0000
0101
0000
0000
0000
1000
0000
0001
0000
0100
0000
,
0000
0000
0101
0000
0000
1010
0000
0110
0000
0010
0000
0000
0100
0000
0001
0000
,
0101
0000
0000
0011
0000
0000
1100
0000
0000
0000
1000
0000
0100
0000
0010
0000
,
0100
0000
0000
0000
1001
0000
0000
1000
0100
0000
0000
0100
0010
0000
0001
0100
,
0001
0100
0000
0010
0000
0010
0000
0010
0000
0000
1000
0000
0001
0000
1000
0000
,
1010
0000
0000
0010
0100
0000
0000
0100
0001
0000
0010
0000
1000
0000
0010
0000
,
0001
0000
0000
0001
0100
0000
0000
0100
0010
0000
1000
0000
0100
0000
0010
0000
,
0001
0000
0000
0001
0100
0000
0000
0100
1000
0000
0100
0000
0001
0000
0010
0000
,
0100
0000
0000
0100
1000
0000
0000
1000
0001
0000
0101
0000
0000
0000
1010
0000
,
1000
0100
0000
0000
0110
0000
0000
0100
1000
0000
0010
0000
0001
0000
0010
0000
,
1000
0000
0000
1000
0100
0000
0000
0100
0010
0000
0001
0000
0100
0000
0010
0000
,
1000
0000
0000
1000
0100
0000
0000
0100
0001
0000
0100
0000
1000
0000
0010
0000
,
0100
0001
0000
1000
0000
0001
0000
0002
0000
0000
1003
0000
0010
1000
0010
1000
,
0010
1000
0000
0001
0000
1000
0010
0000
1000
0000
0100
0000
0001
0000
0100
0000
,
0010
0001
0000
1000
0000
0001
0010
0000
0001
0000
0100
0000
1000
0000
0100
0000
,
0001
0010
0000
0001
0000
1000
0010
0000
0100
0000
1000
0000
0100
0000
0001
0000
,
1000
0010
0000
1000
0000
0001
0010
0000
0100
0000
0001
0000
0100
0000
1000
0000
,
0001
0100
0000
0010
0000
0100
0001
0000
0000
0000
1000
0100
1000
0000
0001
0000
,
1000
0100
0000
0010
0000
0100
1000
0000
0000
0000
0001
0100
0001
0000
1000
0000
,
0010
0100
0000
0010
0000
0100
0010
0000
0000
0000
1000
0000
0100
0000
0010
0000
,
0002
0203
0320
2030
,
3000
0000
0000
0000
;

//---------------dance-single - NewbStepper-DSP----------------
#NOTES:
     dance-single:
     NewbStepper:
     Medium:
     8:
     0.403598,0.486942,0.528286,0.137814,0.057422,246,200,46,12,0,0,0.403598,0.486942,0.528286,0.137814,0.057422,246,200,46,12,0,0:
0000
0000
0000
0000
,
1000
0100
0010
0001
,
0100
0010
1000
0100
,
0010
0000
0011
0000
0100
0000
1000
0001
,
0200
0000
0000
0300
,
0002
0000
0000
0003
,
2000
0000
0000
3000
,
0001
0000
0010
0000
0100
0000
1000
0001
,
0010
0010
0010
0010
,
0100
0100
0100
0100
,
1000
1000
1000
1000
,
1001
0000
0000
0000
,
0011
0100
1000
0100
,
1010
0100
0001
0100
,
1001
0100
0010
0100
,
1001
0010
0000
0010
,
1010
0100
0001
0100
,
0011
0100
1000
0100
,
1001
0100
0010
0100
,
1001
0000
0000
0000
,
1010
0000
0100
0000
0001
0010
0001
0000
,
0011
0000
0100
0000
1000
0010
1000
0000
,
1100
0000
1000
0000
0010
1000
0010
0000
,
0101
0000
0001
0000
0010
0001
0010
0000
,
0210
0000
0000
0000
1000
1000
1300
0000
,
0210
0000
0000
0000
0001
0001
0301
0000
,
0210
0000
0000
0000
0010
0010
0310
0000
,
0001
0000
0000
0100
0000
0000
0010
0000
1000
0000
0000
0000
0001
0000
0000
0000
,
0010
0000
0000
0010
0000
0000
0010
0000
0000
0000
0000
0000
0000
0000
0000
0000
,
0100
0000
0000
0100
0000
0000
0100
0000
0000
0000
0000
0000
0000
0000
0000
0000
,
1000
0000
0000
1000
0000
0000
1000
0000
0000
0000
0000
0000
0000
0000
0000
0000
,
0001
0000
0000
0001
0000
0000
0001
0000
0000
0000
0000
0000
0000
0000
0000
0000
,
1000
0000
0000
0100
0000
0000
1000
0000
0000
0000
0000
0000
0000
0000
0000
0000
,
0000
0000
0001
0000
0000
0100
0000
0000
0001
0000
0000
0000
1000
0000
0000
0000
,
0010
0000
0000
0100
0000
0000
0010
0000
0000
0000
0000
0000
0000
0000
0000
0000
,
0100
2002
0000
3003
,
0010
0000
0100
0000
0010
0000
0100
0000
0010
0000
0000
0100
0000
0000
0000
0000
,
0101
0010
0101
0010
,
1100
0010
1100
0001
,
1010
0100
1010
0100
,
0011
0100
0011
1000
,
0000
1100
0010
1100
,
0010
0101
0010
0101
,
1001
0010
1001
0100
,
0010
0000
0100
0000
0010
0000
0100
0000
0010
0000
0000
0100
0000
0000
0000
0000
,
0010
0000
1100
0000
0011
0000
0100
1000
,
0010
0000
1100
0000
0011
0000
0100
0001
,
0010
0000
0110
0000
1001
0000
0010
1000
,
0100
0110
0001
0110
,
0010
0000
0101
0000
1010
0000
0100
0001
,
0010
0000
0101
0000
1010
0000
0100
1000
,
0010
0000
0110
0000
1001
0000
0010
0001
,
0200
0320
2030
3002
,
0003
0000
0000
0000
;

//---------------dance-single - NewbStepper-BSP----------------
#NOTES:
     dance-single:
     NewbStepper:
     Easy:
     5:
     0.221486,0.302903,0.103360,0.126329,0,135,126,9,11,0,0,0.221486,0.302903,0.103360,0.126329,0,135,126,9,11,0,0:
0000
0000
0000
0000
,
0001
0000
1000
0001
,
0000
1000
0001
0000
,
1000
0000
0001
0100
,
0020
0000
0000
0000
,
0000
0000
0030
0000
,
2000
0000
0000
3000
,
0001
0010
0100
1000
,
0002
0000
0000
0000
,
0000
0000
0000
0003
,
2000
0000
0000
0000
,
0000
0000
0000
3000
,
0001
0100
0000
0100
,
0010
0100
0000
0100
,
1000
0100
0000
0100
,
0001
0010
0000
0100
,
1000
0100
0000
0100
,
0010
0100
0000
0100
,
0001
0200
0300
0000
,
1001
0000
0000
0000
,
0010
0001
0010
0000
,
0001
0100
0001
0000
,
0100
1000
0100
0000
,
1000
0010
0001
0100
,
0010
1000
0010
0000
,
1000
0100
1000
0000
,
0100
0001
0100
0000
,
0001
0010
1000
0100
,
0020
0000
0030
0000
,
0002
0000
0003
0000
,
2000
0000
3000
0000
,
0020
0000
0030
0000
,
1100
0000
0000
0000
,
0000
0101
0000
0000
0000
0000
0000
0000
,
0110
0000
0000
0000
,
0000
2002
0000
0000
,
0000
0000
0000
3003
,
0010
0100
0010
0100
,
0001
0100
0001
0100
,
0010
1000
0010
1000
,
0100
0010
0001
0000
,
0010
0100
0010
0100
,
1000
0100
1000
0100
,
0010
0001
0010
0001
,
0100
0010
1000
0000
,
0001
0100
0101
0000
,
1000
0100
1100
0000
,
0001
0010
0011
0000
,
1000
0010
1010
0000
,
1000
0100
0000
0100
,
0001
0010
0000
0010
,
1000
0100
0000
0100
,
0001
0010
1000
0100
;

//---------------dance-single - NewbStepper-bSP----------------
#NOTES:
     dance-single:
     NewbStepper:
     Beginner:
     2:
     0.129611,0.179158,0.068907,0.011484,0,79,73,6,1,0,0,0.129611,0.179158,0.068907,0.011484,0,79,73,6,1,0,0:
0000
0000
0000
0000
,
1000
0000
0000
0001
,
0000
0000
1000
0000
,
0000
0000
0000
0000
,
0001
0000
0000
0000
,
0000
0000
0000
0000
,
1000
0000
0000
0000
,
0000
0000
0000
0000
,
0001
0001
0000
0000
,
1000
1000
0000
0000
,
0010
0010
0000
0000
,
0100
0100
0100
0000
,
0001
0000
0000
0000
,
1000
0000
0000
0000
,
0001
0000
0000
0000
,
1000
0000
0000
0000
,
0010
0000
0000
0000
,
0100
0000
0000
0000
,
0010
0000
0000
0000
,
0100
0000
0000
0000
,
0001
0001
0000
0000
,
0010
0010
0000
0000
,
0100
0100
0000
0000
,
1000
1000
0000
0000
,
0001
0000
0001
0000
,
0001
0000
0000
0000
,
1000
0000
1000
0000
,
1000
0000
0000
0000
,
1001
0000
0000
0000
,
1001
0000
0000
0000
,
1001
0000
0000
0000
,
1001
0000
0000
0000
,
1001
0000
0000
0000
,
0000
0000
0000
0000
,
1001
0000
0000
0000
,
0000
0020
0000
0000
,
0000
0000
0030
0000
,
1000
1000
0000
0000
,
0100
0100
0000
0000
,
0010
0010
0000
0000
,
0001
0001
0000
0000
,
0000
1000
0000
0000
,
0010
0010
0000
0000
,
0100
0100
0000
0000
,
0001
0001
0001
0000
,
1000
0000
0100
0000
,
0010
0000
0001
0000
,
0010
0000
0100
0000
,
1000
0000
0000
0000
,
0001
0000
0100
0000
,
0010
0000
1000
0000
,
0010
0000
0100
0000
,
0001
0000
0000
0000
;

//---------------dance-double - NewbStepper-EDP----------------
#NOTES:
     dance-double:
     NewbStepper:
     Hard:
     13:
     0.593912,0.608678,0.298597,0.183752,0.183752,362,336,26,16,0,0,0.593912,0.608678,0.298597,0.183752,0.183752,362,336,26,16,0,0:
// measure 0
00000000
00000000
00000000
00000000
,  // measure 1
00000002
00000203
00002300
00023000
,  // measure 2
02030000
23000000
30020000
00230000
,  // measure 3
00301000
00000000
00011000
00000000
00010000
00000000
00001000
00000100
,  // measure 4
00000002
00000100
00000000
00000103
,  // measure 5
00002000
00000100
00000000
00003100
,  // measure 6
00000020
00010000
00000000
00010030
,  // measure 7
00001000
00000000
00010000
00000000
01000000
00000000
00100000
00010000
,  // measure 8
10000000
01000000
00010000
00100000
,  // measure 9
10000000
00000000
00000000
00000000
01000000
00000000
00010000
00000000
00001000
00000000
00000000
00000100
00000000
00000000
00000001
00000000
,  // measure 10
00000010
00000001
00000100
00001000
,  // measure 11
00000010
00000100
00000000
00000100
00000000
00000100
00000000
00000100
00000000
00000000
00010000
00000000
00000000
00000000
00001000
00000000
,  // measure 12
00010000
00000000
01000000
00000000
10000000
00100000
01000000
00010000
,  // measure 13
10000000
00000000
01000000
00000000
00010000
00001000
00000100
00000001
,  // measure 14
00001000
00000000
00000100
00000000
00000010
00000001
00000100
00001000
,  // measure 15
00010000
00000000
01000000
00000000
10000000
00100000
01000000
00000000
,  // measure 16
00011000
00000000
00000100
00000000
00000001
00000010
00000100
00001000
,  // measure 17
00000001
00000000
00000100
00000000
00001000
00010000
01000000
10000000
,  // measure 18
00010000
01000000
00100000
10000000
,  // measure 19
01000000
00100000
00000000
00001000
00000000
00010000
00000000
00020000
00000000
00000000
00030100
00000000
00000000
00000000
00000010
00000000
,  // measure 20
00001001
00000001
00000100
00001000
00010000
00001000
00000010
00001000
,  // measure 21
00010000
00100000
00010000
00001000
00010000
01000000
10000000
01000000
,  // measure 22
00010000
00001000
00100000
00001000
00010000
00100000
00010000
00001000
,  // measure 23
00000010
00001000
00010000
01000000
10000000
10100000
00000000
01010000
,  // measure 24
10010000
10000000
01000000
00010000
00001000
00010000
00100000
00010000
,  // measure 25
00001000
00000010
00001000
00010000
00001000
00000100
00000001
00000100
,  // measure 26
00001000
00010000
00000010
00010000
00001000
00000010
00001000
00010000
,  // measure 27
00100000
00000000
00000000
10000000
00000000
00000000
01000000
00000000
00100000
00000000
00010000
00000000
00100000
00000000
00001000
00000000
,  // measure 28
00011000
00000000
00000000
01000000
00000000
00000000
01010000
00000000
00000000
00000000
00100000
00000000
01000000
00000000
00001000
00000000
,  // measure 29
00011000
00000000
00000000
00000100
00000000
00000000
00001100
00000000
00000000
00000000
00000010
00000000
00000100
00000000
00010000
00000000
,  // measure 30
00011000
00000000
00000000
00000100
00000000
00000000
00000001
00000000
00000000
00000000
00000010
00000000
00000100
00000000
00010000
00000000
,  // measure 31
00011000
00000000
00000000
01000000
00000000
00000000
10000000
00000000
00000000
00000000
00100000
00000000
01000000
00000000
00001000
00000000
,  // measure 32
00011000
00000000
00000000
00010010
00000000
00000000
00001010
00000000
00000000
00000000
00000001
00000000
00000100
00000000
00001000
00000000
,  // measure 33
00000000
00000000
00011000
00000000
00000000
01001000
00000000
01010000
00000000
00100000
00000000
00000000
10000000
00000000
01000000
00000000
,  // measure 34
01100000
00000000
00000000
00011000
00000000
00000000
00101000
00000000
00000000
00000000
00010000
00000000
00001000
00000000
00000100
00000000
,  // measure 35
00000001
00000000
00000000
00000000
00001001
00000000
00000000
00001000
00000100
00000000
00000000
00000100
00000010
00000000
00001000
00000000
,  // measure 36
00010000
00100000
00000000
00100000
00000000
00100000
00000000
00100000
00000000
00000000
01000000
00000000
00000000
00000000
00100000
00000000
,  // measure 37
10010000
10000000
01000000
00010000
00001000
00010000
00100000
00010000
,  // measure 38
00001000
00000010
00001000
00010000
00001000
00000100
00000001
00000100
,  // measure 39
00001000
00010000
00000010
00010000
00001000
00000010
00001000
00010000
,  // measure 40
00100000
00010000
00001000
00000100
00000001
00000011
00000000
00001100
,  // measure 41
00000100
00000010
00000000
00000000
00000110
00000000
00001000
00000000
00010000
00000000
00001000
00000000
00000010
00000000
00001000
00000000
,  // measure 42
00010000
00100000
00010000
00001000
00010000
01000000
10000000
01000000
,  // measure 43
00010000
00001000
00100000
00001000
00010000
00100000
00010000
00001000
,  // measure 44
00000010
00000100
00000000
00000100
00000000
00000100
00000000
00000100
00000000
00000000
00010000
00000000
00001000
00010000
00001000
00010000
,  // measure 45
00001000
00000100
00000001
00000010
00000001
00000100
00001000
00010000
,  // measure 46
01000000
10000000
00100000
10000000
01000000
00010000
00001000
00010000
,  // measure 47
00100000
10000000
01000000
10000000
00100000
00010000
00001000
00000010
,  // measure 48
00000001
00000100
00000001
00000010
00001000
00010000
00001000
00000000
,  // measure 49
00010000
01000000
10000000
00100000
10000000
01000000
00010000
00001000
,  // measure 50
00000100
00000001
00000010
00000001
00000100
00001000
00010000
00001000
,  // measure 51
00000010
00000001
00000100
00000001
00000010
00001000
00010000
00100000
,  // measure 52
20000000
32000000
03200000
00320000
,  // measure 53
00030000
00000000
00000000
00000000
;

//---------------dance-double - NewbStepper-DDP----------------
#NOTES:
     dance-double:
     NewbStepper:
     Medium:
     9:
     0.400316,0.486942,0.597193,0.149298,0.045938,244,192,52,13,0,0,0.400316,0.486942,0.597193,0.149298,0.045938,244,192,52,13,0,0:
00000000
00000000
00000000
00000000
,
10000000
01000000
00100000
00010000
,
01000000
00100000
10000000
01000000
,
00010000
00000000
00001000
00000000
00000100
00000000
00000001
00000010
,
00000200
00000000
00000000
00000300
,
00020000
00000000
00000000
00030000
,
00002000
00000000
00000000
00003000
,
02000000
00000000
00000000
03000000
,
00010000
00000000
00100000
00000000
01000000
00000000
10000000
00010000
,
00100000
00100000
00100000
00100000
,
00001000
00001000
00001000
00001000
,
00010000
00010000
00010000
00010000
,
00011000
00000000
00000000
00000000
,
00000011
00000100
00001000
00010000
,
00011000
00001000
00010000
00100000
,
01100000
10000000
01000000
00100000
,
00010000
01000000
00000000
01000000
,
10100000
01000000
00010000
00001000
,
00011000
00010000
00001000
00000010
,
00000110
00000000
00000000
00000000
,
00001001
00000000
00000100
00000000
00000001
00000010
00000001
00000000
,
00000011
00000000
00000100
00000000
00010000
00001000
00010000
00000000
,
00011000
00000000
00100000
00000000
10000000
00100000
10000000
00000000
,
11000000
00000000
00100000
00000000
00010000
01000000
00010000
00000000
,
00102000
00010000
00100000
00013000
,
00020010
00001000
00000010
00031000
,
01002000
00010000
01000000
00013000
,
00001000
00000000
00000000
00010000
00000000
00000000
01000000
00000000
00100000
00000000
00000000
00000000
00010000
00000000
00000000
00000000
,
10000000
00000000
00000000
10000000
00000000
00000000
10000000
00000000
00000000
00000000
00000000
00000000
00000000
00000000
00000000
00000000
,
00010000
00000000
00000000
00010000
00000000
00000000
00010000
00000000
00000000
00000000
00000000
00000000
00000000
00000000
00000000
00000000
,
00001000
00000000
00000000
00001000
00000000
00000000
00001000
00000000
00000000
00000000
00000000
00000000
00000000
00000000
00000000
00000000
,
00000001
00000000
00000000
00000001
00000000
00000000
00000001
00000000
00000000
00000000
00000000
00000000
00000000
00000000
00000000
00000000
,
00001000
00000000
00000000
00000100
00000000
00000000
00001000
00000000
00000000
00000000
00000000
00000000
00000000
00000000
00000000
00000000
,
00000000
00000000
00000001
00000000
00000000
00000100
00000000
00000000
00000001
00000000
00000000
00000000
00001000
00000000
00000000
00000000
,
00000100
00000000
00000000
00010000
00000000
00000000
00000100
00000000
00000000
00000000
00000000
00000000
00000000
00000000
00000000
00000000
,
00010000
00022000
00000000
00033000
,
01001000
00010100
00101000
00010010
,
00000101
00000010
00000101
00000010
,
00001100
00000010
00001100
00010000
,
00101000
00010000
00101000
00010000
,
10100000
00010000
10100000
01000000
,
00000000
11000000
00100000
11000000
,
00100000
01010000
00100000
01010000
,
00101000
00010000
00101000
00000100
,
00010010
00101000
00010100
01001000
,
00100000
00000000
11000000
00000000
00110000
00000000
01000000
10000000
,
00100000
00000000
11000000
00000000
00110000
00000000
01000000
00010000
,
00001000
00000000
00000110
00000000
00001001
00000000
00000010
00000001
,
00000100
00000110
00001000
00000110
,
00000010
00000000
00000101
00000000
00001010
00000000
00000100
00000001
,
00000010
00000000
00001100
00000000
00000011
00000000
00000100
00001000
,
00010000
01100000
10010000
01100000
,
20000000
32000000
03200000
00320000
,
00030000
00000000
00000000
00000000
;

//---------------dance-double - NewbStepper-BDP----------------
#NOTES:
     dance-double:
     NewbStepper:
     Easy:
     5:
     0.221486,0.302903,0.103360,0.126329,0,135,126,9,11,0,0,0.221486,0.302903,0.103360,0.126329,0,135,126,9,11,0,0:
00000000
00000000
00000000
00000000
,
00010000
00000000
00001000
00010000
,
00000000
00001000
00010000
00000000
,
00000100
00000000
00001000
00000001
,
00000200
00000000
00000000
00000000
,
00000000
00000000
00000300
00000000
,
00002000
00000000
00000000
00003000
,
00010000
00001000
01000000
00100000
,
20000000
00000000
00000000
00000000
,
00000000
00000000
00000000
30000000
,
00020000
00000000
00000000
00000000
,
00000000
00000000
00000000
00030000
,
10000000
01000000
00000000
01000000
,
00100000
01000000
00000000
01000000
,
00010000
01000000
00000000
00010000
,
00001000
00000010
00000000
00000010
,
00000001
00000100
00000000
00000100
,
00000010
00000100
00000000
00000100
,
00001000
00000200
00000300
00000000
,
00011000
00000000
00000000
00000000
,
00100000
10000000
00100000
00000000
,
10000000
01000000
10000000
00000000
,
01000000
00010000
01000000
00000000
,
00010000
00001000
00000100
00000001
,
00000010
00000001
00000010
00000000
,
00000001
00000100
00000001
00000000
,
00000100
00001000
00000100
00000000
,
00001000
00010000
00100000
10000000
,
02000000
00000000
03000000
00000000
,
00020000
00000000
00030000
00000000
,
00002000
00000000
00003000
00000000
,
00000020
00000000
00000030
00000000
,
00000101
00000000
00000000
00000000
,
00000000
00001100
00000000
00000000
00000000
00000000
00000000
00000000
,
00011000
00000000
00000000
00000000
,
00000000
20020000
00000000
00000000
,
00000000
00000000
00000000
30030000
,
00100000
01000000
00100000
01000000
,
00001000
01000000
00001000
00010000
,
00001000
00010000
00000010
00010000
,
00000010
00001000
00000001
00000000
,
00000010
00000100
00000010
00000100
,
00010000
00000100
00010000
00001000
,
00010000
00001000
00100000
00001000
,
00100000
00010000
10000000
00000000
,
01000000
00100000
01100000
00000000
,
00001000
00010000
00011000
00000000
,
00000010
00000100
00000110
00000000
,
00010000
00001000
00011000
00000000
,
00010000
01000000
00000000
01000000
,
10000000
00100000
00000000
00100000
,
00010000
00001000
00000000
00001000
,
00000100
00000001
00000010
00000100
;

//---------------dance-single - RGTM-CSP----------------
#NOTES:
     dance-single:
     RGTM:
     Challenge:
     16:
     0.902352,0.882583,0.516802,0.080391,1.165675,550,505,45,7,0,0,0.902352,0.882583,0.516802,0.080391,1.165675,550,505,45,7,0,0:
0000
0000
0000
0000
,
1000
0010
0001
0000
0110
0000
0000
0000
1001
0000
0000
0000
0001
0010
1000
0000
,
0110
0000
0000
0000
1001
0000
0000
0000
1000
0010
0001
0000
0110
0000
0000
0000
,
1001
0000
0000
0000
0001
0010
1000
0000
0110
0000
0000
0000
1000
0001
0000
0001
,
0100
0000
0000
0100
0010
0000
0100
0000
0000
0000
0000
0000
0000
0000
0000
0000
,
0001
1000
0000
1000
0000
1000
0001
0000
1000
0000
0000
0000
0000
0000
0000
0000
,
0100
0010
0000
0010
0000
0100
0010
0000
0000
0000
0000
0000
0000
0000
0000
0000
,
0001
0000
0000
0010
0000
0000
0000
0000
0000
0010
0000
0000
0100
0000
0000
0010
0000
0000
0000
0000
0000
0000
0000
0000
0001
0000
0000
0000
0100
0000
0001
0000
0000
0000
0100
0000
0010
0000
0000
1000
0000
0000
0000
0000
0000
1000
0000
0000
,
0001
0110
1000
0101
,
0010
0000
0000
0000
1100
0000
0000
0000
0001
0000
0000
0010
0000
0000
0100
0000
,
1000
0000
0000
0000
0110
0000
0000
0000
0001
0000
0000
0000
1100
0000
0000
1000
,
0001
0000
0000
0010
0000
0000
0000
0000
0000
0010
0000
0000
0100
0000
0000
0001
0000
0000
0000
0000
0000
0001
0000
0000
0100
0000
0000
0000
0010
0000
0100
0000
0000
0000
1000
0000
0002
0000
0000
0000
0000
0000
0000
0000
0000
0000
0000
0000
,
1003
0000
0000
0010
1000
0000
0010
0000
0100
0000
1000
0100
0010
0000
1000
0000
,
0001
0010
0000
0010
0100
0010
0001
0000
0100
0000
1000
0100
0010
0000
1000
0000
,
0001
0100
0000
0100
0010
0100
0001
0000
0010
0000
1000
0010
0100
0000
1000
0000
,
0001
0100
0000
0100
0010
1000
0000
0000
0001
0010
0100
1000
0010
0100
0000
0100
,
0001
0000
0000
0010
0001
0000
0010
0000
0100
0000
0001
0100
0010
0000
0001
0000
,
1000
0010
0000
0010
0100
0010
1000
0000
0100
0000
0001
0100
0010
0000
0001
0000
,
1000
0100
0000
0100
0010
0100
1000
0000
0010
0000
1000
0000
0100
0000
0010
0001
,
1000
0000
0000
0010
0000
0000
0000
0000
0000
0010
0000
0000
0100
0000
0000
1000
0000
0000
0000
0000
0000
1000
0000
0000
0100
0000
0000
0000
0010
0000
0100
0000
0000
0000
0001
0000
2000
0000
0000
0000
0000
0000
0000
0000
0000
0000
0000
0000
,
3001
0000
0000
0010
0100
0000
1000
0000
0010
0001
0010
1000
0010
0000
1001
0000
,
1000
0100
0000
0010
0001
1000
0001
0000
0010
1000
0010
0001
0010
0000
1001
0000
,
0001
0010
0000
0010
0100
1000
0001
0000
0100
1000
0100
0001
0100
0000
1001
0000
,
1000
0010
0000
0010
0100
0000
0001
0000
0010
0001
0100
0010
1000
0001
0000
0001
,
1000
0000
0000
0010
0100
0000
0001
0000
0010
1000
0010
0001
0010
0000
1001
0000
,
0001
0100
0000
0010
1000
0001
1000
0000
0010
0001
0010
1000
0010
0000
1001
0000
,
1000
0010
0000
0010
0100
0001
1000
0000
0100
0001
0100
1000
0100
0000
1001
0000
,
0001
0000
0000
0100
0000
0000
0001
0000
0000
0100
0000
0000
0010
0000
0000
1000
0000
0000
0010
0000
0000
1000
0000
0000
0100
0000
0000
0000
0010
0000
0100
0000
0000
0000
1000
0000
0002
0000
0000
0000
0000
0000
0000
0000
0000
0003
0000
0000
,
1001
0000
0000
1010
0000
0000
0110
0000
0000
0001
0000
0000
1000
0000
0100
0010
,
0110
0000
0000
0011
0000
0000
1001
0000
0000
1000
0000
0000
0010
0000
0100
0001
,
1001
0000
0000
1100
0000
0000
0110
0000
0000
0001
0000
0000
1000
0000
0010
0100
,
0110
0000
0000
0101
0000
0000
1001
0000
0000
1000
0001
0010
1000
0010
0001
1000
,
1001
0000
0000
1000
0100
0000
0010
0000
0001
0000
0100
0000
0001
0000
0010
0000
,
0000
0000
0110
0000
0000
1100
0000
1001
0000
0001
0100
0000
0010
0000
1000
0000
,
0001
0000
0000
0010
0100
0000
1000
0000
0001
0000
0010
0100
0001
0100
1000
0010
,
0001
0000
0000
0000
0110
0000
0000
0010
1000
0000
0000
0100
0010
0000
0010
0001
,
0100
0000
0000
0010
0000
0000
0000
0000
0000
0010
0000
0000
0000
0000
0000
0010
0000
0000
0000
0000
0000
0010
0000
0000
1000
0000
0000
0000
0100
0000
0010
0000
0000
0000
0001
0000
2000
0000
0000
0000
0000
0000
0000
0000
0000
0000
0000
0000
,
3001
0000
0000
0010
0100
0000
1000
0000
0010
0001
0010
1000
0010
0000
1001
0000
,
1000
0100
0000
0010
0001
1000
0001
0000
0010
1000
0010
0001
0010
0000
1001
0000
,
0001
0010
0000
0010
0100
1000
0001
0000
0100
1000
0100
0001
0100
0000
1001
0000
,
1000
0010
0000
0010
0100
0000
0001
0000
0100
1000
0100
0001
0100
0010
0000
1000
,
0001
0010
0100
1000
1001
0000
0000
0001
0010
1000
0010
0001
0010
0000
1001
0000
,
0001
0100
0000
0010
1000
0001
1000
0000
0010
0001
0010
1000
0010
0000
1001
0000
,
1000
0010
0000
0010
0100
0001
1000
0000
0100
0001
0100
1000
0100
0000
1001
0000
,
1000
0000
0000
0100
0000
0000
0000
0000
0000
0100
0000
0000
0010
0000
0000
1000
0000
0000
0000
0000
0000
1000
0000
0000
0010
0000
0000
0000
0100
0000
0010
0000
0000
0000
0001
0000
2000
0000
0000
0000
0000
0000
0000
0000
0000
0000
0000
0000
,
3001
0000
0000
0100
0010
0000
1000
0000
0100
1000
0010
0001
0010
0000
1001
0000
,
1000
0100
0000
0010
0001
1000
0001
0000
0100
0001
0010
1000
0010
0000
1001
0000
,
0001
0010
0000
0010
0100
1000
0001
0000
0010
0001
0100
1000
0100
0000
1001
0000
,
1000
0010
0000
0100
0001
0000
1000
0000
0010
1000
0100
0001
0100
0000
0010
0001
,
1000
0000
0000
1000
0100
0000
1000
0000
0010
0001
0010
1000
0010
0000
1000
0000
,
0001
1000
0000
1000
0000
1000
0001
0000
0010
1000
0010
0001
0010
0000
0001
0000
,
1000
0000
0000
0001
0000
0001
1000
0000
0100
0001
0100
1000
0100
0000
1000
0000
,
0001
0001
0000
0010
0100
0010
0010
0000
2000
0000
0000
0000
3200
0000
0000
0000
,
0300
0000
0000
0000
;

//---------------dance-double - RGTM-CDP----------------
#NOTES:
     dance-double:
     RGTM:
     Challenge:
     16:
     0.871180,0.852149,0.482348,0.080391,1.177160,531,489,42,7,0,0,0.871180,0.852149,0.482348,0.080391,1.177160,531,489,42,7,0,0:
// measure 0
00000000
00000000
00000000
00000000
,  // measure 1
10000000
01000000
00100000
00000000
00011000
00000000
00000000
00000000
00000110
00000000
00000000
00000000
00000001
00000100
00000010
00000000
,  // measure 2
00011000
00000000
00000000
00000000
01100000
00000000
00000000
00000000
10000000
01000000
00100000
00000000
00011000
00000000
00000000
00000000
,  // measure 3
00000110
00000000
00000000
00000000
00000001
00000100
00000010
00000000
00011000
00000000
00000000
00000000
00100000
00010000
00000000
00010000
,  // measure 4
10000000
00000000
00000000
00100000
00000000
00100000
01000000
00000000
00000000
00000000
00000000
00000000
00000000
00000000
00000000
00000000
,  // measure 5
00001000
00010000
00000000
00010000
00000000
00010000
00001000
00000000
00010000
00000000
00000000
00000000
00000000
00000000
00000000
00000000
,  // measure 6
00000100
00000010
00000000
00000010
00000000
00000100
00000010
00000000
00000000
00000000
00000000
00000000
00000000
00000000
00000000
00000000
,  // measure 7
00000001
00000000
00000000
00001000
00000000
00000000
00000000
00000000
00000000
00001000
00000000
00000000
00000000
00000000
00000000
00001000
00000000
00000000
00000000
00000000
00000000
00000000
00000000
00000000
00000001
00000000
00000000
00000000
00000001
00000000
00000010
00000000
00000000
00000000
00000010
00000000
00000100
00000000
00000000
00000010
00000000
00000000
00000000
00000000
00000000
00001000
00000000
00000000
,  // measure 8
00010000
00011000
00100000
01100000
,  // measure 9
10000000
00000000
00000000
00000000
10010000
00000000
00000000
00000000
10000000
00000000
00000000
00100000
00000000
00000000
00010000
00000000
,  // measure 10
00001000
00000000
00000000
00000000
00011000
00000000
00000000
00000000
00000010
00000000
00000000
00000000
00000110
00000000
00000000
00001000
,  // measure 11
00000001
00000000
00000000
00001000
00000000
00000000
00000000
00000000
00000000
00001000
00000000
00000000
00000000
00000000
00000000
00001000
00000000
00000000
00000000
00000000
00000000
00001000
00000000
00000000
00000100
00000000
00000000
00000000
00000100
00000000
00010000
00000000
00000000
00000000
00010000
00000000
00002000
00000000
00000000
00000000
00000000
00000000
00000000
00000000
00000000
00000000
00000000
00000000
,  // measure 12
01003000
00000000
00000000
00100000
01000000
00000000
00100000
00000000
10000000
00000000
01000000
00100000
00001000
00000000
00010000
00000000
,  // measure 13
00000100
00000010
00000000
00000010
00000100
00000010
00000001
00000000
00001000
00000000
00000001
00000100
00000010
00000000
00010000
00000000
,  // measure 14
00001000
00100000
00000000
00100000
00001000
00100000
01000000
00000000
10000000
00000000
00100000
01000000
00001000
00000000
00010000
00000000
,  // measure 15
00001000
00010000
00000000
00010000
00000100
00010000
00000000
00000000
00000100
00000010
00000001
00000100
00000010
00001000
00000100
00010000
,  // measure 16
00001000
00000000
00000000
00001000
00100000
00000000
01000000
00000000
10000000
00000000
00100000
01000000
00001000
00000000
00010000
00000000
,  // measure 17
00000010
00000100
00000000
00000100
00000010
00000100
00000001
00000000
00001000
00000000
00000001
00000010
00000100
00000000
00010000
00000000
,  // measure 18
00001000
01000000
00000000
01000000
00001000
01000000
00100000
00000000
10000000
00000000
01000000
00000000
00010000
00000000
00001000
00000000
,  // measure 19
00000100
00000000
00000000
00000001
00000000
00000000
00000000
00000000
00000000
00000001
00000000
00000000
00000000
00000000
00000000
00000001
00000000
00000000
00000000
00000000
00000000
00000001
00000000
00000000
00000010
00000000
00000000
00000000
00000010
00000000
00001000
00000000
00000000
00000000
00001000
00000000
00020000
00000000
00000000
00000000
00000000
00000000
00000000
00000000
00000000
00000000
00000000
00000000
,  // measure 20
00130000
00000000
00000000
00100000
10000000
00000000
01000000
00000000
00100000
00001000
00010000
00001000
00100000
00000000
00011000
00000000
,  // measure 21
00001000
00000010
00000000
00000001
00000000
00000001
00000100
00000000
00000010
00010000
00001000
00010000
00000010
00000000
00011000
00000000
,  // measure 22
00010000
00100000
00000000
10000000
00000000
10000000
00010000
00000000
01000000
00001000
00010000
00001000
01000000
00000000
00011000
00000000
,  // measure 23
00001000
00000100
00000000
00000001
00001000
00000000
00000100
00000000
00000010
00000100
00010000
00001000
00010000
00100000
00010000
00001000
,  // measure 24
00000010
00000000
00000000
00000010
00000001
00000000
00000100
00000000
00000010
00010000
00001000
00010000
00000010
00000000
00011000
00000000
,  // measure 25
00010000
00100000
00000000
10000000
00000000
10000000
01000000
00000000
00100000
00001000
00010000
00001000
00100000
00000000
00011000
00000000
,  // measure 26
00001000
00000010
00000000
00000001
00000000
00000001
00001000
00000000
00000100
00010000
00001000
00010000
00000100
00000000
00011000
00000000
,  // measure 27
00010000
00000000
00000000
00001000
00000000
00000000
00010000
00000000
00000000
00001000
00000000
00000000
00100000
00000000
00000000
01000000
00000000
00000000
00100000
00000000
00000000
01000000
00000000
00000000
10000000
00000000
00000000
00000000
10000000
00000000
00100000
00000000
00000000
00000000
00100000
00000000
02000000
00000000
00000000
00000000
00000000
00000000
00000000
00000000
00000000
03000000
00000000
00000000
,  // measure 28
01100000
00000000
00000000
00011000
00000000
00000000
00101000
00000000
00000000
00100000
00000000
00000000
00001000
00000000
00010000
00000100
,  // measure 29
00000010
00000000
00000000
00011000
00000000
00000000
00010010
00000000
00000000
00000010
00000000
00000000
00001000
00000000
00000100
00010000
,  // measure 30
00001000
00000000
00000000
01100000
00000000
00000000
10010000
00000000
00000000
10000000
00000000
00000000
00100000
00000000
00010000
00001000
,  // measure 31
00010000
00000000
00000000
00000110
00000000
00000000
00001001
00000000
00000000
00000001
00001000
00000001
00000010
00000100
00001000
00000010
,  // measure 32
00010000
00000000
00000000
00010000
00100000
00000000
10000000
00000000
01000000
00000000
00010000
00000000
00001000
00000000
00000010
00000000
,  // measure 33
00000000
00000000
00001001
00000000
00000000
00001010
00000000
00011000
00000000
00110000
00000000
00000000
00010000
00000000
10000000
00000000
,  // measure 34
01000000
00000000
00000000
01000000
00100000
00000000
00001000
00000000
00000000
00010000
00000100
00000010
00000100
00010000
00000010
00001000
,  // measure 35
00000001
00000000
00000000
00000000
00000110
00000000
00000000
00010000
00001000
00000000
00000000
00001000
00010000
00000000
00010000
00001000
,  // measure 36
00010000
00000000
00000000
00100000
00000000
00000000
00000000
00000000
00000000
00100000
00000000
00000000
00000000
00000000
00000000
00100000
00000000
00000000
00000000
00000000
00000000
00100000
00000000
00000000
10000000
00000000
00000000
00000000
01000000
00000000
00100000
00000000
00000000
00000000
00001000
00000000
00020000
00000000
00000000
00000000
00000000
00000000
00000000
00000000
00000000
00000000
00000000
00000000
,  // measure 37
00030010
00000000
00000000
00001000
00000001
00000000
00000100
00000000
00000010
00010000
00001000
00010000
00000010
00000000
00011000
00000000
,  // measure 38
00010000
00100000
00000000
10000000
00000000
10000000
01000000
00000000
00100000
00001000
00010000
00001000
00100000
00000000
00011000
00000000
,  // measure 39
00001000
00000010
00000000
00000001
00000000
00000001
00001000
00000000
00000100
00010000
00001000
00010000
00000100
00000000
00011000
00000000
,  // measure 40
00010000
01000000
00000000
10000000
00010000
01000000
00000000
00000000
01000000
00001000
00010000
00001000
01000000
00000000
00100000
10000000
,  // measure 41
00010000
00100000
01000000
10000000
00010000
00000000
00000000
00010000
00100000
00001000
00010000
00001000
00100000
00000000
00011000
00000000
,  // measure 42
00001000
00000010
00000000
00000001
00000000
00000001
00000100
00000000
00000010
00010000
00001000
00010000
00000010
00000000
00011000
00000000
,  // measure 43
00010000
00100000
00000000
10000000
00000000
10000000
00010000
00000000
01000000
00001000
00010000
00001000
01000000
00000000
00011000
00000000
,  // measure 44
00010000
00000000
00000000
00000010
00000000
00000000
00000000
00000000
00000000
00000010
00000000
00000000
00000000
00000000
00000000
00000010
00000000
00000000
00000000
00000000
00000000
00000010
00000000
00000000
00001000
00000000
00000000
00000000
00000001
00000000
00000010
00000000
00000000
00000000
00000100
00000000
00020000
00000000
00000000
00000000
00000000
00000000
00000000
00000000
00000000
00000000
00000000
00000000
,  // measure 45
00130000
00000000
00000000
10000000
00010000
00000000
01000000
00000000
00100000
00010000
00001000
00010000
00100000
00000000
00011000
00000000
,  // measure 46
00001000
00000010
00000000
00000001
00000000
00001000
00000100
00000000
00000010
00001000
00010000
00001000
00000010
00000000
00011000
00000000
,  // measure 47
00010000
00100000
00000000
10000000
00000000
00010000
00100000
00000000
01000000
00010000
00001000
00010000
01000000
00000000
00011000
00000000
,  // measure 48
00001000
00000100
00000000
00000001
00000000
00000000
00000001
00000000
00000100
00001000
00010000
00001000
00000100
00000000
00011000
00000000
,  // measure 49
00001000
00000000
00000000
00100000
00000000
00010000
10000000
00000000
00100000
00010000
00001000
00010000
00100000
00000000
00010000
00000000
,  // measure 50
00001000
00000010
00000000
00000001
00000000
00001000
00000100
00000000
00000010
00001000
00010000
00001000
00000010
00000000
00001000
00000000
,  // measure 51
00100000
00010000
00000000
01000000
00000000
00100000
10000000
00000000
01000000
00010000
00001000
00010000
01000000
00000000
00010000
00000000
,  // measure 52
00001000
00001000
00000000
00000100
00000000
00000010
00000010
00000000
00020000
00000000
00000000
00000000
00032000
00000000
00000000
00000000
,  // measure 53
00003000
00000000
00000000
00000000
;
