#VERSION:0.83;
#TITLE:THE BLACK KNIGHT;
#ARTIST:L.E.D.;
#BANNER:THE BLACK KNIGHT.png;
#BACKGROUND:THE BLACK KNIGHT-bg.png;
#JACKET:THE BLACK KNIGHT-jacket.png;
#MUSIC:THE BLACK KNIGHT.ogg;
#OFFSET:0.324442;
#SAMPLESTART:96.3;
#SAMPLELENGTH:15;
#BPMS:0=154;
#STOPS:34.75=0.39,49.75=0.39,80.75=0.39,241=1.169;
#TIMESIGNATURES:0=4=4,32=3=4,35=4=4,47=3=4,50=4=4,78=3=4,81=4=4,241=1=4,242=4=4;

//---------------dance-single - NewbStepper-ESP----------------
#NOTEDATA:;
#CHARTNAME:NewbStepper-ESP;
#STEPSTYPE:dance-single;
#DESCRIPTION:NewbStepper-ESP;
#DIFFICULTY:Hard;
#METER:15;
#RADARVALUES:0.726780,0.922958,0.209294,0.040249,0.639957,632,606,26,5,0,0,0,0,0,0.726780,0.922958,0.209294,0.040249,0.639957,632,606,26,5,0,0,0,0,0;
#CREDIT:NewbStepper;
#NOTES:
0000
0000
0000
0000
,
0000
0000
0000
0000
,
0000
0000
0000
0000
,
0000
0000
0000
0000
,
0000
0000
0000
0000
,
1001
0000
0000
0000
0000
0000
0000
0100
,
0101
0000
0000
0000
0000
0000
0000
0010
,
1000
1000
0100
0100
0010
0010
0001
0001
,
1000
0100
1000
0100
0010
0001
0010
0001
1000
0010
1000
0010
0100
0000
0000
0000
,
0100
0001
0001
0010
,
0010
0110
1001
0100
,
0100
1000
1000
0010
,
0010
0000
1001
0000
0110
0001
0100
1000
,
0100
0001
0010
1000
0010
0010
0001
1000
,
0010
0000
1000
0100
0010
0000
0010
0000
0110
0000
1000
0000
0100
0000
0001
0000
,
0100
0000
1000
0000
0010
0000
0001
0000
0010
0100
0010
0000
1000
0000
0001
0000
,
0010
0001
0010
0100
1000
0000
0000
0000
0110
0000
1000
0000
0100
0000
0001
0000
,
0100
1000
0010
0001
0010
0010
1000
0001
,
0010
0000
0001
0100
0010
0000
0010
0000
0110
0000
0001
0000
0100
0000
1000
0000
,
0100
0000
0001
0000
0010
0000
1000
0000
0010
0100
0010
0000
0001
0000
0100
1000
,
0000
0100
0001
0000
1000
0000
0010
0100
0000
0010
1000
0000
0100
0010
0100
0000
,
1000
0000
1000
0000
0001
0000
0010
0100
0000
0010
0001
0000
0100
0010
0100
0000
,
0001
0000
0001
0000
1000
0000
0000
0100
0000
0000
0010
0000
0000
0001
1000
0000
,
0010
0000
0010
0000
1000
0000
0001
0010
0100
0000
1000
0000
0001
0100
0010
0100
,
0001
0000
1000
0000
0001
0000
0010
0100
0000
0010
0001
0000
0100
0010
0100
0000
,
0001
0000
0001
0000
1000
0000
0010
0100
0000
0010
1000
0000
0100
0010
0100
0000
,
1000
0000
1000
0000
0001
0000
0000
0100
0000
0000
0010
0000
0000
1000
0001
0000
,
0010
0000
0100
0000
1000
0010
0000
0100
0001
0000
0001
0010
0000
0100
1000
0000
,
0001
0100
0010
0000
1000
0000
0100
0000
0001
0000
0100
0010
0000
0000
0001
0000
,
0101
0000
0110
0000
0001
0000
0100
0000
1000
0000
0100
0010
0000
0000
1000
0000
,
1100
0000
0110
0000
0001
0000
0010
0000
1000
0000
0010
0100
0000
0000
1000
0000
,
1010
0000
1001
0000
1000
0000
0010
0000
0001
0000
0010
0100
0000
0000
0001
0000
,
0011
0000
1001
0000
1000
0010
1000
0000
0100
0000
0010
0001
0000
1000
0001
0000
,
0100
0001
0010
0000
0001
0010
0001
0000
0100
0000
0010
1000
0000
0001
1000
0000
,
0100
1000
0010
0000
1000
0100
0010
0000
0001
0000
1000
0010
0000
1000
0100
0000
,
0010
0100
0010
0000
0001
0100
0010
0000
1000
0000
0001
0010
0000
0001
0100
0000
,
0010
1000
0001
0100
0020
0000
0000
0000
0001
0000
0000
0000
1000
0000
0000
0000
,
0130
0000
0101
0100
0010
1000
1100
0100
,
0001
0100
1000
0010
0001
1000
0100
0001
,
0010
0000
0001
0000
1000
0000
0100
0010
0100
0000
0001
0000
0100
1000
0010
0100
,
0001
0020
1000
0001
,
0130
0000
1100
0100
0010
0001
0101
0100
,
1000
0100
0001
0010
1000
0001
0100
1000
,
0010
0000
1000
0000
0001
0000
0100
0010
0100
0000
1000
0000
0100
0001
0100
0010
,
1000
0000
0000
0000
0001
0000
0100
0001
0100
0000
0010
0000
1000
0000
0100
1000
,
0100
0000
0010
0001
0010
0000
0000
0110
0000
0000
2002
0000
0000
0000
0000
0000
,
3003
0000
1000
0100
0001
0100
0010
0001
,
0100
0010
1000
0001
0100
1000
0100
0010
,
1000
0000
0010
1000
0001
0000
0100
0000
1000
0000
0100
0000
0001
0000
0010
0000
,
1001
0000
0000
0000
0010
1000
0010
0000
0100
0001
0100
0000
0001
1000
0010
0100
,
0001
0010
0100
0000
0010
0001
0010
0000
0100
1000
0100
0000
1000
0001
0010
0100
,
1000
0010
0100
0000
0001
0100
0001
0100
0010
1000
0010
1000
0001
0010
0001
0010
,
0100
1000
0100
1000
0020
0000
0000
0000
0000
0000
0000
0000
0000
0000
0000
0000
,
0000
0000
0000
0000
,
0030
0000
0000
0000
,
0000
0000
0000
0000
,
0000
1001
0000
0000
,
0000
0100
1100
0000
0000
0000
0000
0000
,
0000
0010
0001
0001
0100
0100
0010
0010
,
1000
0000
1000
0000
0100
0010
0100
0010
0001
0100
0001
0100
0010
1000
0010
1000
,
0100
0010
0100
0010
0000
0000
0000
0000
0001
0100
0010
0000
1000
0000
0010
0000
,
1000
0000
0100
0010
0000
0010
0001
0000
1000
0100
0010
0000
0001
0000
0010
0000
,
0001
0000
0100
0010
0000
0010
1000
0000
0001
1000
0100
0000
0010
0000
1000
0000
,
0010
0000
0001
0100
0000
0100
0010
0000
1000
0001
0100
0000
0010
0000
0001
0000
,
0010
1000
0010
0100
0000
0001
0010
0100
1000
0100
0010
0000
0001
0000
0010
0000
,
0001
0000
0100
0010
0000
0010
1000
0000
0001
0100
0010
0000
1000
0000
0010
0000
,
1000
0000
0100
0010
0000
0010
0001
0000
1000
0001
0100
0000
0010
0000
0001
0000
,
0010
0000
1000
0100
0000
0100
0010
0000
0001
1000
0100
1000
0001
1000
0000
0010
,
1000
0000
0010
1000
0001
0010
0000
0100
1000
0100
0010
0000
0001
0000
1000
0000
,
0001
0000
0100
0010
0000
1000
0010
1000
0001
0100
0010
0000
1000
0000
0001
0000
,
1000
0000
0100
0010
0000
0001
0010
0001
1000
0010
0100
0000
0001
0000
0010
0000
,
1000
0000
0010
0001
0000
0100
0001
1000
0001
0010
0100
0000
1000
0000
0010
0000
,
0100
0001
0100
0001
0010
0100
1000
0001
1000
0010
0001
0000
0010
0000
0100
0000
,
0001
0000
0010
0100
0000
1000
0100
1000
0001
0010
1000
0000
0010
0000
0100
0000
,
1000
0000
0010
0100
0000
0001
0100
0001
1000
0000
1000
0000
0010
0000
0010
0000
,
0100
0000
0100
0000
0001
0000
0001
0000
1000
0010
1000
0001
0100
0010
1000
0100
,
0010
0001
1000
0010
0100
0001
1000
0100
0000
0000
0000
0000
0000
0000
0000
0000
;

//---------------dance-single - NewbStepper-DSP----------------
#NOTEDATA:;
#CHARTNAME:NewbStepper-DSP;
#STEPSTYPE:dance-single;
#DESCRIPTION:NewbStepper-DSP;
#DIFFICULTY:Medium;
#METER:11;
#RADARVALUES:0.469187,0.523009,0.152946,0.152946,0.116722,408,389,19,19,0,0,0,0,0,0.469187,0.523009,0.152946,0.152946,0.116722,408,389,19,19,0,0,0,0,0;
#CREDIT:NewbStepper;
#NOTES:
0000
0000
0000
0000
,
0000
0000
0000
0000
,
0000
0000
0000
0000
,
0000
0000
0000
0000
,
0000
0000
0000
0000
,
1001
0000
0000
0000
0000
0000
0000
0100
,
0100
0000
0000
0000
0000
0000
0000
1000
,
1000
0100
0010
0000
0001
0100
0010
0000
,
1000
0100
0001
0100
1000
0000
0010
0000
,
0010
1000
1000
0100
,
0100
0010
0010
0001
,
0001
0000
1000
0010
1000
0000
0001
0010
,
0001
0100
0001
0100
,
1000
0100
0001
0000
1000
0000
0100
0000
,
0001
0100
1000
0000
0020
0000
1000
0000
,
0100
0001
0230
1000
,
0010
0000
0301
0000
1000
0100
0010
0000
,
0001
0100
1000
0100
0001
0100
0010
0000
,
1000
0100
0001
0100
1000
0001
0100
0000
,
0001
1000
0100
0000
0010
0001
0100
0010
,
1000
0000
0100
0000
0010
0000
0000
0010
0000
0000
0001
0000
0000
0001
0000
0000
,
1000
0000
0100
0000
0010
0000
0000
0010
0000
0000
0001
0000
0000
0001
0000
0000
,
1000
0000
0100
0000
1000
0000
0000
1000
0000
0000
0001
0000
0000
0001
0000
0000
,
0100
0010
1000
0100
0001
0100
1000
0000
,
1001
0000
0000
0000
0010
0000
0000
0010
0000
0000
1000
0000
0000
1000
0000
0000
,
0001
0000
0100
0000
0010
0000
0000
0010
0000
0000
1000
0000
0000
1000
0000
0000
,
0001
0000
0100
0000
0001
0000
0000
0001
0000
0000
1000
0000
0000
1000
0000
0000
,
0100
0010
0001
0100
1000
0100
0001
0010
,
0110
0000
0000
0000
0001
0000
1000
0000
0001
0000
0000
0100
0000
0000
0010
0000
,
1000
0000
0100
0000
1000
0000
0001
0000
1000
0000
0000
0100
0000
0000
0010
0000
,
0001
0000
0100
0000
0010
0000
1000
0000
0010
0000
0000
0100
0000
0000
0001
0000
,
1000
0000
0100
0000
0010
0000
0001
0000
0010
0000
0000
0100
0000
0000
1000
0000
,
0001
0000
0000
0000
1000
0000
0001
0000
1000
0000
0000
0100
0000
0000
0010
0000
,
0001
0000
0100
0000
0001
0000
1000
0000
0001
0000
0000
0100
0000
0000
0010
0000
,
1000
0000
0100
0000
0010
0000
0001
0000
0010
0000
0000
0100
0000
0000
1000
0000
,
0001
0000
0100
0000
0010
0000
1000
0000
0010
0000
0000
0100
0000
0000
0001
0000
,
1000
0100
0020
0000
0001
0000
0100
0000
,
0031
0000
0000
0000
2000
0000
0000
3200
0000
0000
0320
0000
0032
0000
0000
0203
,
0000
0320
2030
0000
0001
0000
0001
0000
,
3001
0000
1000
0100
0010
0001
0100
0010
,
1000
0020
1000
0100
,
1030
0000
0000
0000
0002
0000
0000
0203
0000
0000
0320
0000
2030
0000
0000
3200
,
0000
0320
0032
0000
1000
0000
1000
0000
,
1003
0000
0001
0100
0010
1000
0100
0010
,
0001
1000
1100
0001
,
0101
0000
0000
0000
0010
0000
0000
0010
0000
0000
0100
0000
0000
0000
0001
0000
,
1001
0001
0101
1000
,
1100
0010
0110
0001
,
1001
0000
0100
0010
0100
0000
0001
1000
,
0001
0000
1000
0100
1000
0100
0010
0001
,
0010
0001
1000
0010
1000
0010
0100
0001
,
0100
0001
0010
0100
0010
0100
1000
0001
,
1000
0001
0020
0000
0000
0000
0000
0000
,
0000
0000
0000
0000
,
0030
0000
0000
0000
,
0000
0000
0000
0000
,
0000
1001
0000
0000
,
0000
0100
0100
0000
0000
0000
0000
0000
,
0000
0001
0001
0100
0010
0000
1000
0100
,
0010
0000
0001
0100
1000
0100
0001
0100
,
0010
0100
0000
0000
0001
0000
0101
0000
,
0010
1000
0100
0000
1000
0000
1100
0000
,
0010
0001
0100
0000
0010
0000
0110
0000
,
0001
0100
1000
0000
0100
0000
0110
0000
,
1000
0100
0001
0100
1000
0000
1100
0000
,
0010
0001
0100
0000
0001
0000
0101
0000
,
0010
1000
0100
0000
0010
0000
0110
0000
,
1000
0100
0001
0000
0100
0000
0110
0000
,
0001
0100
1000
0100
0001
0010
0001
0010
,
0100
0000
0000
1000
0000
0000
0001
0000
1000
0000
0010
0000
1000
0000
0010
0000
,
0100
0000
0000
0001
0000
0000
1000
0000
0001
0000
0100
0000
1000
0000
0100
0000
,
0001
0000
0000
0010
0000
0000
0100
0000
1000
0000
0100
0000
0001
0000
0100
0000
,
1000
0010
0100
0001
1000
0010
1000
0010
,
0100
0001
0100
0000
0001
0010
0001
0010
,
0100
1000
0100
0000
0010
0001
0100
0010
,
1000
0100
0010
0001
0100
0010
1000
0001
,
0100
0000
1000
0000
0100
0000
0000
0010
0000
0000
0000
0000
0000
0000
0000
0000
;

//---------------dance-single - NewbStepper-BSP----------------
#NOTEDATA:;
#CHARTNAME:NewbStepper-BSP;
#STEPSTYPE:dance-single;
#DESCRIPTION:NewbStepper-BSP;
#DIFFICULTY:Easy;
#METER:8;
#RADARVALUES:0.369140,0.491037,0.177095,0.072448,0,321,299,22,9,0,0,0,0,0,0.369140,0.491037,0.177095,0.072448,0,321,299,22,9,0,0,0,0,0;
#CREDIT:NewbStepper;
#NOTES:
0000
0000
0000
0000
,
0000
0000
0000
0000
,
0000
0000
0000
0000
,
0000
0000
0000
0000
,
0000
0000
0000
0000
,
1000
0000
0000
0000
0000
0000
0000
0001
,
0001
0000
0000
0000
0000
0000
0000
1000
,
1000
0100
0001
0010
,
1000
0100
0010
0001
,
0100
1000
0100
0001
,
0100
1000
0100
0001
,
0100
1000
0100
0001
,
1000
1001
0010
0010
,
0001
0100
0001
0000
0010
0000
0010
0000
,
1000
0100
1000
0000
0010
0000
0010
0000
,
0001
0001
0100
0100
,
0010
1000
0001
1000
0010
0000
0010
0000
,
1000
0100
1000
0000
0010
0000
0010
0000
,
0001
0100
0001
0000
0010
0000
0010
0000
,
1000
1000
0100
0100
,
0110
0000
0100
0000
1000
0100
1000
0100
,
1000
0000
0010
0000
1000
0010
1000
0010
,
1000
0000
0001
0000
1000
0001
1000
0001
,
1000
0000
0100
0000
0010
0000
0001
1000
,
0001
0000
0100
0000
0001
0100
0001
0100
,
0001
0000
0010
0000
0001
0010
0001
0010
,
0001
0000
1000
0000
0001
1000
0001
1000
,
0001
0100
0010
1000
,
0001
0000
0100
0010
0100
0000
0001
1000
,
0001
0000
0010
0100
0010
0000
0001
1000
,
0001
0010
1000
0100
,
0001
0010
0100
0110
,
1001
0000
0100
0010
0100
0000
1000
0001
,
1000
0000
0010
0100
0010
0000
1000
0001
,
1000
0010
0001
0100
,
1000
0010
0100
0110
,
1001
0020
0000
0000
,
0030
0000
0001
0000
0100
0001
0100
0000
,
0001
1000
0002
0000
0000
0000
0000
0000
,
0000
1003
1000
1000
,
1000
0020
0000
0000
,
0030
0000
1000
0000
0100
1000
0100
0000
,
1000
0001
2000
0000
0000
0000
0000
0000
,
0000
3001
0001
0001
,
0001
1000
0100
0001
,
0100
1100
0101
1001
,
0000
0001
0100
1000
,
0100
0001
0011
1000
,
1010
0220
0000
0000
,
0330
0000
0001
0100
0001
0000
0100
0000
,
0100
0000
1000
0100
1000
0000
0100
0000
,
0100
0000
0001
0010
1000
0000
1000
0010
,
0001
0200
0000
0000
,
0000
0000
0000
0000
,
0300
0000
0000
0000
,
0000
0000
0000
0000
,
0000
0001
0000
0000
,
0000
1000
1000
0000
0000
0000
0000
0000
,
0000
0001
0001
0000
0100
0000
1000
0000
,
0010
0001
0100
0010
,
1000
0000
0001
0100
,
1000
0100
1000
0000
0001
0000
0010
0000
,
1000
0010
1000
0000
0001
0000
1000
0000
,
0010
0100
0010
0100
0001
0000
0101
0000
,
2002
3003
1000
0100
,
0001
0100
0001
0000
1000
0000
0010
0000
,
0001
0010
0001
0000
1000
0000
0001
0000
,
0010
0100
0010
0100
1000
0000
1100
0000
,
1001
0000
0101
0000
0010
1000
0010
0000
,
0100
0000
0100
0000
0010
0001
0010
0000
,
0100
0000
0100
0000
0001
1000
0001
1000
,
0001
0000
0010
0000
0100
0010
0100
0010
,
0100
0000
1001
0000
0010
0001
0010
0000
,
0100
0000
0100
0000
0010
1000
0010
0000
,
0100
0000
0100
0000
1000
0001
1000
0001
,
1000
0001
1000
0000
1100
0000
0101
0000
,
0110
1001
0000
0000
;

//---------------dance-single - NewbStepper-bSP----------------
#NOTEDATA:;
#CHARTNAME:NewbStepper-bSP;
#STEPSTYPE:dance-single;
#DESCRIPTION:NewbStepper-bSP;
#DIFFICULTY:Beginner;
#METER:4;
#RADARVALUES:0.150646,0.246323,0.040249,0.072448,0,131,126,5,9,0,0,0,0,0,0.150646,0.246323,0.040249,0.072448,0,131,126,5,9,0,0,0,0,0;
#CREDIT:NewbStepper;
#NOTES:
0000
0000
0000
0000
,
0000
0000
0000
0000
,
0000
0000
0000
0000
,
0000
0000
0000
0000
,
0000
0000
0000
0000
,
0001
0000
0000
0000
,
0001
0000
0000
0000
,
2000
0000
0000
0000
,
0000
0000
3000
0000
,
0000
0000
0001
0000
,
0001
0000
0001
0000
,
0001
0000
1000
0000
,
1000
0000
0000
0100
,
0100
0000
0000
0001
,
0001
0000
0000
0010
,
0010
0000
0000
0001
,
0001
0000
0000
0100
,
0100
0000
0000
1000
,
1000
0000
0000
0010
,
0010
0000
0000
1000
,
1000
0000
0001
0001
,
0000
0000
1000
1000
,
0000
0000
0010
0010
,
0000
0000
0100
0100
,
0000
0000
1000
1000
,
0000
0000
0001
0001
,
0000
0000
0010
0010
,
0000
0000
0100
0100
,
0000
0001
1000
0001
,
0000
1000
0001
1000
,
0000
0100
0010
0100
,
0000
0010
0100
0010
,
0000
0001
1000
1000
,
0000
0010
1000
1000
,
0000
0100
1000
1000
,
0000
0100
0000
0110
,
0000
2002
0000
0000
,
0000
3003
0000
0000
,
0000
0000
0000
0000
,
0000
0000
0000
0000
,
0000
2002
0000
0000
,
0000
3003
0000
0000
,
0000
0000
0000
0000
,
0000
0000
0000
0000
,
0000
0001
0000
0001
,
0000
0100
0100
0100
,
0000
1000
0000
1000
,
0000
0100
0100
0100
,
0000
0020
0000
0000
,
0030
0000
1000
0000
,
1000
0000
0001
0000
,
0001
0100
0100
0100
,
0100
0200
0000
0000
,
0300
0000
0000
0000
,
0000
0000
0000
0000
,
0000
0000
0000
0000
,
0000
0001
0000
0000
,
0000
0001
0000
0000
,
0000
2000
0000
0000
,
0000
0000
0000
3000
,
0000
0000
0000
0001
,
0000
0100
0000
0010
,
0010
0000
0000
1000
,
0000
0100
0000
0010
,
0010
0000
0000
0001
,
0000
0010
0000
0100
,
0100
0000
0000
1000
,
0000
0010
0000
0100
,
0100
0000
0001
0100
,
0001
0000
1000
0100
,
1000
0000
0001
0010
,
0001
0000
1000
0010
,
1000
0000
1001
0000
,
0000
0000
1001
0000
,
0000
0000
0001
0001
,
1000
1000
0010
0010
,
0200
0000
0300
0000
;

//---------------dance-double - NewbStepper-EDP----------------
#NOTEDATA:;
#CHARTNAME:NewbStepper-EDP;
#STEPSTYPE:dance-double;
#DESCRIPTION:NewbStepper-EDP;
#DIFFICULTY:Hard;
#METER:15;
#RADARVALUES:0.716430,0.922958,0.193195,0.040249,0.660082,623,599,24,5,0,0,0,0,0,0.716430,0.922958,0.193195,0.040249,0.660082,623,599,24,5,0,0,0,0,0;
#CREDIT:NewbStepper;
#NOTES:
// measure 0
00000000
00000000
00000000
00000000
,  // measure 1
00000000
00000000
00000000
00000000
,  // measure 2
00000000
00000000
00000000
00000000
,  // measure 3
00000000
00000000
00000000
00000000
,  // measure 4
00000000
00000000
00000000
00000000
,  // measure 5
10010000
00000000
00000000
00000000
00000000
00000000
00000000
01000000
,  // measure 6
01010000
00000000
00000000
00000000
00000000
00000000
00000000
00001000
,  // measure 7
00100000
00100000
01000000
01000000
00010000
00010000
00001000
00001000
,  // measure 8
00100000
00010000
00100000
00010000
00100000
00001000
00100000
00001000
00010000
00001000
00010000
00001000
00000010
00000000
00000000
00000000
,  // measure 9
00000010
00000001
00000001
00000100
,  // measure 10
00000100
00001100
00011000
00100000
,  // measure 11
00100000
10000000
10000000
01000000
,  // measure 12
01000000
00000000
10010000
00000000
01100000
00010000
01000000
10000000
,  // measure 13
01000000
00010000
00100000
01000000
00010000
00001000
00000010
00000001
,  // measure 14
00000100
00000000
00000001
00001000
00000001
00000000
00000010
00000000
00000110
00000000
00001000
00000000
00000100
00000000
00000001
00000000
,  // measure 15
00000100
00001000
00000010
00000100
00001000
00010000
00100000
10000000
,  // measure 16
00010000
00000000
01000000
00000000
00100000
00000000
00100000
00000000
00010000
00000000
00000000
00010000
00001000
00000000
00000100
00000000
,  // measure 17
00000000
00000001
00000000
00000000
00000010
00000000
00000010
00000000
00001000
00000000
00000000
00001000
00010000
00000000
01000000
00000000
,  // measure 18
00000000
10000000
00000000
00000000
00100000
00000000
00100000
00000000
00010000
00000000
00001000
00000000
00100000
00000000
01000000
00000000
,  // measure 19
00100000
00000000
00001000
00000000
00010000
00000000
00001000
00000000
00000010
00000000
00000100
00000000
00000010
00000000
00001000
00010000
,  // measure 20
00000000
00001000
00010000
00000000
00000010
00000000
00001000
00000100
00000000
00000001
00000100
00000000
00001000
00000100
00000000
00010000
,  // measure 21
00001000
00000000
00001000
00000000
00100000
00000000
00010000
01000000
00000000
10000000
01000000
00000000
00010000
01000000
00000000
00001000
,  // measure 22
00010000
00000000
00010000
00000000
00100000
00000000
00000000
10000000
00000000
00000000
01000000
00000000
00000000
00010000
00000000
00000000
,  // measure 23
00001000
00000000
00001000
00000000
00000010
00000000
00000001
00001000
00000001
00000000
00000100
00000000
00001000
00010000
00001000
00010000
,  // measure 24
00001000
00000000
00100000
00000000
00010000
00000000
00000000
10000000
01000000
00000000
00010000
00000000
00000000
00001000
00000010
00000000
,  // measure 25
00000001
00000000
00000101
00000000
00001000
00000000
00000000
00000001
00000100
00000000
00001000
00000000
00000000
00010000
00100000
00000000
,  // measure 26
10000000
00000000
11000000
00000000
00010000
00000000
10000000
00100000
00000000
01000000
00010000
00000000
10000000
01000000
00000000
00100000
,  // measure 27
00010000
00000000
00001000
00000000
00000100
00000000
00000010
00000001
00000000
00001000
00000010
00000000
00000100
00000001
00000000
00000010
,  // measure 28
00001000
00000000
00010000
00000000
00100000
10000000
00100000
00000000
01000000
00000000
00010000
00100000
00000000
00000000
01000000
00000000
,  // measure 29
00010000
00000000
00001000
00000000
00000010
00000001
00000010
00000000
00000100
00000000
00001000
00000010
00000000
00000000
00000100
00000000
,  // measure 30
00001000
00000000
00010000
00000000
00100000
01000000
00100000
00000000
00010000
00000000
00000000
00011000
00000000
00000000
00101000
00000000
,  // measure 31
00010000
00000000
00001000
00000000
00000010
00000100
00000010
00000000
00001000
00000000
00000000
00011000
00000000
00000000
00010010
00000000
,  // measure 32
00001000
00000000
00010000
00000000
01000000
10000000
01000000
00000000
00100000
00000000
00010000
01000000
00000000
00100000
10000000
00000000
,  // measure 33
01000000
00010000
00001000
00000000
00000100
00000001
00000100
00000000
00000010
00000000
00001000
00000100
00000000
00000010
00000001
00000000
,  // measure 34
00000100
00001000
00010000
00000000
00100000
10000000
00100000
00000000
01000000
00000000
00010000
00100000
00000000
00001000
00100000
00000000
,  // measure 35
00001000
00010000
00000100
00000000
00000010
00000001
00000010
00000000
00000100
00000000
00001000
00000010
00000000
00010000
00000010
00000000
,  // measure 36
00000100
00001000
00010000
00001000
00020000
00000000
00000000
00000000
00000010
00000000
00000000
00000000
00001000
00000000
00000000
00000000
,  // measure 37
00130000
00000000
10100000
10000000
01000000
00010000
00001000
00100000
,  // measure 38
00001000
00000010
00000001
00000100
00001000
00010000
00000100
00010000
,  // measure 39
01000000
00000000
00100000
00000000
00001000
00000000
00010000
00001000
00010000
00000000
00100000
00000000
10000000
00010000
10000000
00010000
,  // measure 40
00100000
00002000
00100000
00010000
,  // measure 41
00003010
00000000
00000011
00000001
00000100
00001000
00010000
00000010
,  // measure 42
00010000
00100000
10000000
01000000
00010000
00001000
01000000
00001000
,  // measure 43
00000100
00000000
00000010
00000000
00010000
00000000
00001000
00010000
00001000
00000000
00000010
00000000
00000110
00000000
00001100
00000000
,  // measure 44
00001001
00000000
00000000
00000000
00000010
00000001
00000010
00000001
00001000
00000000
00000010
00000000
00010000
00001000
00010000
00001000
,  // measure 45
00100000
00000000
01000000
00000000
01100000
00000000
00000000
01010000
00000000
00000000
00022000
00000000
00000000
00000000
00000000
00000000
,  // measure 46
00033000
00000000
00001000
00010000
00100000
00010000
00000010
00001000
,  // measure 47
00010000
01000000
00100000
01000000
10000000
01000000
00010000
00100000
,  // measure 48
01000000
00000000
00010000
00001000
00010000
00000000
00100000
00000000
00010000
00000000
00001000
00000000
00000010
00000000
00001000
00000000
,  // measure 49
00011000
00000000
00000000
00000000
00010000
00001000
00010000
00000000
00000010
00001000
00000010
00000000
00000100
00000001
00001000
00000100
,  // measure 50
00000010
00000001
00000100
00000000
00001000
00010000
00001000
00000000
00100000
00010000
00100000
00000000
01000000
10000000
00010000
01000000
,  // measure 51
00100000
10000000
01000000
00000000
00100000
00001000
00100000
00001000
00010000
00000100
00010000
00000100
00001000
00000100
00001000
00000100
,  // measure 52
00000010
00000001
00000010
00000001
00002000
00000000
00000000
00000000
00000000
00000000
00000000
00000000
00000000
00000000
00000000
00000000
,  // measure 53
00000000
00000000
00000000
00000000
,  // measure 54
00003000
00000000
00000000
00000000
,  // measure 55
00000000
00000000
00000000
00000000
,  // measure 56
00000000
00001001
00000000
00000000
,  // measure 57
00000000
00000100
00001100
00000000
00000000
00000000
00000000
00000000
,  // measure 58
00000000
00010000
00000010
00000010
00000100
00000100
00001000
00001000
,  // measure 59
00010000
00000000
00010000
00000000
00000010
00001000
00000010
00001000
00000010
00010000
00000010
00010000
00001000
00010000
00001000
00010000
,  // measure 60
00001000
01000000
00001000
01000000
00000000
00000000
00000000
00000000
00100000
10000000
00010000
00000000
10000000
00000000
01000000
00000000
,  // measure 61
00010000
00000000
00001000
00100000
00000000
00010000
00100000
00000000
01000000
10000000
01000000
00000000
00010000
00000000
00001000
00000000
,  // measure 62
00000010
00000000
00000001
00000100
00000000
00000001
00001000
00000100
00010000
00001000
00010000
00000000
00000010
00000000
00010000
00000000
,  // measure 63
00001000
00000000
00100000
00010000
00000000
10000000
00100000
00000000
10000000
00010000
10000000
00000000
01000000
00000000
00010000
00000000
,  // measure 64
00001000
00010000
00001000
00010000
00000000
00000100
00001000
00000100
00000010
00000001
00001000
00000000
00000001
00000000
00000100
00000000
,  // measure 65
00001000
00000000
00010000
00000010
00000000
00001000
00000010
00000000
00000100
00000001
00000100
00000000
00001000
00000000
00010000
00000000
,  // measure 66
00100000
00000000
10000000
01000000
00000000
10000000
00010000
01000000
00001000
00010000
00001000
00000000
00100000
00000000
00001000
00000000
,  // measure 67
00010000
00000000
00000010
00001000
00000000
00000001
00000010
00000000
00000001
00001000
00000010
00000100
00000001
00001000
00000000
00000100
,  // measure 68
00001000
00000000
00000010
00010000
00001000
00010000
00000000
00001000
00100000
01000000
00100000
00000000
00010000
00000000
01000000
00000000
,  // measure 69
10000000
00000000
01000000
00010000
00000000
00100000
00001000
00010000
00000010
00000100
00000010
00000000
00001000
00000000
00000100
00000000
,  // measure 70
00000001
00000000
00000100
00001000
00000000
00000010
00010000
00001000
01000000
00100000
01000000
00000000
00010000
00000000
00100000
00000000
,  // measure 71
10000000
00000000
00100000
00010000
00000000
01000000
00001000
00010000
00000100
00000010
00000100
00000000
00001000
00000000
00000001
00000000
,  // measure 72
00000010
00000001
00000010
00000001
00000000
00000001
00000100
00000010
00001000
00000010
00000100
00000000
00001000
00000000
00010000
00000000
,  // measure 73
00100000
00000000
10000000
00010000
00000000
10000000
01000000
00100000
00010000
00100000
01000000
00000000
00010000
00000000
00001000
00000000
,  // measure 74
00000100
00000000
00000001
00000010
00000000
00000001
00001000
00000001
00000100
00000000
00000100
00000000
00001000
00000000
00001000
00000000
,  // measure 75
00010000
00000000
00010000
00000000
01000000
00000000
01000000
00000000
10000000
00100000
10000000
00010000
01000000
00100000
01000000
00010000
,  // measure 76
00100000
00001000
00010000
00000010
00001000
00000100
00000010
00000001
00000000
00000000
00000000
00000000
00000000
00000000
00000000
00000000
;

//---------------dance-double - NewbStepper-DDP----------------
#NOTEDATA:;
#CHARTNAME:NewbStepper-DDP;
#STEPSTYPE:dance-double;
#DESCRIPTION:NewbStepper-DDP;
#DIFFICULTY:Medium;
#METER:12;
#RADARVALUES:0.470337,0.553775,0.096597,0.177095,0.128796,409,397,12,22,0,0,0,0,0,0.470337,0.553775,0.096597,0.177095,0.128796,409,397,12,22,0,0,0,0,0;
#CREDIT:NewbStepper;
#NOTES:
00000000
00000000
00000000
00000000
,
00000000
00000000
00000000
00000000
,
00000000
00000000
00000000
00000000
,
00000000
00000000
00000000
00000000
,
00000000
00000000
00000000
00000000
,
00001001
00000000
00000000
00000000
00000000
00000000
00000000
00000100
,
00000100
00000000
00000000
00000000
00000000
00000000
00000000
00001000
,
00001000
00010000
01000000
00000000
10000000
00100000
01000000
00000000
,
00010000
01000000
10000000
01000000
00010000
00000000
00100000
00000000
,
00100000
00001000
00001000
00010000
,
00010000
00000010
00000010
00001000
,
00001000
00000000
00000001
00000010
00000001
00000000
00001000
00000010
,
00001000
00000100
00010000
01000000
,
10000000
01000000
00010000
00000000
00001000
00000000
00000100
00000000
,
00000001
00000100
00001000
00000000
00020000
00000000
00100000
00000000
,
00001000
00000010
00032000
00000010
,
00010000
00000000
00103000
00000000
00010000
00000000
10000000
01000000
,
00010000
00001000
00000100
00000001
00001000
00000000
00000001
00000100
,
00001000
00010000
01000000
10000000
00010000
00000000
01000000
00000000
,
00100000
10000000
01000000
00010000
00001000
00000000
00000010
00000000
,
00000001
00000000
00000000
00000000
00001000
00000000
00000000
00001000
00000000
00000000
00000100
00000000
00000000
00000100
00000000
00000000
,
00000010
00000000
00001000
00000000
00010000
00000000
00000000
00010000
00000000
00000000
00001000
00000000
00000000
00001000
00000000
00000000
,
00100000
00000000
00010000
00000000
10000000
00000000
00000000
10000000
00000000
00000000
01000000
00000000
00000000
01000000
00000000
00000000
,
00010000
00001000
00010000
00000000
00000100
00001000
00000100
00010000
,
01000000
00000000
10000000
00000000
00010000
00000000
00000000
00010000
00000000
00000000
01000000
00000000
00000000
01000000
00000000
00000000
,
00100000
00000000
00010000
00000000
00001000
00000000
00000000
00001000
00000000
00000000
00010000
00000000
00000000
00010000
00000000
00000000
,
00000010
00000000
00001000
00000000
00000001
00000000
00000000
00000001
00000000
00000000
00000100
00000000
00000000
00000100
00000000
00000000
,
00001000
00010000
00001000
00100000
00010000
10000000
00100000
00010000
,
00011000
00000000
00000000
00000000
00000010
00000000
00000100
00000000
00000010
00000000
00000000
00001000
00000000
00000000
00000001
00000000
,
00000100
00000000
00000000
00001000
00000000
00000000
00010000
00000000
01000000
00000000
00000000
00100000
00000000
00000000
00010000
00000000
,
10000000
00000000
01000000
00000000
00000000
00000000
01000000
00000000
00100000
00000000
00000000
00010000
00000000
00000000
10000000
00000000
,
01000000
00010000
00000000
00001000
00010000
00000000
01000000
00000000
,
10010000
00000000
00000000
00000000
00100000
00000000
01000000
00000000
00100000
00000000
00000000
00010000
00000000
00000000
10000000
00000000
,
01000000
00000000
00010000
00000000
00001000
00000000
00000010
00000000
00000001
00000000
00000000
00001000
00000000
00000000
00000001
00000000
,
00000100
00000000
00001000
00000000
00010000
00000000
00100000
00000000
10000000
00000000
00000000
00010000
00000000
00000000
10000000
00000000
,
01000000
00000000
00010000
00000000
00001000
00000000
00000010
00000000
00000001
00000000
00000000
00001000
00000000
00000000
00000001
00000000
,
00000100
00001000
00020000
00000000
01000000
00000000
00001000
00000000
,
01030000
00000000
00000000
00000000
00200000
00000000
00000000
00320000
00000000
00000000
02030000
00000000
03200000
00000000
00300000
20000000
,
00000000
32000000
03020000
00000000
00001000
00000000
00001000
00000000
,
00031000
00000000
00010000
00001000
00000100
00000000
00000100
00001000
,
00010000
00002000
00000100
00010000
,
00003100
00000000
00000000
00000000
00000020
00000000
00000000
00002030
00000000
00000000
00003200
00000000
00000320
00000000
00000000
00000032
,
00000000
00000203
00002300
00000000
00010000
00000000
00010000
00000000
,
00013000
00000000
00001000
00100000
00010000
01000000
00100000
10000000
,
00010000
00000000
00000000
00000000
10000000
00000000
00000000
01000000
00000000
00000000
00010000
00000000
00001000
00000000
00000000
00000100
,
00000000
00000000
00000001
00000000
00001000
00000000
00000000
00001000
00000000
00000000
00002002
00000000
00000000
00000000
00000000
00000000
,
00003003
00000000
00000000
00000000
00000001
00000000
00000000
00000100
00000000
00000000
00001000
00000000
00010000
00000000
00000000
01000000
,
00000000
10000000
00100000
10000000
01000000
00010000
00001000
00100000
,
00001000
00000010
00000001
00000000
00000101
00000000
00001000
00000000
,
00001100
00000000
00000010
00000001
00000100
00001000
00010000
00001000
,
00010000
01000000
10000000
00100000
00010000
00001000
00010000
00001000
,
00000010
00000001
00000100
00001000
00010000
01000000
00010000
00001000
,
00000100
00001000
00022000
00000000
00000000
00000000
00000000
00000000
,
00000000
00000000
00000000
00000000
,
00033000
00000000
00000000
00000000
,
00000000
00000000
00000000
00000000
,
00000000
10010000
00000000
00000000
,
00000000
01000000
01000000
00000000
00000000
00000000
00000000
00000000
,
00000000
00010000
00010000
00001000
00000100
00000000
00000001
00000010
,
00000100
00000000
00001000
00000100
00000001
00001000
00000010
00000001
,
00000100
00001000
00000000
00000000
00010000
00000000
00011000
00000000
,
00001000
00010000
00100000
10000000
01000000
00000000
01100000
00000000
,
10000000
01000000
00010000
00000000
00001000
00000000
00011000
00000000
,
00010000
00001000
00000010
00000001
00000100
00000000
00000110
00000000
,
00000010
00001000
00000100
00001000
00010000
00100000
00010000
10000000
,
00010000
01000000
00010000
00000000
00001000
00000010
00001000
00000001
,
00001000
00000100
00001000
00000000
00010000
01000000
00010000
10000000
,
00010000
00100000
00010000
00000000
00001000
00000100
00001000
00000001
,
00001000
00000010
00001000
00000000
00010000
01000000
00100000
10000000
,
01000000
00000000
00000000
00010000
00000000
00000000
00001000
00000000
00000100
00000000
00000001
00000000
00000010
00000000
00001000
00000000
,
00010000
00001000
00000100
00000001
00001000
00000100
00000010
00000001
,
00000100
00000000
00000000
00001000
00000000
00000000
00010000
00000000
01000000
00000000
10000000
00000000
00100000
00000000
00010000
00000000
,
00001000
00000010
00000001
00000000
00001000
00000100
00000010
00001000
,
00010000
00100000
00010000
00001000
00100000
00010000
10000000
00100000
,
00010000
00001000
00010000
01000000
00010000
00001000
00000100
00001000
,
00010000
00000010
00001000
00000010
00000100
00000001
00000010
00001000
,
00010000
00000000
00100000
00000000
10000000
00000000
00000000
00010000
00000000
00000000
00000000
00000000
00000000
00000000
00000000
00000000
;

//---------------dance-double - NewbStepper-BDP----------------
#NOTEDATA:;
#CHARTNAME:NewbStepper-BDP;
#STEPSTYPE:dance-double;
#DESCRIPTION:NewbStepper-BDP;
#DIFFICULTY:Easy;
#METER:9;
#RADARVALUES:0.364540,0.491037,0.112697,0.088548,0,317,303,14,11,0,0,0,0,0,0.364540,0.491037,0.112697,0.088548,0,317,303,14,11,0,0,0,0,0;
#CREDIT:NewbStepper;
#NOTES:
00000000
00000000
00000000
00000000
,
00000000
00000000
00000000
00000000
,
00000000
00000000
00000000
00000000
,
00000000
00000000
00000000
00000000
,
00000000
00000000
00000000
00000000
,
10000000
00000000
00000000
00000000
00000000
00000000
00000000
00010000
,
00010000
00000000
00000000
00000000
00000000
00000000
00000000
10000000
,
10000000
01000000
00010000
00000010
,
00001000
00000001
00000100
00001000
,
00010000
01000000
00010000
00001000
,
00000100
00001000
00010000
01000000
,
10000000
00100000
00010000
00001000
,
00000100
00000110
00001000
00001000
,
00000001
00000100
00000001
00000000
00000010
00000000
00000010
00000000
,
00001000
00010000
00001000
00000000
00000100
00000000
00000100
00000000
,
00010000
00010000
01000000
01000000
,
00001000
00010000
01000000
10000000
00010000
00000000
00010000
00000000
,
10000000
01000000
10000000
00000000
00100000
00000000
00100000
00000000
,
00010000
00001000
00010000
00000000
01000000
00000000
01000000
00000000
,
00001000
00001000
00000100
00000100
,
00000110
00000000
00000100
00000000
00001000
00000010
00001000
00000010
,
00001000
00000000
00000100
00000000
00001000
00010000
00001000
00010000
,
00001000
00000000
00010000
00000000
10000000
00010000
10000000
00010000
,
10000000
00000000
01000000
00000000
00010000
00000000
00001000
00000010
,
00001000
00000000
01000000
00000000
00010000
00100000
00010000
00100000
,
00010000
00000000
01000000
00000000
00010000
00001000
00010000
00001000
,
00010000
00000000
00001000
00000000
00000001
00001000
00000001
00001000
,
00000001
00000100
00001000
00010000
,
01000000
00000000
10000000
00100000
10000000
00000000
00010000
00100000
,
00010000
00000000
01000000
00001000
01000000
00000000
00001000
00010000
,
00001000
00000000
00100000
00010000
00001000
00000000
00000100
00000010
,
00000001
00000000
00000100
00000000
00001000
00000000
00010000
00001000
,
00000010
00000000
00000001
00000010
00000001
00000000
00001000
00000010
,
00001000
00000000
00000100
00010000
00000100
00000000
00010000
00001000
,
00010000
00000000
00000010
00001000
00010000
00000000
01000000
00100000
,
10000000
00000000
01000000
00010000
00001000
00000000
00100000
00010000
,
00100000
00002000
00000000
00000000
,
00003000
00000000
00000010
00000000
00000001
00000100
00001000
00000000
,
00010000
01000000
20000000
00000000
00000000
00000000
00000000
00000000
,
30000000
01000000
00010000
00001000
,
00010000
00020000
00000000
00000000
,
00030000
00000000
00100000
00000000
10000000
01000000
00010000
00000000
,
00001000
00000100
00000002
00000000
00000000
00000000
00000000
00000000
,
00000000
00000003
00000100
00001000
,
00010000
00001000
00000010
00000100
,
00010000
00011000
00101000
01100000
,
00000000
01000000
00010000
00001000
,
00010000
00100000
01000000
00001000
,
00010000
00022000
00000000
00000000
,
00033000
00000000
00001000
00000010
00001000
00000000
00000010
00000001
,
00000010
00000000
00000001
00000100
00000001
00000000
00000100
00001000
,
00000100
00001000
00010000
01000000
,
10000000
00020000
00000000
00000000
,
00000000
00000000
00000000
00000000
,
00030000
00000000
00000000
00000000
,
00000000
00000000
00000000
00000000
,
00000000
00000001
00000000
00000000
,
00000000
00001000
00001000
00000000
00000000
00000000
00000000
00000000
,
00000000
00000001
00000001
00000000
00000100
00000000
00001000
00000000
,
00100000
00010000
10000000
01000000
,
00010000
00000000
00001000
00000100
,
00000001
00000100
00000001
00000000
00000010
00000000
00001000
00000000
,
00010000
00001000
00010000
00000000
00100000
00000000
10000000
00000000
,
00010000
01000000
00010000
01000000
00001000
00000000
00011000
00000000
,
00022000
00033000
00010000
01000000
,
10000000
01000000
10000000
00000000
00100000
00000000
00010000
00000000
,
00001000
00010000
00001000
00000000
00000010
00000000
00000001
00000000
,
00001000
00000100
00001000
00000100
00010000
00000000
00011000
00000000
,
00022000
00000000
00033000
00000000
00100000
10000000
00100000
00000000
,
00010000
00000000
00001000
00000000
00000010
00000001
00000010
00000000
,
00001000
00000000
00010000
00000000
01000000
10000000
01000000
00100000
,
00010000
00000000
00100000
00000000
00001000
00010000
00001000
00000000
,
00000100
00000000
00000001
00000000
00000010
00000001
00000010
00000000
,
00001000
00000000
00010000
00000000
00100000
10000000
00100000
00000000
,
00010000
00000000
00001000
00000000
00000100
00000001
00000100
00000001
,
00001000
00000100
00001000
00000000
00001100
00000000
00010100
00000000
,
00011000
00101000
00000000
00000000
;
