#VERSION:0.83;
#TITLE:Synergy For Angels(XX-Special);
#ARTIST:TAGĂ—U1-ASAMi;
#BANNER:Synergy For Angels(XX-Special).png;
#BACKGROUND:Synergy For Angels(XX-Special)-bg.png;
#JACKET:Synergy For Angels(XX-Special)-jacket.png;
#MUSIC:Synergy For Angels(XX-Special).ogg;
#SAMPLESTART:28.5;
#SAMPLELENGTH:15;
#DISPLAYBPM:160;
#BPMS:0=160;
#STOPS:494=3.6;
#WARPS:5=15,21=15,37=15,53=15,69=15,85=15,101=15,117=15,133=15,149=15,165=15,181=15,477.25=18.75,495=20;
#SPEEDS:0=0.6=0=0,196=0.8=4=0,208=1=4=0,216=1.2=0.25=0,216.25=1=0.25=0,216.75=1.2=0.25=0,217=1=0.25=0,217.5=1.2=0.25=0,217.75=1=0.25=0,218.25=1.2=0.25=0,218.5=1=0.25=0,255=0.6=0.25=0,255.25=1=0.25=0,376=0.8=8=0,400=1=4=0,408=1.2=0.25=0,408.25=1=0.25=0,408.75=1.2=0.25=0,409=1=0.25=0,409.5=1.2=0.25=0,409.75=1=0.25=0,410.25=1.2=0.25=0,410.5=1=0.25=0,411=0.6=0.25=0,411.25=1=0.25=0,443=0.6=0.25=0,443.25=1=0.25=0;
#SCROLLS:0=1,2=0,5=1,34=0,37=1,66=0,69=1,98=0,101=1,130=0,133=1,162=0,165=1,494=0,497.5=0.5,498.25=1,498.5=0.5,499.25=1,499.5=0.5,500.25=1,500.5=0.5,501.25=1,501.5=0.5,502.25=1,502.5=0.5,503.25=1,503.5=0.5,504.25=1,504.5=0.5,505.25=1,505.5=0.5,506.25=1,506.5=0.5,507.25=1,507.5=0.5,508.25=1,508.5=0.5,509.25=1,509.5=0.5;

//---------------dance-single - NewbStepper-CSP----------------
#NOTEDATA:;
#CHARTNAME:NewbStepper-CSP;
#STEPSTYPE:dance-single;
#DESCRIPTION:NewbStepper-CSP;
#DIFFICULTY:Challenge;
#METER:17;
#CREDIT:NewbStepper;
#NOTES:
0000
0000
0000
0000
,
0000
0000
0000
0000
0000
0000
0000
0000
1000
0100
0010
0001
0100
0010
1000
0100
,
0020
0000
0000
0001
0000
0000
0130
0000
0020
0000
0000
0001
0000
0000
0130
0000
,
0020
0000
0000
0001
0000
0000
0130
0000
0001
0000
0100
0000
1000
0000
0000
0000
,
0000
0000
0000
0000
,
0000
0000
0000
0000
,
0000
0000
0000
0000
,
0000
0000
0000
0000
,
0000
0000
0000
0000
,
0000
0000
0000
0000
0000
0000
0000
0000
1000
0100
0010
0001
0100
0010
1000
0100
,
0020
0000
0000
0001
0000
0000
0130
0000
0020
0000
0000
0001
0000
0000
0130
0000
,
0020
0000
0000
0001
0000
0000
0130
0000
0001
0000
0100
0000
1000
0000
0000
0000
,
0000
0000
0000
0000
,
0000
0000
0000
0000
,
0000
0000
0000
0000
,
0000
0000
0000
0000
,
0000
0000
0000
0000
,
0000
0000
0000
0000
0000
0000
0000
0000
1000
0100
0010
0001
0100
0010
1000
0100
,
0020
0000
0000
0001
0000
0000
0130
0000
0020
0000
0000
0001
0000
0000
0130
0000
,
0020
0000
0000
0001
0000
0000
0130
0000
0001
0000
0100
0000
1000
0000
0010
0000
,
0220
0000
0000
0330
1000
0000
0000
0000
,
0000
0000
0000
0000
,
0000
0000
0000
0000
,
0000
0000
0000
0000
,
0000
0000
0000
0000
,
0000
0000
0000
0000
0000
0000
0000
0000
1000
0100
0010
0001
0100
0010
1000
0100
,
0020
0000
0000
0001
0000
0000
0130
0000
0020
0000
0000
0001
0000
0000
0130
0000
,
0020
0000
0000
0001
0000
0000
0130
0000
0001
0000
0100
0000
1000
0000
0000
0000
,
0000
0000
0000
0000
,
0000
0000
0000
0000
,
0000
0000
0000
0000
,
0000
0000
0000
0000
,
0000
0000
0000
0000
,
0000
0000
0000
0000
0000
0000
0000
0000
1000
0100
0010
0001
0100
0010
1000
0100
,
0020
0000
0000
0001
0000
0000
0130
0000
0020
0000
0000
0001
0000
0000
0130
0000
,
0020
0000
0000
0001
0000
0000
0130
0000
0001
0000
0100
0000
1000
0000
0000
0000
,
0000
0000
0000
0000
,
0000
0000
0000
0000
,
0000
0000
0000
0000
,
0000
0000
0000
0000
,
0000
0000
0000
0000
,
0000
0000
0000
0000
0000
0000
0000
0000
1000
0100
0010
0001
0100
0010
1000
0100
,
0020
0000
0000
0001
0000
0000
0130
0000
0020
0000
0000
0001
0000
0000
0130
0000
,
0020
0000
0000
0001
0000
0000
0130
0000
0001
0000
0100
0000
1000
0000
0000
0000
,
0000
0000
0000
0000
,
0000
0000
0000
0000
,
0000
0000
0000
0000
,
0000
0000
0000
0000
,
0000
0000
0000
0000
,
0000
0000
0000
0000
0000
0000
0000
0000
1000
0100
0010
0001
0100
0010
1000
0100
,
0020
0000
0000
0001
0000
0000
0130
0000
0020
0000
0000
0001
0000
0000
0130
0000
,
0020
0000
0000
0001
0000
0000
0130
0000
0001
0000
0100
0000
1000
0000
0010
0000
,
0220
0000
0000
0000
0000
0000
0330
0000
1000
0000
0000
0100
0000
0000
0010
0000
,
0002
0000
1003
1100
0000
0001
0101
0000
,
0020
0030
0000
0000
0000
0000
0000
0000
0000
0000
0000
0000
0020
0030
0000
0000
0000
0000
0000
0000
0000
0000
0000
0000
0020
0030
0000
0000
0000
0000
0000
0000
0000
0000
0000
0000
0020
0030
0000
0000
0000
0000
0000
0000
0000
0000
0000
0000
0020
0000
0000
0000
0030
0000
0000
0000
0000
0000
0000
0000
0000
0000
0000
0000
,
1001
0000
0001
0000
0100
0001
0000
0100
0010
0000
0100
1000
0000
0100
0001
0000
,
1000
0001
0000
0010
0001
0000
1000
0001
0000
0100
0001
0000
0100
0010
0000
1000
,
0001
0000
1000
0000
0100
1000
0000
0100
0010
0000
0100
0001
0000
0100
1000
0000
,
0001
1000
0000
0010
1000
0000
0001
1000
0000
0100
1000
0000
0100
0010
0000
0001
,
1000
0000
0001
0000
0010
0001
0000
0010
0100
0000
0010
1000
0000
0010
0001
0000
,
1000
0001
0000
0100
0001
0000
1000
0001
0000
0010
0001
0000
0010
0100
0000
1000
,
0001
0000
1000
0000
0010
1000
0000
0010
0100
0000
0010
0001
0000
0010
1000
0000
,
1001
0000
0000
1100
0000
0000
0101
0000
0000
0110
0000
0000
1010
0000
0110
0000
,
1001
0000
0000
0010
0100
0000
0110
0000
0000
0010
0100
0000
2002
3003
0000
0000
,
0002
0103
2000
3100
,
0001
0000
0000
0001
0100
0000
0010
0000
1000
0000
0000
1000
0100
0000
0010
0000
,
0001
0010
0000
0010
0001
0000
0100
0000
0010
1000
0000
1000
0100
0000
0010
0000
,
0001
1000
0000
1000
0001
0000
0100
0000
0010
0000
1000
0000
1001
0000
0000
0000
,
2000
3100
0002
0103
,
1000
0000
0000
1000
0100
0000
0010
0000
0001
0000
0000
0001
0100
0000
0010
0000
,
1000
0010
0000
0010
1000
0000
0100
0000
0010
0001
0000
0001
0100
0000
0010
0000
,
1000
0100
1000
0001
0100
0001
1000
0100
0010
0001
0100
0010
2000
0000
0000
0000
,
3001
0100
0000
0100
1000
0000
0100
0000
1000
0100
0000
0100
0001
0000
0010
0000
,
0100
1000
0000
1000
0010
0000
0100
0000
0001
0010
0000
0010
1000
0000
0001
0000
,
0100
1000
0000
1000
0010
0100
0000
0100
1000
0001
0000
0001
0010
1000
0000
1000
,
0100
0010
0000
0010
0001
0100
0000
0100
1000
0100
0000
0100
0002
0000
0000
0000
,
1003
0100
0000
0100
0001
0000
0100
0000
0001
0100
0000
0100
1000
0000
0010
0000
,
0100
0001
0000
0001
0010
0000
0100
0000
1000
0010
0000
0010
0001
0000
1000
0000
,
0100
0001
0000
0001
0010
0100
0000
0100
0001
1000
0000
1000
0010
0001
0000
0001
,
0100
0010
1000
0100
0010
0001
0100
0010
0100
1000
0100
0010
0001
0010
1000
0010
,
0100
0001
0000
0001
1000
0100
0000
0100
0010
0000
0001
0100
0000
1000
0100
0001
,
0010
0000
0001
0000
0100
0000
1000
0000
0001
0000
0010
0100
0000
0001
0000
1000
,
0010
1000
0000
1000
0001
0010
0000
0010
0100
0000
1000
0001
0000
1000
0100
0010
,
0000
0001
0000
0100
1000
0000
0100
0001
0000
0100
0010
0100
0001
1000
0100
0010
,
0100
1000
0000
1000
0001
0100
0000
0100
0010
0000
1000
0100
0000
0001
0100
1000
,
0010
0000
1000
0000
0100
0000
0001
0000
1000
0000
0010
0100
0000
1000
0000
0001
,
0010
0001
0000
0001
1000
0010
0000
0010
0100
0000
0001
1000
0000
0001
0100
0010
,
0000
1000
0000
0100
0001
0000
0100
0000
1000
0010
0100
0001
0010
0100
1000
0010
,
0100
1000
0100
1000
0100
0000
0001
0010
0001
1000
0000
0100
0000
0010
0001
0000
,
0100
0010
0100
0000
1000
0100
0000
0001
1000
0000
0010
0000
0100
0000
0001
0000
,
0020
0000
1000
0000
1030
0000
0020
0000
0001
0000
0031
0000
1000
0010
0100
0000
,
0001
1000
0001
1000
0001
0000
0000
0000
0010
0100
0010
0100
0010
0000
0000
0000
,
0100
0001
0100
0001
0100
0000
1000
0010
1000
0001
0000
0100
0000
0010
1000
0000
,
0100
0010
0100
0000
0001
0100
0000
1000
0001
0000
0010
0000
0100
0000
1000
0000
,
0020
0000
0001
0000
0031
0000
0020
0000
1000
0000
1030
0000
0001
0010
0100
0000
,
1000
0001
1000
0001
1000
0000
0000
0000
0010
0100
0010
0100
0010
0000
0000
0000
,
2000
0000
0000
3200
0000
0000
0320
0000
0032
0000
0000
0203
0000
0000
0320
0000
,
2030
0000
0000
3200
0000
0000
0320
0000
0031
0000
0100
0000
1000
0000
0100
0000
,
0020
0000
0000
1000
0000
0000
0130
0000
0020
0000
0000
1000
0000
0000
0130
0000
,
0020
0000
0000
1000
0000
0000
0130
0000
1000
0000
0100
0000
0001
0000
0010
0000
,
0220
0000
0000
0000
0000
0000
0330
0000
0001
0000
0000
0100
0000
0000
0010
0000
,
1000
0100
0010
0001
1000
0010
0100
0001
0010
0100
1000
0001
0100
0010
1000
0100
,
0020
0030
0000
0000
0000
0000
0000
0000
0000
0000
0000
0000
0020
0030
0000
0000
0000
0000
0000
0000
0000
0000
0000
0000
0020
0030
0000
0000
0000
0000
0000
0000
0000
0000
0000
0000
0020
0030
0000
0000
0000
0000
0000
0000
0000
0000
0000
0000
0020
0000
0000
0000
0030
0000
0000
0000
0000
0000
0000
0000
0000
0000
0000
0000
,
0002
0013
2000
3010
,
0001
0000
0000
0001
0010
0000
0100
0000
1000
0000
0000
1000
0010
0000
0100
0000
,
0001
0100
0000
0100
0001
0000
0010
0000
0100
1000
0000
1000
0010
0000
0100
0000
,
0001
1000
0000
1000
0001
0000
0010
0000
0100
0000
1000
0000
1001
0000
0000
0000
,
0001
0101
0000
1100
0000
1010
0000
0011
,
0000
1100
0000
0101
0000
0011
0000
1010
,
1000
1100
0000
0011
0001
0101
0000
0100
,
0010
1000
0010
1000
0100
0010
0100
0010
0001
0100
0001
0100
0020
0000
0030
0000
,
1000
0000
0000
1100
0000
0000
0100
0010
0001
0000
0000
0101
0000
0000
0100
0010
,
2000
0000
0000
3002
0000
0000
0203
0000
0000
0300
1000
0100
0010
0100
1000
0100
,
0001
0010
0000
0010
0001
1000
0010
0100
0001
0010
0000
1000
0010
0100
1000
0001
,
0100
0010
0000
0001
0010
0100
0010
1000
0100
0001
0100
0010
1000
0010
0001
1000
,
0001
0000
0000
0101
0000
0000
0100
0010
1000
0000
0000
1100
0000
0000
0100
0010
,
0002
0000
0000
2003
0000
0000
3200
0000
0000
0300
0001
0100
0010
0100
0001
0100
,
1000
0010
0000
0010
1000
0001
0010
0100
1000
0010
0000
0001
0010
0100
0001
1000
,
0100
0010
0001
0100
1000
0100
0001
0010
0100
0000
0000
0110
0000
0000
0110
0000
,
2002
3003
0000
0000
,
0000
0000
0000
0000
,
0000
0000
0000
0000
,
0000
0000
0000
0000
,
0000
0000
0000
0000
,
0000
0000
0000
0000
0000
0000
0000
0000
0000
0000
0000
0000
0000
0000
0000
0000
1111
0000
1111
1111
1111
0000
MMMM
0000
1111
0000
1111
1111
1111
0000
MMMM
0000
,
1111
0000
1111
1111
1111
0000
MMMM
0000
1111
0000
1111
1111
1111
0000
MMMM
0000
1111
0000
1111
1111
1111
0000
MMMM
0000
1111
0000
1111
1111
1111
0000
MMMM
0000
,
1111
0000
1111
1111
1111
0000
MMMM
0000
1111
0000
1111
1111
1111
0000
MMMM
0000
1111
0000
1111
1111
1111
0000
MMMM
0000
1111
0000
1111
1111
1111
0000
MMMM
0000
,
1111
0000
1111
1111
1111
0000
MMMM
0000
1111
0000
1111
1111
1111
0000
0000
0000
0000
0000
0000
0000
0000
0000
0000
0000
0000
0000
0000
0000
0000
0000
0000
0000
;

//---------------dance-double - NewbStepper-CDP----------------
#NOTEDATA:;
#CHARTNAME:NewbStepper-CDP;
#STEPSTYPE:dance-double;
#DESCRIPTION:NewbStepper-CDP;
#DIFFICULTY:Challenge;
#METER:17;
#CREDIT:NewbStepper;
#NOTES:
00000000
00000000
00000000
00000000
,
00000000
00000000
00000000
00000000
00000000
00000000
00000000
00000000
00010000
00001000
00010000
00001000
00100000
00010000
01000000
00100000
,
00020000
00000000
00000000
00001000
00000000
00000000
00030010
00000000
00020000
00000000
00000000
00001000
00000000
00000000
00030010
00000000
,
00020000
00000000
00000000
00001000
00000000
00000000
00030100
00000000
00000010
00000000
00000100
00000000
00010000
00000000
00000000
00000000
,
00000000
00000000
00000000
00000000
,
00000000
00000000
00000000
00000000
,
00000000
00000000
00000000
00000000
,
00000000
00000000
00000000
00000000
,
00000000
00000000
00000000
00000000
,
00000000
00000000
00000000
00000000
00000000
00000000
00000000
00000000
00010000
00001000
00010000
00001000
00100000
00010000
01000000
00100000
,
00020000
00000000
00000000
00001000
00000000
00000000
00030010
00000000
00020000
00000000
00000000
00001000
00000000
00000000
00030010
00000000
,
00020000
00000000
00000000
00001000
00000000
00000000
00030100
00000000
00000010
00000000
00000100
00000000
00010000
00000000
00000000
00000000
,
00000000
00000000
00000000
00000000
,
00000000
00000000
00000000
00000000
,
00000000
00000000
00000000
00000000
,
00000000
00000000
00000000
00000000
,
00000000
00000000
00000000
00000000
,
00000000
00000000
00000000
00000000
00000000
00000000
00000000
00000000
00010000
00001000
00010000
00001000
00100000
00010000
01000000
00100000
,
00020000
00000000
00000000
00001000
00000000
00000000
00030010
00000000
00020000
00000000
00000000
00001000
00000000
00000000
00030010
00000000
,
00020000
00000000
00000000
00001000
00000000
00000000
00030100
00000000
00000010
00000000
00000100
00000000
00010000
00000000
00000000
00000000
,
00000000
00000000
00000000
00000000
,
00000000
00000000
00000000
00000000
,
00000000
00000000
00000000
00000000
,
00000000
00000000
00000000
00000000
,
00000000
00000000
00000000
00000000
,
00000000
00000000
00000000
00000000
00000000
00000000
00000000
00000000
00010000
00001000
00010000
00001000
00100000
00010000
01000000
00100000
,
00020000
00000000
00000000
00001000
00000000
00000000
00030010
00000000
00020000
00000000
00000000
00001000
00000000
00000000
00030010
00000000
,
00020000
00000000
00000000
00001000
00000000
00000000
00030100
00000000
00000010
00000000
00000100
00000000
00010000
00000000
00000000
00000000
,
00000000
00000000
00000000
00000000
,
00000000
00000000
00000000
00000000
,
00000000
00000000
00000000
00000000
,
00000000
00000000
00000000
00000000
,
00000000
00000000
00000000
00000000
,
00000000
00000000
00000000
00000000
00000000
00000000
00000000
00000000
00010000
00001000
00010000
00001000
00100000
00010000
01000000
00100000
,
00020000
00000000
00000000
00001000
00000000
00000000
00030010
00000000
00020000
00000000
00000000
00001000
00000000
00000000
00030010
00000000
,
00020000
00000000
00000000
00001000
00000000
00000000
00030100
00000000
00000010
00000000
00000100
00000000
00010000
00000000
00000000
00000000
,
00000000
00000000
00000000
00000000
,
00000000
00000000
00000000
00000000
,
00000000
00000000
00000000
00000000
,
00000000
00000000
00000000
00000000
,
00000000
00000000
00000000
00000000
,
00000000
00000000
00000000
00000000
00000000
00000000
00000000
00000000
00010000
00001000
00010000
00001000
00100000
00010000
01000000
00100000
,
00020000
00000000
00000000
00001000
00000000
00000000
00030010
00000000
00020000
00000000
00000000
00001000
00000000
00000000
00030010
00000000
,
00020000
00000000
00000000
00001000
00000000
00000000
00030100
00000000
00000010
00000000
00000100
00000000
00010000
00000000
00000000
00000000
,
00000000
00000000
00000000
00000000
,
00000000
00000000
00000000
00000000
,
00000000
00000000
00000000
00000000
,
00000000
00000000
00000000
00000000
,
00000000
00000000
00000000
00000000
,
00000000
00000000
00000000
00000000
00000000
00000000
00000000
00000000
00010000
00001000
00010000
00001000
00100000
00010000
01000000
00100000
,
00020000
00000000
00000000
00001000
00000000
00000000
00030010
00000000
00020000
00000000
00000000
00001000
00000000
00000000
00030010
00000000
,
00020000
00000000
00000000
00001000
00000000
00000000
00030100
00000000
00000010
00000000
00000100
00000000
00010000
00000000
00001000
00000000
,
00000200
00000000
00000000
00000000
00000000
00000000
00000000
00000000
00000301
00000000
00000000
00000100
00000000
00000000
00001000
00000000
,
00020000
00000000
00031000
00101000
00000000
01000000
01010000
00000000
,
00200000
00300000
00000000
00000000
00000000
00000000
00000000
00000000
00000000
00000000
00000000
00000000
00200000
00300000
00000000
00000000
00000000
00000000
00000000
00000000
00000000
00000000
00000000
00000000
00200000
00300000
00000000
00000000
00000000
00000000
00000000
00000000
00000000
00000000
00000000
00000000
00200000
00300000
00000000
00000000
00000000
00000000
00000000
00000000
00000000
00000000
00000000
00000000
00200000
00000000
00000000
00000000
00300000
00000000
00000000
00000000
00000000
00000000
00000000
00000000
00000000
00000000
00000000
00000000
,
10010000
00000000
10000000
00000000
01000000
10000000
00000000
01000000
00100000
00000000
01000000
00010000
00000000
01000000
00100000
00000000
,
00001000
00100000
00000000
00001000
00010000
00000000
00001000
00000010
00000000
00001000
00010000
00000000
00000100
00000010
00000000
00000001
,
00001000
00000000
00000001
00000000
00000010
00000001
00000000
00000010
00000100
00000000
00000010
00001000
00000000
00000010
00000100
00000000
,
00010000
00000100
00000000
00010000
00001000
00000000
00100000
00010000
00000000
10000000
00100000
00000000
00010000
00000000
00001000
00000000
,
00000010
00000000
00000001
00000000
00000100
00000001
00000000
00000100
00000010
00000000
00000100
00001000
00000000
00000100
00000010
00000000
,
00010000
00000010
00000000
00010000
00001000
00000000
00010000
00100000
00000000
00010000
00001000
00000000
01000000
00100000
00000000
10000000
,
00010000
00000000
10000000
00000000
00100000
10000000
00000000
00100000
01000000
00000000
00100000
00010000
00000000
00100000
01000000
00000000
,
00001000
01000000
00000000
01001000
00000000
00000000
00010000
00000100
00000000
00010100
00000000
00000000
00010000
00000000
00001000
00000000
,
00011000
00000000
00000000
00000100
00000010
00000000
00000110
00000000
00000000
00000001
00001000
00000000
00002002
00003003
00000000
00000000
,
00000002
00000103
00002000
00003100
,
00000001
00000000
00000000
00000001
00000100
00000000
00001000
00000000
00020000
00000000
00000000
00000000
00230000
00000000
00000000
00000000
,
10300000
00100000
00000000
00100000
10000000
00000000
01000000
00000000
00010000
00001000
00000000
00001000
00100000
00000000
00010000
00000000
,
00001000
00000100
00000000
00000100
00000010
00000000
00000001
00000000
00000100
00000000
00001000
00000000
00010000
00000000
00100000
00000000
,
20000000
31000000
00020000
01030000
,
10000000
00000000
00000000
10000000
01000000
00000000
00010000
00000000
00002000
00000000
00000000
00000000
00003020
00000000
00000000
00000000
,
00000031
00000010
00000000
00000010
00000001
00000000
00000100
00000000
00001000
00010000
00000000
00010000
00000010
00000000
00001000
00000000
,
00010000
01000000
00010000
10000000
01000000
10000000
00010000
10000000
01000000
00010000
00001000
00100000
00002000
00000000
00000000
00000000
,
00013000
00001000
00000000
00001000
00000100
00000000
00000010
00000000
00001000
00000001
00000000
00000001
00000100
00000000
00001000
00000000
,
00010000
00100000
00000000
00100000
10000000
00000000
01000000
00000000
00100000
10000000
00000000
10000000
00010000
00000000
01000000
00000000
,
10000000
00100000
00000000
00100000
00010000
00001000
00000000
00001000
00100000
00010000
00000000
00010000
00001000
00000100
00000000
00000100
,
00010000
00001000
00000000
00001000
00000010
00000001
00000000
00000001
00000100
00000010
00000000
00000010
00000200
00000000
00000000
00000000
,
00001300
00010000
00000000
00010000
01000000
00000000
00100000
00000000
00010000
10000000
00000000
10000000
01000000
00000000
00010000
00000000
,
00001000
00000010
00000000
00000010
00000001
00000000
00000100
00000000
00000010
00000001
00000000
00000001
00001000
00000000
00000100
00000000
,
00000001
00000010
00000000
00000010
00001000
00010000
00000000
00010000
00000010
00001000
00000000
00001000
00010000
01000000
00000000
01000000
,
00100000
10000000
00010000
01000000
00010000
01000000
00100000
00010000
00001000
00000100
00000010
00001000
00000001
00000100
00000010
00001000
,
00000100
00000010
00000000
00000010
00001000
00010000
00000000
00010000
00001000
00000000
00100000
00010000
00000000
01000000
10000000
01000000
,
00100000
00000000
10000000
00000000
01000000
00000000
00010000
00000000
00001000
00000000
00000100
00000001
00000000
00001000
00000000
00000010
,
00000001
00001000
00000000
00001000
00000100
00000010
00000000
00000010
00001000
00000000
00000100
00010000
00000000
00001000
00010000
00100000
,
00000000
10000000
00000000
01000000
00010000
00000000
01000000
10000000
00000000
00010000
00100000
00010000
10000000
00100000
10000000
00010000
,
01000000
00100000
00000000
00100000
00010000
00001000
00000000
00001000
00010000
00000000
00000010
00001000
00000000
00000100
00000001
00000100
,
00000010
00000000
00000001
00000000
00000100
00000000
00001000
00000000
00010000
00000000
01000000
10000000
00000000
00010000
00000000
00100000
,
10000000
00010000
00000000
00010000
01000000
00100000
00000000
00100000
00010000
00000000
01000000
00001000
00000000
00010000
00001000
00000010
,
00000000
00000001
00000000
00000100
00001000
00000000
00000100
00000000
00000010
00001000
00000010
00001000
00000100
00010000
00000100
00010000
,
00001000
01000000
00001000
01000000
00001000
00000000
00010000
00001000
00010000
00100000
00000000
10000000
00000000
01000000
00000000
00100000
,
00001000
00010000
00001000
00000000
00000010
00000100
00000000
00000010
00000001
00000000
00000100
00000000
00001000
00000000
00010000
00000000
,
00200000
00000000
10000000
00000000
10300000
00000000
00200000
00000000
00010000
00000000
00310000
00000000
00001000
01000000
00010000
00000000
,
00100000
00001000
00100000
00001000
00100000
00000000
00000000
00000000
00001000
00010000
00001000
00010000
00001000
00000000
00000000
00000000
,
00010000
00000100
00010000
00000100
00010000
00000000
00001000
00010000
00001000
00000010
00000000
00000001
00000000
00000100
00000000
00000010
,
00010000
00001000
00010000
00000000
00100000
01000000
00000000
00100000
10000000
00000000
01000000
00000000
00010000
00000000
00001000
00000000
,
00000020
00000000
00000001
00000000
00000031
00000000
00000020
00000000
00001000
00000000
00001030
00000000
00010000
00000100
00001000
00000000
,
00000010
00010000
00000010
00010000
00000010
00000000
00000000
00000000
00010000
00001000
00010000
00001000
00010000
00000000
00000000
00000000
,
00200000
00000000
00000000
20300000
00000000
00000000
32000000
00000000
03200000
00000000
00000000
00320000
00000000
00000000
00032000
00000000
,
00003200
00000000
00000000
00000320
00000000
00000000
00000032
00000000
00001003
00000000
00000000
00000000
00000001
00000000
00000100
00000000
,
00002000
00000000
00000000
00010000
00000000
00000000
00103000
00000000
00002000
00000000
00000000
00010000
00000000
00000000
00103000
00000000
,
00002000
00000000
00000000
00010000
00000000
00000000
01003000
00000000
00100000
00000000
01000000
00000000
00001000
00000000
00010000
00000000
,
02000000
00000000
00000000
00000000
00000000
00000000
00000000
00000000
13000000
00000000
00000000
01000000
00000000
00000000
00010000
00000000
,
00001000
00010000
00001000
00010000
00000100
00001000
00000001
00000100
00000010
00001000
00000100
00010000
00001000
00100000
00010000
01000000
,
00200000
00300000
00000000
00000000
00000000
00000000
00000000
00000000
00000000
00000000
00000000
00000000
00200000
00300000
00000000
00000000
00000000
00000000
00000000
00000000
00000000
00000000
00000000
00000000
00200000
00300000
00000000
00000000
00000000
00000000
00000000
00000000
00000000
00000000
00000000
00000000
00200000
00300000
00000000
00000000
00000000
00000000
00000000
00000000
00000000
00000000
00000000
00000000
00200000
00000000
00000000
00000000
00300000
00000000
00000000
00000000
00000000
00000000
00000000
00000000
00000000
00000000
00000000
00000000
,
20000000
30100000
00020000
00130000
,
10000000
00000000
00000000
10000000
00100000
00000000
00010000
00000000
00002000
00000000
00000000
00000000
00003200
00000000
00000000
00000000
,
00000301
00000100
00000000
00000100
00000001
00000000
00000010
00000000
00001000
00010000
00000000
00010000
00000100
00000000
00001000
00000000
,
00010000
00100000
00000000
00100000
01000000
00000000
10000000
00000000
00100000
00000000
00010000
00000000
00001000
00000000
00000100
00000000
,
00000001
00000101
00000000
00001100
00000000
00011000
00000000
00110000
,
00000000
10100000
00000000
11000000
00000000
01010000
00000000
00011000
,
00001000
00101000
00000000
00011000
00010000
00010010
00000000
00000010
,
00000100
00000001
00000100
00000001
00001000
00000100
00001000
00000100
00010000
00001000
00010000
00001000
00200000
00300000
00000000
00000000
,
00010000
00000000
00000000
01010000
00000000
00000000
01000000
00100000
10000000
00000000
00000000
11000000
00000000
00000000
01000000
00100000
,
00020000
00000000
00000000
00230000
00000000
00000000
00302000
00000000
00000000
00000000
00013000
00001000
00000100
00001000
00010000
00001000
,
00100000
00010000
00000000
00010000
10000000
00100000
01000000
00010000
10000000
01000000
00000000
00100000
00010000
01000000
00100000
00010000
,
00001000
00010000
00000000
00001000
00010000
00000100
00010000
00001000
00000100
00000010
00001000
00000001
00000010
00001000
00000001
00000100
,
00001000
00000000
00000000
00001100
00000000
00000000
00000100
00000010
00000001
00000000
00000000
00000101
00000000
00000000
00000100
00000010
,
00002000
00000000
00000000
00003020
00000000
00000000
00020030
00000000
00000000
00000000
00031000
00010000
01000000
00010000
00001000
00010000
,
00000010
00001000
00000000
00001000
00000001
00000010
00000100
00001000
00000001
00000100
00000000
00000010
00001000
00000100
00000010
00001000
,
00010000
00001000
00100000
00010000
01000000
10000000
01000000
00010000
00100000
00000000
00000000
01100000
00000000
00000000
01100000
00000000
,
20020000
30030000
00000000
00000000
,
00000000
00000000
00000000
00000000
,
00000000
00000000
00000000
00000000
,
00000000
00000000
00000000
00000000
,
00000000
00000000
00000000
00000000
,
00000000
00000000
00000000
00000000
00000000
00000000
00000000
00000000
00000000
00000000
00000000
00000000
00000000
00000000
00000000
00000000
11111111
00000000
11111111
11111111
11111111
00000000
MMMMMMMM
00000000
11111111
00000000
11111111
11111111
11111111
00000000
MMMMMMMM
00000000
,
11111111
00000000
11111111
11111111
11111111
00000000
MMMMMMMM
00000000
11111111
00000000
11111111
11111111
11111111
00000000
MMMMMMMM
00000000
11111111
00000000
11111111
11111111
11111111
00000000
MMMMMMMM
00000000
11111111
00000000
11111111
11111111
11111111
00000000
MMMMMMMM
00000000
,
11111111
00000000
11111111
11111111
11111111
00000000
MMMMMMMM
00000000
11111111
00000000
11111111
11111111
11111111
00000000
MMMMMMMM
00000000
11111111
00000000
11111111
11111111
11111111
00000000
MMMMMMMM
00000000
11111111
00000000
11111111
11111111
11111111
00000000
MMMMMMMM
00000000
,
11111111
00000000
11111111
11111111
11111111
00000000
MMMMMMMM
00000000
11111111
00000000
11111111
11111111
11111111
00000000
00000000
00000000
00000000
00000000
00000000
00000000
00000000
00000000
00000000
00000000
00000000
00000000
00000000
00000000
00000000
00000000
00000000
00000000
;
