#TITLE:Super Rush;
#ARTIST:kors k;
#BANNER:Super Rush.png;
#BACKGROUND:Super Rush-bg.png;
#MUSIC:Super Rush.ogg;
#OFFSET:-1.025;
#SAMPLESTART:91.972;
#SAMPLELENGTH:15;
#BPMS:0=95,24=190;
#BGCHANGES:;

//---------------dance-single - Marten-bSP----------------
#NOTES:
     dance-single:
     Marten:
     Beginner:
     3:
     0.132841,0.174354,0.023247,0.061992,0,120,117,3,8,0,0,0.132841,0.174354,0.023247,0.061992,0,120,117,3,8,0,0:
0000
0000
0000
0000
,
0000
0000
0000
0000
,
0000
0000
0000
0000
,
0000
0000
0000
0000
,
0001
0000
0000
0000
,
1000
0000
0000
0000
,
0001
0000
0000
0000
,
0001
0000
0000
0000
,
1000
0000
0000
0000
,
1000
0000
0000
0000
,
1001
0000
0000
0000
,
0001
0000
0001
0000
,
0001
0000
0000
0000
,
1000
0000
1000
0000
,
1000
0000
0000
0000
,
0001
0000
0001
0000
,
0001
0000
0000
0000
,
0100
0000
0110
0000
,
0010
0000
0000
0000
,
0010
0000
0000
0000
,
0010
0000
0000
0000
,
0010
0000
0010
0000
,
0010
0000
0000
0000
,
0010
0000
0000
0000
,
1000
0000
1000
0000
,
0001
0000
0001
0000
,
1000
0000
0000
0000
,
0100
0000
0000
0000
,
0010
0000
0000
0000
,
0001
0000
0000
0000
,
1000
0000
1000
0000
,
0001
0000
0001
0000
,
0100
0000
0100
0000
,
0020
0000
0030
0000
,
1000
0000
0000
0000
,
1000
0000
1000
0000
,
0001
0000
0000
0000
,
0001
0000
0001
0000
,
1000
0000
0000
0000
,
1000
0000
1000
0000
,
0001
0000
0000
0000
,
0001
0000
0001
0000
,
0010
0000
0000
0000
,
0010
0000
0010
0000
,
0100
0000
0000
0000
,
0100
0000
0100
0000
,
1000
0000
0000
0000
,
1000
0000
1000
0000
,
0001
0000
0001
0000
,
1000
0000
0001
0000
,
2000
0000
0000
0000
,
0000
0000
0000
0000
,
3002
0000
0000
0000
,
0000
0000
0000
0000
,
0203
0000
0000
0000
,
0000
0000
0000
0000
,
0320
0000
0000
0000
,
0000
0000
0000
0000
,
1030
0000
0000
0000
,
1000
0000
0000
0000
,
0001
0000
0000
0000
,
0001
0000
0000
0000
,
1000
0000
1000
0000
,
0001
0000
0001
0000
,
0010
0000
0010
0000
,
0200
0000
0000
0300
,
1000
0000
0001
0000
,
1000
0000
0000
0000
,
0001
0000
1000
0000
,
0001
0000
0000
0000
,
0010
0000
0100
0000
,
0010
0000
0000
0000
,
0100
0000
0010
0000
,
0200
0000
0000
0300
,
0001
0000
1000
0000
,
0001
0000
0000
0000
,
1000
0000
0001
0000
,
1000
0000
0000
0000
,
0001
0000
0001
0000
,
0100
0000
0100
0000
,
0020
0000
0030
0000
,
1001
0000
0000
0000
,
0001
0000
0000
0000
,
0001
0000
0001
0000
,
1000
0000
0000
0000
,
1000
0000
1000
0000
,
0001
0000
0000
0000
,
0001
0000
0001
0000
,
1000
0000
0000
0000
,
1000
0000
1000
0000
,
0010
0000
0000
0000
;

//---------------dance-single - Marten-ESP----------------
#NOTES:
     dance-single:
     Marten:
     Hard:
     14:
     0.668633,0.987230,0.573430,0.178228,0.151107,604,530,74,23,0,0,0.668633,0.987230,0.573430,0.178228,0.151107,604,530,74,23,0,0:
// measure 0
0000
0000
0000
0000
,  // measure 1
0000
0000
0000
0000
,  // measure 2
0000
0000
0000
0000
,  // measure 3
0000
0000
0000
0000
,  // measure 4
2000
0000
3100
1000
0001
1000
0001
0000
1000
0010
1000
0010
0100
0001
0010
0001
,  // measure 5
0200
0000
0301
0010
0001
0010
0001
0000
1000
0100
0010
0001
0010
0100
1000
0000
,  // measure 6
0001
0100
0001
0000
1000
0100
1000
0010
,  // measure 7
1000
0010
0100
0001
0010
0001
1000
0000
,  // measure 8
0001
0000
0010
0000
0100
0000
1000
0000
0001
0000
1000
0000
0001
1000
0001
1000
,  // measure 9
0002
0000
0003
1001
,  // measure 10
1000
0000
0101
0000
0001
0100
0010
0000
,  // measure 11
1000
0100
0010
0100
1000
1000
0001
0100
,  // measure 12
0010
0000
0110
0000
0100
0001
1000
0000
,  // measure 13
0001
0010
0001
0010
0001
0000
1000
0000
0100
0000
0000
1000
0010
0000
0100
0000
,  // measure 14
0001
0000
0101
0000
0001
1000
1100
0000
,  // measure 15
0110
0000
0000
0000
0011
0000
0000
0000
1000
0000
0010
0000
0100
0010
0100
0010
,  // measure 16
0100
0000
0101
0000
0001
1000
1001
0000
,  // measure 17
0001
0010
1000
0010
0001
1000
0020
0000
,  // measure 18
0130
0000
0101
0000
0010
1010
0000
0000
,  // measure 19
0101
0000
0001
0010
0100
0100
0010
0001
,  // measure 20
0011
0000
1100
0000
0001
0011
0000
0000
,  // measure 21
1100
0000
0000
0000
1001
0000
0000
0000
1010
0000
0000
0010
0100
0000
0001
0000
,  // measure 22
0100
0100
0110
0000
1000
1001
0000
0000
,  // measure 23
0011
0000
0000
0000
0100
0000
0001
0000
0010
0000
0010
0000
0100
1000
0100
1000
,  // measure 24
0100
0000
1100
0000
0010
0001
0011
0000
,  // measure 25
0001
0001
1000
1000
0010
0100
0110
0000
,  // measure 26
0101
0000
0001
0011
0000
1100
0000
1001
,  // measure 27
0000
1000
0010
0000
0110
0000
0110
0000
,  // measure 28
1010
0000
1000
1100
0000
0110
0000
0011
,  // measure 29
0000
1000
0001
0000
0110
0010
0110
0000
,  // measure 30
1000
0000
0000
1000
0100
0000
1000
0000
0010
0000
0000
0010
0100
0000
0001
0000
,  // measure 31
0010
0000
0000
0010
0001
0000
1000
0000
0001
0000
0000
0001
1000
0000
0100
0000
,  // measure 32
0010
0000
0010
0000
0001
0000
0001
0000
1000
0000
1000
0000
0010
0100
0010
0100
,  // measure 33
0010
1000
0100
0001
0100
1000
0010
1000
,  // measure 34
0200
1000
1300
0010
0100
0101
0000
1100
,  // measure 35
0000
1000
0100
0010
0001
0000
1001
0000
,  // measure 36
0200
0001
0301
0010
0100
1000
0001
0101
,  // measure 37
0000
0100
0010
0000
1000
0000
1001
0000
,  // measure 38
1200
1000
1300
0100
0010
0001
0100
0001
,  // measure 39
0010
0100
1000
0000
1001
0000
0110
0000
,  // measure 40
0101
0000
0001
0010
0000
0110
0000
0011
,  // measure 41
0000
1000
0010
1000
0001
0010
0001
1000
,  // measure 42
0100
0000
1100
0100
0000
0010
0001
0100
,  // measure 43
0000
0010
1000
0001
1001
0000
1001
0000
,  // measure 44
1010
0000
0010
0100
0000
0100
0001
1000
,  // measure 45
0100
0001
0100
1000
1001
0001
1001
0001
,  // measure 46
1000
0100
0001
1000
0010
0001
1000
0001
,  // measure 47
0000
0100
0001
0000
0011
0000
1100
0000
,  // measure 48
2000
0010
0010
3010
0100
0001
0011
0000
,  // measure 49
0100
1000
0001
0100
1000
0100
0001
1000
,  // measure 50
0020
0000
0000
0000
,  // measure 51
0000
0000
0000
0000
,  // measure 52
0230
0000
0000
0000
,  // measure 53
0000
0000
0000
0000
,  // measure 54
0302
0000
0000
0000
,  // measure 55
0000
0000
0000
0000
,  // measure 56
2003
0000
0000
0000
,  // measure 57
0000
0000
0000
0000
,  // measure 58
3001
0010
0100
1000
,  // measure 59
0001
0000
1000
0000
0100
0000
1000
1000
,  // measure 60
0010
0100
0001
0010
,  // measure 61
0001
0000
0000
0000
1000
0000
0000
0000
0010
0000
0000
0010
1000
0000
0100
0000
,  // measure 62
1000
0010
1000
0010
0100
0001
0100
0001
,  // measure 63
0010
0001
0010
0001
1000
0100
1000
0100
,  // measure 64
0010
0001
0010
0000
0001
1000
0001
0000
1000
0100
1000
0000
0010
1000
0010
0000
,  // measure 65
0200
0010
0310
0110
,  // measure 66
0020
0000
1030
0001
1000
0010
0100
0001
,  // measure 67
1000
0100
1000
0001
0010
0001
1000
0010
,  // measure 68
0200
0000
0301
0100
0010
1000
0100
1000
,  // measure 69
0001
0010
1000
0010
0001
0100
1000
0100
,  // measure 70
0001
0001
0010
0100
0010
0001
1000
0010
,  // measure 71
1000
0100
1000
0010
0100
0001
1000
0100
,  // measure 72
2000
0000
3001
0100
0001
0010
0001
1000
,  // measure 73
0100
1000
0010
1000
0001
0010
1000
0010
,  // measure 74
0002
0000
1003
0100
1000
0010
1000
0001
,  // measure 75
0100
0001
0010
0001
1000
0100
0001
0100
,  // measure 76
2000
3000
1002
0000
1003
0010
1000
0010
,  // measure 77
0001
0010
0001
0010
1000
0100
0001
0100
,  // measure 78
1000
1000
0001
0100
0010
0100
0001
0010
,  // measure 79
0100
0010
0001
1000
0100
1000
0010
0100
,  // measure 80
0201
0000
0310
0000
1020
1000
1030
0000
,  // measure 81
1000
0000
0100
0010
0100
0000
1000
0000
0001
0000
0100
0000
0010
0000
0000
0000
,  // measure 82
0101
0000
0100
0010
0000
1010
0000
0101
,  // measure 83
0000
0001
0010
0100
1001
0000
1001
0000
,  // measure 84
1100
0000
0100
0010
0000
0011
0000
1100
,  // measure 85
0000
1000
0010
0100
1001
0000
1001
0000
,  // measure 86
0010
0000
0000
0010
1000
0000
0100
0000
0010
0000
0000
0010
0001
0000
1000
0000
,  // measure 87
0010
0000
0000
0010
1000
0000
0100
0000
0110
0000
0000
0000
0110
0000
0000
0000
,  // measure 88
0001
0000
0000
0001
1000
0000
0100
0000
1000
0000
0000
1000
0001
0000
0100
0000
,  // measure 89
0010
0000
0000
0010
1000
0000
0100
0000
0010
0000
0000
0000
0110
0000
0000
0000
,  // measure 90
2002
0000
0000
0000
,  // measure 91
3003
0000
0000
0000
;

//---------------dance-single - NewbStepper-DSP----------------
#NOTES:
     dance-single:
     NewbStepper:
     Medium:
     12:
     0.535792,0.802027,0.387453,0.131734,0.015498,484,434,50,17,0,0,0.535792,0.802027,0.387453,0.131734,0.015498,484,434,50,17,0,0:
0000
0000
0000
0000
,
0000
0000
0000
0000
,
0000
0000
0000
0000
,
0000
0000
0000
0000
,
0110
0000
1000
0000
0001
0100
0001
0000
0010
0000
0001
0000
1000
0100
0010
0000
,
0110
0000
0001
0000
1000
0100
1000
0000
0010
0000
1000
0000
0001
0100
0010
0000
,
1000
0000
1000
0000
0001
0000
0100
0010
,
1000
0000
0001
0000
0010
0001
0010
0000
,
0001
0100
0010
1000
0001
0010
0100
1000
,
2002
0000
0000
3003
,
0000
0010
0000
0010
0000
0010
0000
0010
,
0000
0001
0000
0100
0010
1000
0001
0100
,
0000
0010
0000
0010
0000
0010
0000
0010
,
0000
1000
0100
0000
0010
0001
1000
0001
,
0010
0100
0000
0100
0000
0100
0000
0100
,
0000
1000
0000
0010
0100
0001
1000
0010
,
0000
0100
0000
0100
0000
0100
0000
0100
,
0001
1000
0100
0001
0100
1000
0010
0000
,
0101
0010
0000
1000
0000
0100
0000
0010
,
0001
0000
1000
0100
0001
0100
1000
0001
,
0000
0010
0000
0001
0000
0100
0000
0010
,
1000
0001
0100
0001
1000
0000
1001
0000
,
0010
0000
0011
0000
0000
0100
0000
1000
,
1010
0000
0001
0100
0010
1000
0010
0000
,
1000
0100
0100
0000
0001
0100
0100
0000
,
0110
0000
1001
1000
0100
0010
0001
0000
,
0100
0000
0010
1000
0000
0100
0010
0100
,
0000
0001
0100
0000
0110
0000
1001
0000
,
0100
0000
0010
0001
0000
0100
0010
0100
,
0000
1000
0100
0000
0110
0000
1001
0000
,
0010
0001
0100
1000
,
0001
0010
1000
0100
,
0010
0001
0010
0001
1000
0010
1000
0010
,
0200
0000
0000
0310
,
1001
0000
1000
0100
0000
0011
0000
1100
,
0000
1000
0001
0000
0101
0000
1010
0000
,
1001
0000
0001
0100
0000
1010
0000
0101
,
0000
0001
1000
0000
1100
0000
0011
0000
,
1000
0100
0001
0000
1000
0010
0001
0000
,
1000
0100
0010
0001
1000
0010
0100
0000
,
0001
0010
1000
0000
0001
0100
1000
0000
,
0010
0100
0001
0010
0100
1000
0010
0000
,
1010
0000
0100
0001
0000
0011
0000
1100
,
0000
0010
0001
0100
0010
1000
0100
0010
,
0011
0000
0100
1000
0000
1010
0000
0101
,
0000
0010
1000
0100
0010
0001
0100
0010
,
1010
0000
0100
0110
0000
1001
0000
0011
,
0000
1000
0010
1000
0001
0010
0001
1000
,
0200
0000
0010
0010
0310
0000
0110
0000
,
0001
0100
0001
0100
0010
1000
0010
1000
,
0002
0000
0000
0000
,
0000
0000
0000
0000
,
0000
0000
0000
0000
,
0000
0000
0000
0000
,
2003
0000
3002
0000
,
0203
0000
0000
0000
,
0302
0000
2003
0000
,
3200
0000
0000
0000
,
0310
0010
0010
0010
,
0100
0100
0100
0100
,
1000
0110
0001
0110
,
1000
0010
0100
0001
,
1000
0100
1000
0000
0100
0001
0100
0000
,
0001
0010
0001
0000
0010
1000
0010
0000
,
1000
0100
0001
0100
1000
0010
0001
0010
,
2000
0000
0000
3000
,
0001
0000
0100
0010
0100
0000
0001
1000
,
0100
0000
0001
0000
0100
0010
0001
0000
,
1000
0000
0100
0010
0100
0000
1000
0001
,
0100
0000
0001
0100
0010
1000
0100
0000
,
0010
0000
0001
0100
1000
0000
0001
0010
,
1000
0000
0001
0010
0100
1000
0001
0000
,
0010
0101
0010
1100
,
0001
0100
0001
1000
0100
0100
0010
0000
,
0001
0001
1000
0010
0100
0000
0001
0010
,
0100
0000
1000
0100
0001
0100
1000
0000
,
0020
0000
2030
0000
3001
0100
1000
0100
,
0001
0000
0010
0001
0200
0000
0310
0000
,
1000
1000
0100
0000
0010
0000
0001
0001
,
0100
0000
0010
0000
0100
0010
0100
0000
,
0002
0000
2003
0000
,
3010
0100
0010
0100
0010
0000
0110
0000
,
1001
0000
0001
0100
0000
1010
0000
0101
,
0000
0001
1000
0000
1100
0000
0011
0000
,
1001
0000
1000
0100
0000
0011
0000
1100
,
0000
1000
0001
0000
0101
0000
1010
0000
,
0001
0100
0001
0000
1000
0100
1000
0000
,
0001
0100
0010
1000
0001
0010
0100
0000
,
1000
0100
1000
0000
0001
0100
0001
0000
,
0010
0100
1000
0010
0100
0001
0010
0000
,
0110
0000
0000
0000
;

//---------------dance-single - NewbStepper-BSP----------------
#NOTES:
     dance-single:
     NewbStepper:
     Easy:
     7:
     0.293357,0.383578,0.240221,0.154981,0,265,234,31,20,0,0,0.293357,0.383578,0.240221,0.154981,0,265,234,31,20,0,0:
0000
0000
0000
0000
,
0000
0000
0000
0000
,
0000
0000
0000
0000
,
0000
0000
0000
0000
,
2000
0000
3002
0000
,
0203
0000
0320
0000
,
1030
0100
1100
0000
,
0001
0100
0101
0000
,
0010
0100
0010
0100
,
0020
0000
0000
0030
,
1000
0100
1000
0000
,
0001
0100
0001
0000
,
1000
0010
0100
0001
,
1000
0000
1001
0000
,
0001
0100
0001
0000
,
1000
0100
1000
0000
,
0001
0000
0010
0010
,
0200
0000
0000
0300
,
1000
0001
1000
0001
,
0010
0000
0110
0000
,
0001
1000
0001
1000
,
0010
0000
0110
0000
,
0001
0001
0000
0000
,
1000
1000
0000
0000
,
0010
0000
0100
0000
,
0001
0010
0100
1000
,
0002
0000
0103
0010
,
1000
0000
1001
1001
,
2000
0000
3100
0010
,
0001
0000
1001
1001
,
1000
0100
0001
0000
,
0001
0100
1000
0000
,
0010
0010
0100
0010
,
0220
0000
0000
0330
,
0001
0000
0000
0100
0000
0100
0000
0100
,
0000
0000
0110
0110
,
1000
0000
0000
0100
0000
0100
0000
0100
,
0000
0000
0110
0110
,
0001
0000
0000
1000
0000
1000
0000
1000
,
0000
0000
1001
1001
,
1000
0000
0000
0001
0000
0001
0000
0001
,
0000
0000
0100
0010
,
1000
0100
1000
1000
,
0001
0000
1001
1001
,
0001
0100
0001
0001
,
1000
0000
1001
1001
,
1000
0100
1000
1000
,
0001
0000
1001
1001
,
0020
0000
0200
0330
,
2002
0000
0000
0000
,
3003
0000
0000
0000
,
0000
0000
0000
0000
,
0000
0000
0000
0000
,
0000
0000
0000
0000
,
0000
0000
0000
0000
,
0000
0000
0000
0000
,
0000
0000
0000
0000
,
0000
0000
0000
0000
,
0001
0000
1000
0000
,
0001
0010
0100
0000
,
1000
0000
0001
0000
,
1000
0010
0100
0000
,
0001
0100
0001
0000
,
1000
0100
1000
0000
,
0001
0100
0010
1000
,
2002
0000
0000
3003
,
0010
1000
0010
0100
,
0010
1000
0010
0000
,
0100
0001
0100
0010
,
0100
0001
0100
0000
,
0010
1000
0100
0010
,
0001
1000
0100
0000
,
0010
0001
0100
0010
,
1000
0100
0010
0000
,
0001
0001
1000
0100
,
1000
0010
0100
0001
,
1000
1000
0001
0100
,
0001
0010
0100
1000
,
0001
0100
1000
0100
,
0001
0100
1000
0100
,
0002
0000
2003
0000
,
3010
0100
0110
0000
,
2000
0000
3100
0010
,
0001
0000
1001
1001
,
0002
0000
0103
0010
,
1000
0000
1001
1001
,
0001
0100
1000
0000
,
1000
0100
0001
0000
,
0010
0010
0100
0010
,
0110
0000
1000
0001
,
1001
0000
0000
0000
;

//---------------dance-double - NewbStepper-EDP----------------
#NOTES:
     dance-double:
     NewbStepper:
     Hard:
     14:
     0.647600,0.951971,0.457194,0.185977,0.127859,585,526,59,24,0,0,0.647600,0.951971,0.457194,0.185977,0.127859,585,526,59,24,0,0:
00000000
00000000
00000000
00000000
,
00000000
00000000
00000000
00000000
,
00000000
00000000
00000000
00000000
,
00000000
00000000
00000000
00000000
,
00002000
00000000
00013000
00001000
00100000
00010000
10000000
00000000
01000000
00100000
00001000
00010000
00000100
00000010
00000100
00000000
,
00020000
00000000
00031000
00010000
00000010
00001000
00000001
00000000
00001000
00000001
00000100
00001000
00010000
01000000
10000000
00000000
,
00100000
00000000
10000000
00000000
01000000
00000000
00010000
00001000
,
00000100
00000001
00001000
00000010
00000100
00001000
00000100
00000001
,
00000010
00000000
00000001
00000100
00001000
00010000
01000000
10000000
,
00020000
00000000
00030000
10010000
,
00100000
00000000
00010000
00000000
10000000
01000000
00010000
00000000
,
00001000
00000100
00000010
00000100
00000001
00000000
00001001
00000000
,
00000100
00000000
00001000
00000000
00000001
00000010
00001000
00000000
,
00010000
00001000
00010000
00001000
00010000
00000000
00100000
00000000
10000000
00000000
00000000
01000000
00100000
00000000
00010000
00000000
,
10000000
00000000
00010000
00000000
10000000
00100000
00010000
00000000
,
00001000
00000000
00000100
00000000
00000001
00000000
00000010
00000000
00000001
00000100
00000001
00000000
00000010
00000000
00000000
00000000
,
00000110
00000000
00000000
00000000
00000001
00000000
00001000
00000100
00001000
00000000
00000001
00000000
00000100
00000000
00001000
00000000
,
00010000
01000000
10000000
00100000
10000000
01000000
00020000
00000000
,
00031000
00000000
00011000
00000000
00100000
10000000
01000000
00000000
,
00011000
00000000
00010000
00001000
00000010
00001000
00010000
00100000
,
00010000
00000000
00011000
00000000
00000100
00000001
00000010
00000000
,
00000011
00000000
00000000
00000000
00001010
00000000
00000000
00000000
00011000
00000000
00000000
00100000
10000000
00000000
01000000
00000000
,
00010000
00000000
00011000
00000000
00000010
00000001
00000100
00000000
,
00011000
00000000
00001000
00010000
00100000
00010000
00001000
00000010
,
00001000
00011000
01000000
01100000
,
10000000
01000000
00010000
00001000
00000100
00000001
00000010
00000000
,
00000110
00000000
00000001
00000100
00000000
00001100
00000000
00011000
,
00000000
00100000
10000000
01000000
00010000
00000000
00011000
00000000
,
01100000
00000000
10000000
01000000
00000000
01010000
00000000
00011000
,
00000000
00000010
00000001
00000100
00001000
00000000
00011000
00000000
,
00010000
00000000
00000000
00010000
00100000
00000000
10000000
00000000
01000000
00000000
00000000
01000000
00010000
00000000
00001000
00000000
,
00000100
00000000
00000000
00000100
00000001
00000000
00000010
00000000
00001000
00000000
00000010
00000000
00000001
00000000
00000100
00000000
,
00000010
00000010
00000100
00000100
00001000
00001000
00010000
00010000
,
00100000
10000000
01000000
00010000
00001000
00000100
00000001
00000000
,
00002000
00000001
00003001
00000100
00000000
00001000
00010000
00011000
,
00000000
00100000
01000000
00100000
01100000
00000000
10010000
00000000
,
00020000
10000000
10030000
01000000
00000000
00010000
00001000
00011000
,
00000000
00000010
00000100
00000010
00000110
00000000
00001001
00000000
,
00000201
00000001
00000301
00000100
00001000
00010000
00001000
00000010
,
00001000
00010000
00100000
00000000
01100000
00000000
10010000
00000000
,
12000000
10000000
13000000
01000000
00010000
00001000
00010000
00100000
,
00010000
00001000
00000010
00000000
00000110
00000000
00001001
00000000
,
00000100
00000000
00000011
00000001
00000000
00000101
00000000
00001100
,
00000000
00011000
00010000
00100000
10100000
10000000
10010000
00010000
,
01000000
00000000
10100000
10000000
00000000
11000000
00000000
01010000
,
00000000
00011000
00001000
00000010
00000011
00000001
00001001
00001000
,
00000100
00000010
00001000
00010000
00000010
00001000
00000100
00000001
,
00000000
00000100
00000010
00000000
00001010
00000000
00011000
00000000
,
00020000
00100000
00100000
00130000
20000000
01000000
01000000
31000000
,
00010000
00001000
00000100
00000001
00000010
00000001
00000100
00001000
,
00020000
00000000
00000000
00000000
,
00000000
00000000
00000000
00000000
,
00032000
00000000
00000000
00000000
,
00000000
00000000
00000000
00000000
,
00203000
00000000
00000000
00000000
,
00000000
00000000
00000000
00000000
,
02300000
00000000
00000000
00000000
,
00000000
00000000
00000000
00000000
,
13000000
00100000
01000000
00010000
,
10000000
00000000
01000000
00000000
00010000
00001000
00000100
00000000
,
00000001
00000010
00000100
00001000
,
00000001
00000000
00000100
00000000
00001000
00010000
01000000
00000000
,
10000000
00100000
10000000
00100000
00010000
00100000
00010000
00001000
,
00010000
00001000
00000100
00001000
00000100
00000001
00000100
00000001
,
00001000
00000010
00001000
00000000
00000010
00010000
00000010
00000000
00010000
00001000
00010000
00000000
00001000
00100000
00001000
00000000
,
02000000
00100000
03100000
01100000
,
20000000
00000000
31000000
00010000
00001000
00000010
00000001
00000010
,
00001000
00010000
00001000
00000100
00001000
00010000
00100000
00000000
,
20000000
00000000
30100000
00010000
00001000
00010000
01000000
00010000
,
00001000
00000010
00000001
00000100
00001000
00000100
00000001
00000000
,
00001000
00000100
00000010
00001000
00010000
00000010
00000100
00001000
,
00000100
00000001
00000010
00001000
00010000
00100000
10000000
00010000
,
00200000
00000000
00310000
01000000
00100000
00010000
00001000
00100000
,
00010000
00000000
10000000
01000000
10000000
00000000
00010000
00000000
00100000
01000000
00100000
00000000
00010000
01000000
00000000
00000000
,
00002000
00000000
00013000
01000000
00100000
10000000
00100000
00010000
,
10000000
01000000
00010000
00001000
00000100
00000001
00001000
00000100
,
00020000
00000000
00031000
00000100
00000010
00000001
00000010
00001000
,
00000001
00000100
00001000
00010000
01000000
10000000
00010000
00000000
,
10000000
01000000
00010000
10000000
00100000
00010000
01000000
00010000
,
00100000
00001000
00010000
00100000
00010000
00001000
00000010
00000001
,
00002000
00000100
00000100
00003100
00000020
00001000
00001000
00001030
,
00010000
00000000
00000100
00001000
00000100
00000000
00000010
00000000
00001000
00000000
00010000
00000000
00100000
00000000
00000000
00000000
,
01100000
00000000
10000000
01000000
00000000
01010000
00000000
00011000
,
00000000
00000010
00000001
00000100
00001000
00000000
00011000
00000000
,
00000110
00000000
00000001
00000100
00000000
00001100
00000000
00011000
,
00000000
00100000
10000000
01000000
00010000
00000000
00011000
00000000
,
00001000
00000000
00000000
00001000
00000010
00000000
00000001
00000000
00000100
00000000
00000000
00000100
00001000
00000000
00010000
00000000
,
01000000
00000000
00000000
01000000
10000000
00000000
00100000
00000000
00010000
00000000
00000000
00000000
00011000
00000000
00000000
00000000
,
00010000
00000000
00000000
00010000
00100000
00000000
10000000
00000000
01000000
00000000
00000000
01000000
00010000
00000000
00001000
00000000
,
00000100
00000000
00000000
00000100
00000001
00000000
00000010
00000000
00001000
00000000
00000000
00000000
00011000
00000000
00000000
00000000
,
00022000
00000000
00000000
00000000
,
00033000
00000000
00000000
00000000
;

//---------------dance-double - NewbStepper-DDP----------------
#NOTES:
     dance-double:
     NewbStepper:
     Medium:
     12:
     0.518080,0.802027,0.340958,0.123985,0.015498,468,424,44,16,0,0,0.518080,0.802027,0.340958,0.123985,0.015498,468,424,44,16,0,0:
00000000
00000000
00000000
00000000
,
00000000
00000000
00000000
00000000
,
00000000
00000000
00000000
00000000
,
00000000
00000000
00000000
00000000
,
01100000
00000000
10000000
00000000
00010000
01000000
00010000
00000000
10000000
00000000
01000000
00000000
00010000
00001000
00000010
00000000
,
00000110
00000000
00000001
00000000
00001000
00000100
00001000
00000000
00000001
00000000
00000100
00000000
00001000
00010000
01000000
00000000
,
10000000
00000000
10000000
00000000
00010000
00000000
01000000
00100000
,
00010000
00000000
00001000
00000000
00000010
00000001
00000010
00000000
,
00000001
00000100
00000010
00001000
00000100
00010000
00001000
01000000
,
00020000
00000000
00000000
00030000
,
00000000
01000000
00000000
01000000
00000000
01000000
00000000
01000000
,
00000000
00100000
00000000
10000000
00010000
01000000
00100000
10000000
,
00000000
00010000
00000000
00010000
00000000
00010000
00000000
00010000
,
00000000
01000000
00100000
00000000
00010000
00001000
00000100
00000010
,
00001000
00000100
00000000
00000100
00000000
00000100
00000000
00000100
,
00000000
00000010
00000000
00000001
00001000
00000100
00000010
00000001
,
00000000
00001000
00000000
00001000
00000000
00001000
00000000
00001000
,
00000001
00000100
00000010
00010000
00001000
01000000
00100000
00000000
,
10000000
01000000
00000000
00010000
00000000
00001000
00000000
00100000
,
00000000
01000000
00000000
00010000
00001000
00000100
00000001
00001000
,
00000001
00000100
00000000
00001000
00000000
00010000
00000000
00000010
,
00000100
00000010
00001000
00000100
00010000
00000000
00011000
00000000
,
01000000
00000000
01100000
00000000
00000000
00010000
00000000
10000000
,
10100000
00000000
00010000
01000000
00001000
00010000
00000010
00000000
,
00000100
00000001
00000010
00001000
,
00000110
00000000
00000001
00000100
00001000
00010000
01000000
00000000
,
10000000
00000000
01000000
00010000
00000000
00001000
00100000
00010000
,
00000000
00001000
00000100
00000000
00000110
00000000
00000110
00000000
,
00000001
00000000
00000100
00001000
00000000
00010000
00000010
00001000
,
00000000
00010000
01000000
00000000
01100000
00000000
01100000
00000000
,
00010000
10000000
01000000
00010000
,
00001000
00000010
00000001
00000100
,
00000010
00010000
00000010
00010000
00001000
00100000
00001000
00100000
,
00020000
00000000
00000000
00130000
,
10010000
00000000
10000000
01000000
00000000
01100000
00000000
11000000
,
00000000
00100000
00001000
00000000
00010100
00000000
00001010
00000000
,
00001001
00000000
00000001
00000100
00000000
00000110
00000000
00000101
,
00000000
00000010
00010000
00000000
01001000
00000000
00110000
00000000
,
10000000
01000000
00010000
00000000
00001000
00000010
00000001
00000000
,
00001000
00000100
00010000
00001000
00000100
00000001
00001000
00000000
,
00000001
00000010
00001000
00000000
00010000
01000000
10000000
00000000
,
00100000
01000000
00010000
00100000
01000000
00010000
00001000
00000000
,
00001010
00000000
00000010
00000001
00000000
00000101
00000000
00001100
,
00000000
00010000
00001000
00000000
01000000
00100000
01000000
00100000
,
01000000
00000000
00100000
10000000
00000000
11000000
00000000
01010000
,
00000000
00001000
00010000
00000000
00000100
00000010
00000100
00000010
,
00000100
00000000
00001000
00001010
00000000
00000101
00000000
00001001
,
00000000
00000001
00000100
00000010
00001000
00000100
00010000
00001000
,
02000000
00000000
00100000
00100000
03100000
00000000
01100000
00000000
,
10000000
01000000
00100000
00010000
00001000
00000100
00000010
00000001
,
00002000
00000000
00000000
00000000
,
00000000
00000000
00000000
00000000
,
00000000
00000000
00000000
00000000
,
00000000
00000000
00000000
00000000
,
00003002
00000000
00000203
00000000
,
00002300
00000000
00000000
00000000
,
00023000
00000000
02030000
00000000
,
03200000
00000000
00000000
00000000
,
01300000
01000000
01000000
01000000
,
10000000
10000000
10000000
10000000
,
01000000
00011000
00000100
00011000
,
00000010
00001000
00000001
00000010
,
00000001
00000100
00000001
00000000
00000100
00001000
00000100
00000000
,
00001000
00010000
00001000
00000000
00010000
00100000
00010000
00000000
,
00100000
10000000
01000000
00010000
00001000
00010000
00100000
10000000
,
00020000
00000000
00000000
00030000
,
10000000
00000000
01000000
00100000
01000000
00000000
10000000
00010000
,
01000000
00000000
00100000
00000000
00010000
00001000
00000010
00000000
,
00000001
00000000
00000100
00000010
00000100
00000000
00000001
00001000
,
00000100
00000000
00000010
00000000
00001000
00010000
00100000
00000000
,
10000000
00010000
10000000
01000000
00010000
00000000
00001000
00000100
,
00000001
00000000
00001000
00000100
00000010
00000001
00001000
00000000
,
00000010
00000101
00000010
00001100
,
00000001
00000100
00000010
00010000
00001000
00001000
00100000
00000000
,
00010000
00010000
10000000
00100000
01000000
00000000
00010000
01000000
,
00100000
00000000
00010000
00001000
00000100
00000001
00001000
00000000
,
00000020
00000000
00000230
00000000
00000301
00000000
00000100
00001000
,
00010000
00000000
00100000
10000000
02000000
00000000
03100000
00000000
,
00010000
00010000
01000000
00000000
00100000
10000000
01000000
00010000
,
00001000
00000000
00000010
00000000
00000100
00000010
00000100
00000000
,
00002000
00000000
00003002
00000000
,
00000103
00000010
00000110
00001001
,
00000001
00000000
00000100
00001000
00000000
00010000
00000010
00001000
,
00000000
00010000
01000000
00000000
01100000
00000000
01100000
00000000
,
10000000
00000000
01000000
00010000
00000000
00001000
00100000
00010000
,
00000000
00001000
00000100
00000000
00000110
00000000
00000110
00000000
,
00000001
00000000
00000010
00001000
00000000
00010000
00000100
00001000
,
00000000
00010000
00100000
00000000
01100000
00000000
01100000
00000000
,
10000000
00000000
00100000
00010000
00000000
00001000
01000000
00010000
,
00000000
00001000
00000010
00000000
00000110
00000000
00000110
00000000
,
00001001
00000000
00000000
00000000
;

//---------------dance-double - NewbStepper-BSP----------------
#NOTES:
     dance-double:
     NewbStepper:
     Easy:
     7:
     0.260147,0.313837,0.054243,0.162730,0,235,228,7,21,0,0,0.260147,0.313837,0.054243,0.162730,0,235,228,7,21,0,0:
00000000
00000000
00000000
00000000
,
00000000
00000000
00000000
00000000
,
00000000
00000000
00000000
00000000
,
00000000
00000000
00000000
00000000
,
20000000
00000000
30020000
00000000
,
00032000
00000000
00003002
00000000
,
00001003
00000100
00001100
00000000
,
00000001
00000100
00000101
00000000
,
00000010
00000100
00001000
00010000
,
00200000
00000000
00000000
00300000
,
10000000
01000000
10000000
00000000
,
00010000
01000000
00010000
00000000
,
10000000
00100000
01000000
00010000
,
00001000
00000000
00001001
00000000
,
00000001
00000100
00000001
00000000
,
00001000
00000100
00001000
00000000
,
00000001
00000000
00000010
00000000
,
00002000
00000000
00000000
00003000
,
00010000
00010000
00000000
00000000
,
00001000
00100000
00010000
00000000
,
10000000
10000000
00000000
00000000
,
01000000
00010000
00001000
00010000
,
00000100
00000100
00000000
00000000
,
00000010
00000010
00000000
00000000
,
00000001
00000000
00001000
00000000
,
00000001
00000010
00000100
00001000
,
00000002
00000000
00000103
00001000
,
00010000
00000000
00100000
00100000
,
20000000
00000000
31000000
00010000
,
00001000
00000000
00000010
00000010
,
00000001
00000100
00001000
00000000
,
00010000
01000000
10000000
00000000
,
00100000
00100000
01000000
00100000
,
02200000
00000000
00000000
03300000
,
10000000
00000000
00000000
01000000
00000000
01000000
00000000
01000000
,
00000000
00000000
00010000
00001000
,
00000010
00000000
00000000
00000001
00000000
00000001
00000000
00000001
,
00000000
00000000
00000100
00001000
,
00010000
00000000
00000000
00100000
00000000
00100000
00000000
00100000
,
00000000
00000000
10000000
01000000
,
00010000
00000000
00001000
00000000
,
00011000
00000000
00010000
00001000
,
00000100
00000001
00000100
00000100
,
00001000
00000000
00010000
00010000
,
01000000
10000000
01000000
01000000
,
00010000
00000000
00001000
00001000
,
00000010
00000001
00000010
00000010
,
00001000
00000000
00010000
00010000
,
00200000
00000000
02000000
03300000
,
20020000
00000000
00000000
00000000
,
30030000
00000000
00000000
00000000
,
00000000
00000000
00000000
00000000
,
00000000
00000000
00000000
00000000
,
00000000
00000000
00000000
00000000
,
00000000
00000000
00000000
00000000
,
00000000
00000000
00000000
00000000
,
00000000
00000000
00000000
00000000
,
00000000
00000000
00000000
00000000
,
00010000
00000000
10000000
00000000
,
00010000
00100000
00010000
00000000
,
00001000
00000000
00000001
00000000
,
00001000
00000010
00001000
00000000
,
00010000
01000000
00010000
00000000
,
10000000
01000000
10000000
00000000
,
00010000
01000000
00001000
00010000
,
00000020
00000000
00000000
00000030
,
00001000
00000010
00001000
00000001
,
00001000
00000100
00001000
00000000
,
00010000
00100000
00010000
10000000
,
00010000
01000000
00010000
00000000
,
00100000
00010000
01000000
00100000
,
00010000
00001000
00000100
00000000
,
00000010
00001000
00000100
00000010
,
00001000
00010000
01000000
00000000
,
10000000
00000000
00010000
01000000
,
00001000
00010000
00000010
00001000
,
00000001
00000000
00001000
00000100
,
00010000
00001000
00100000
00010000
,
10000000
01000000
10000000
01000000
,
00010000
00001000
00010000
00001000
,
00000200
00000000
00000302
00000000
,
00000013
00000100
00000110
00000000
,
00000002
00000000
00000103
00001000
,
00010000
00000000
00100000
00100000
,
20000000
00000000
31000000
00010000
,
00001000
00000000
00000010
00000010
,
00000002
00000000
00000013
00001000
,
00010000
00000000
01000000
01000000
,
20000000
00000000
30100000
00010000
,
00001000
00000000
00000100
00000100
,
00000001
00000000
00000000
00000000
;
