#TITLE:Sunshine Dance (Latino YOKAN-Mix);
#ARTIST:Togo Project feat. Megu & Scotty D.;
#BANNER:Sunshine Dance (Latino YOKAN-Mix).png;
#BACKGROUND:Sunshine Dance (Latino YOKAN-Mix)-bg.png;
#MUSIC:Sunshine Dance (Latino YOKAN-Mix).ogg;
#OFFSET:-0.393846;
#SAMPLESTART:61.317;
#SAMPLELENGTH:15;
#BPMS:0=130,36=65,40=130,48=65,52=130;
#BGCHANGES:-0.75=Sunshine Dance (Latino YOKAN-Mix).avi=1=0=0=0=StretchNoLoop====,99999=-nosongbg-=1=0=0=0 // don't automatically add -songbackground-;

//---------------dance-single - NewbStepper-ESP----------------
#NOTES:
     dance-single:
     NewbStepper:
     Hard:
     13:
     0.559207,0.594089,0.353762,0.153809,0.695988,509,463,46,20,0,0,0.559207,0.594089,0.353762,0.153809,0.695988,509,463,46,20,0,0:
0000
0000
0000
0000
,
1000
0010
0000
0000
0001
0010
0000
0100
0000
0100
0000
0000
0001
0000
1000
0000
,
0010
0100
0000
0000
0001
0100
0000
0010
0000
0010
0000
0000
1000
0000
0100
0000
,
0001
0100
0000
0000
1000
0100
0000
0010
0000
0010
0000
0000
0001
0000
0100
0000
,
0001
1000
0000
0000
0001
1000
0000
0000
0001
0100
0001
0100
0010
2000
0000
3000
,
0001
0010
0000
0000
1000
0010
0000
0100
0000
0100
0000
0000
1000
0000
0001
0000
,
0010
0100
0000
0000
1000
0100
0000
0010
0000
0010
0000
0000
0001
0000
0100
0000
,
1000
0100
0000
0000
0001
0100
0000
0010
0000
0010
0000
0000
1000
0000
0100
0000
,
0010
0000
0000
0000
0001
0000
0000
0000
1000
0000
0000
0000
0010
0000
0000
0000
1000
0000
0000
0000
0000
0000
0000
0000
0001
0000
0000
0100
0000
0000
0010
0000
0000
1000
0000
0000
0000
0000
0000
0001
0000
0000
0000
0000
0000
0010
0000
0000
,
0001
0100
0010
1000
,
0001
0000
0010
0001
0000
1000
0000
0100
0000
0100
0000
0000
1000
0000
0001
0000
,
1000
0000
0010
1000
0000
0001
0000
0100
0000
0100
0000
0010
0100
0000
0001
0000
,
1000
0100
0010
0001
,
1000
0000
0010
1000
0000
0001
0000
0100
0000
0100
0000
0000
0001
0000
1000
0000
,
0001
0010
0100
1000
2002
0000
3003
0000
,
0001
0000
0000
0001
0010
0000
0000
0000
1000
0000
0000
1000
0010
0000
0000
0000
,
0001
0100
1000
0000
0001
0010
1000
0000
,
0100
0000
0000
0100
1000
0000
0000
1000
0010
0000
0000
0010
0100
0000
0000
0100
,
0001
0000
0010
0000
0100
1000
0000
0010
0000
0000
1001
0000
0010
0000
0100
0000
,
1000
0000
0000
1000
0010
0000
0000
0000
0001
0000
0000
0001
0010
0000
0000
0000
,
1000
0100
0001
0100
1000
0010
0001
0010
,
1000
0000
0000
1000
0100
0000
0010
0000
0001
0000
0000
0001
0100
0000
0010
0000
,
1000
0000
0000
1000
0001
0000
0000
0000
0010
0000
0001
1000
0001
0000
0100
0000
,
0001
0000
0000
0001
0100
0000
0010
0000
1000
0000
0000
1000
0100
0000
0010
0000
,
0001
0000
0000
0001
0010
0000
1000
0000
0010
0000
0000
0010
0001
0000
0100
0000
,
0010
0000
0000
0010
1000
0000
0000
0000
0010
0000
0000
0010
0001
0000
0000
0000
,
0010
1000
0000
0010
0100
0000
0001
0100
0000
0000
0001
0000
0010
0000
0100
0000
,
2002
0000
0000
0000
3003
0000
0000
0000
1100
0000
0000
0110
0000
0000
0011
0000
,
2002
3003
0220
0330
,
0101
1100
1010
0011
,
0001
0000
0010
0001
0010
0001
0000
1000
0010
0100
0000
0001
1000
0100
0010
0001
,
1000
0000
0000
0010
1000
0100
0000
0010
0000
0000
0001
0100
0010
0000
1000
0000
,
0010
1000
0000
0000
0001
0010
0000
0110
0000
0000
2002
0000
3003
0000
0100
0000
,
0010
0000
0000
1000
0001
0010
0000
0001
0000
0000
1000
0000
0100
0000
0001
0000
,
0101
1100
0110
1001
,
0001
0000
0000
0010
0001
0100
0000
0010
0000
0000
1000
0100
0010
0000
0001
0000
,
0010
0001
0000
0000
1000
0010
0000
0110
0000
0000
2002
0000
3003
0000
0010
0000
,
0100
0000
0000
0001
1000
0010
0000
1000
0000
0000
0001
0000
0100
0000
1000
0000
,
1100
0101
0110
1001
,
0220
0000
0000
0330
,
0001
0100
0010
0100
0000
0000
0000
0000
0000
1001
0000
0000
,
1000
0000
0100
0000
1000
0000
0001
0000
0100
0000
0001
0000
1000
0000
0000
0001
0000
0000
0000
0000
0000
0000
0000
0000
,
0000
0100
1000
0100
0000
0000
0000
0100
0001
0100
0000
0000
,
1001
0000
0100
0000
1000
0100
0010
0001
0000
0001
0100
0010
1000
0000
1010
0000
,
0000
0000
0100
0000
0001
0100
0010
1000
0000
1000
0100
0010
0001
0000
0011
0000
,
0000
0000
0100
1000
0100
0000
1000
0010
0000
0100
0001
0100
0001
0000
0011
0000
,
0000
0000
0100
0000
1000
0000
0100
0000
0010
0000
0001
1000
0001
0100
0010
1000
,
0001
0000
0000
0010
0001
0100
0000
0010
0000
0000
1000
0100
0010
0000
0001
0000
,
0010
0001
0000
0000
1000
0010
0000
0110
0000
0000
2002
0000
3003
0000
0100
0000
,
0010
0000
0000
0001
1000
0010
0000
1000
0000
0000
0001
0000
0100
0000
1000
0000
,
1100
0101
0110
1001
,
1000
0000
0000
0010
1000
0100
0000
0010
0000
0000
0001
0100
0010
0000
1000
0000
,
0010
1000
0000
0000
0001
0010
0000
0110
0000
0000
2002
0000
3003
0000
0010
0000
,
0100
0000
0000
1000
0001
0010
0000
0001
0000
0000
1000
0000
0100
0000
0001
0000
,
0101
1100
0110
1001
,
0001
0010
0000
0000
1000
0010
0000
0100
0000
0100
0000
0000
1000
0000
0001
0000
,
0010
0100
0000
0000
1000
0100
0000
0010
0000
0010
0000
0000
0001
0000
0100
0000
,
1000
0100
0000
0000
0001
0100
0000
0010
0000
0010
0000
0000
1000
0000
0100
0000
,
1000
0001
0000
0000
1000
0001
0000
0000
1000
0100
1000
0100
0010
0002
0000
0003
,
1000
0010
0000
0000
0001
0010
0000
0100
0000
0100
0000
0000
0001
0000
1000
0000
,
0010
0100
0000
0000
0001
0100
0000
0010
0000
0010
0000
0000
1000
0000
0100
0000
,
0001
0100
0000
0000
1000
0100
0000
0010
0000
0010
0000
0000
0001
0000
0100
0000
,
0001
1000
0000
0000
0001
1000
0000
0000
0010
0100
0001
1000
0000
0100
0000
1001
,
0000
0000
0000
0000
,
0101
0000
0000
1100
0000
0000
1001
0000
0000
0000
0000
0000
0000
0000
0000
0000
;

//---------------dance-single - NewbStepper-DSP----------------
#NOTES:
     dance-single:
     NewbStepper:
     Medium:
     8:
     0.374636,0.420813,0.338381,0.138429,0.049988,341,297,44,18,0,0,0.374636,0.420813,0.338381,0.138429,0.049988,341,297,44,18,0,0:
0000
0000
0000
0000
,
0001
0000
0110
0000
0100
0001
1000
0100
,
1000
0000
0110
0000
0100
1000
0001
0100
,
0001
0000
0110
0000
0001
0100
1000
0100
,
0110
0000
1001
0000
1000
0100
0010
0001
,
1000
0000
0110
0000
0100
0001
1000
0100
,
1000
0000
0110
0000
0100
0001
1000
0100
,
1000
0000
0110
0000
1000
0100
0001
0100
,
0110
0000
1001
0000
0010
0100
0010
0000
,
1000
0100
0010
0001
,
1000
0100
1000
0000
0001
0100
0001
0000
,
0010
0000
0100
0000
1000
0001
1000
0000
,
0001
0100
0010
1000
,
0001
0000
0101
0000
0010
1000
0100
0010
,
0002
0000
0100
0000
0010
0010
0013
0000
,
1001
0100
1001
0010
,
0100
0001
0010
0000
0100
1000
0010
0000
,
1000
0000
1100
0000
0010
0001
0100
0010
,
2000
0000
0100
0000
0010
0010
3010
0000
,
1001
0100
1001
0010
,
0100
1000
0010
0000
0100
0001
0010
0000
,
0001
0100
1010
0000
,
1000
0100
0011
0000
,
1000
0001
0110
0000
,
0001
1000
0110
0000
,
1010
0011
0101
1100
,
1000
0010
0100
0001
1000
0100
0010
0000
,
0102
0000
0203
0000
,
2300
0000
3020
0000
,
0031
0001
1000
1000
,
0010
0100
0010
0100
0010
0000
0110
0000
,
1000
0000
0000
0000
0001
0000
0000
0100
0000
0000
0010
0000
1000
0000
0010
0000
,
0100
0000
0000
0000
0001
0000
0000
2002
0000
0000
0000
0000
3003
0000
0000
0000
,
0010
0000
0000
0000
1000
0000
0000
0001
0000
0000
1000
0000
0100
0000
0010
0000
,
0001
0100
1000
0010
,
0001
0000
0000
0000
1000
0000
0000
0100
0000
0000
0010
0000
0001
0000
0010
0000
,
0100
0000
0000
0000
1000
0000
0000
2002
0000
0000
0000
0000
3003
0000
0000
0000
,
0010
0000
0000
0000
0001
0000
0000
1000
0000
0000
0001
0000
0100
0000
0010
0000
,
1000
0100
0001
0010
,
2000
0000
0000
0000
,
0002
0000
0000
3003
,
0210
0000
0000
0000
,
0020
0000
0000
0330
,
1000
0000
0001
0000
0100
0010
0100
0000
,
0001
0000
1000
0000
0100
0010
0100
0000
,
1000
0000
0001
0000
1000
0100
0001
0000
,
1000
0000
0001
0000
1000
0010
0001
0000
,
1000
0000
0000
0000
0001
0000
0000
0010
0000
0000
0100
0000
1000
0000
0100
0000
,
0010
0000
0000
0000
0001
0000
0000
2002
0000
0000
0000
0000
3003
0000
0000
0000
,
0100
0000
0000
0000
1000
0000
0000
0001
0000
0000
1000
0000
0010
0000
0100
0000
,
0001
0010
1000
0100
,
0001
0000
0000
0000
1000
0000
0000
0010
0000
0000
0100
0000
0001
0000
0100
0000
,
0010
0000
0000
0000
1000
0000
0000
2002
0000
0000
0000
0000
3003
0000
0000
0000
,
0100
0000
0000
0000
0001
0000
0000
1000
0000
0000
0001
0000
0010
0000
0100
0000
,
1000
0010
0001
0100
,
1000
0000
0110
0000
0100
1000
0001
0100
,
0001
0000
0110
0000
0100
0001
1000
0100
,
1000
0000
0110
0000
0001
0100
1000
0100
,
0110
0000
1001
0000
0001
0100
0010
1000
,
0001
0000
0110
0000
0100
1000
0001
0100
,
0001
0000
0110
0000
0100
1000
0001
0100
,
0001
0000
0110
0000
0001
0100
1000
0100
,
0110
0000
1001
0000
0010
0100
0010
0100
,
0001
0000
0000
0000
,
1001
0000
0000
1001
0000
0000
1001
0000
0000
0000
0000
0000
0000
0000
0000
0000
;

//---------------dance-single - NewbStepper-BSP----------------
#NOTES:
     dance-single:
     NewbStepper:
     Easy:
     5:
     0.219728,0.248018,0.053833,0.038452,0,200,193,7,5,0,0,0.219728,0.248018,0.053833,0.038452,0,200,193,7,5,0,0:
0000
0000
0000
0000
,
0010
1000
0100
0000
,
0010
0001
0100
0000
,
0010
1000
0001
1000
,
0010
0100
0001
0000
,
0010
0001
0100
0000
,
0010
1000
0100
0000
,
0010
0001
1000
0001
,
0010
0100
1000
0010
,
0100
0100
0100
0100
,
0001
1000
0001
0000
,
1000
0001
1000
0000
,
0100
0100
0100
0100
,
1000
0010
0100
0001
,
1000
0100
0010
0001
,
0010
0000
0010
0000
,
0010
0000
0010
0000
,
0001
1000
0001
0000
,
1000
0001
1000
0000
,
0010
0000
0010
0000
,
0010
0000
0010
0000
,
1000
0100
0010
0000
,
0001
0000
1000
0010
,
0001
0100
2000
3000
,
0002
0003
0100
0010
,
0110
0000
1001
0000
,
1000
0100
0010
0001
,
0011
0000
1100
0000
,
0110
0000
1001
0000
,
0001
1000
0001
1000
,
0010
0100
0010
0100
,
0001
0001
0001
0000
,
1000
1000
1000
0000
,
0010
0010
0010
0000
,
0100
0001
0100
0010
,
1000
1000
1000
0000
,
0001
0001
0001
0000
,
0010
0010
0010
0000
,
0100
1000
0100
0010
,
0002
0000
0000
0000
,
0000
0000
0000
0003
,
1000
0000
0000
0000
,
0001
0000
0000
0000
,
1000
0100
0001
0100
,
1000
0010
0001
0010
,
1000
0100
0010
0001
,
1000
0010
0100
0001
,
1000
1000
1000
0000
,
0001
0001
0001
0000
,
0010
0010
0010
0000
,
0100
1000
0100
0010
,
0001
0001
0001
0000
,
1000
1000
1000
0000
,
0010
0010
0010
0000
,
0100
0001
1000
0100
,
0010
0001
0100
0000
,
0010
1000
0100
0000
,
0010
0001
1000
0001
,
0010
0100
1000
0000
,
0010
1000
0100
0000
,
0010
0001
0100
0000
,
0010
1000
0001
1000
,
0010
0100
0001
0010
,
0100
0000
0000
0000
,
2002
0000
3003
0000
;

//---------------dance-single - NewbStepper-bSP----------------
#NOTES:
     dance-single:
     NewbStepper:
     Beginner:
     1:
     0.084595,0.148811,0.007690,0.069214,0,77,76,1,9,0,0,0.084595,0.148811,0.007690,0.069214,0,77,76,1,9,0,0:
0000
0000
0000
0000
,
1000
0000
0000
0000
,
0001
0000
0000
0000
,
1000
0000
0000
0000
,
0000
0000
0000
0000
,
0001
0000
0000
0000
,
1000
0000
0000
0000
,
0001
0000
0000
0000
,
0000
0000
0000
0000
,
1000
0000
0000
0000
,
0002
0000
0003
0000
,
2000
0000
3000
0000
,
0001
0000
0000
0000
,
2000
0000
3000
0000
,
0002
0000
0003
0000
,
0100
0000
0100
0000
,
0010
0000
0010
0000
,
1000
0000
1000
0000
,
0001
0000
0001
0000
,
0100
0000
0100
0000
,
0010
0000
0010
0000
,
1000
1000
1000
0000
,
0000
0000
0000
0000
,
0001
0001
0001
0000
,
0000
0000
0000
0000
,
0100
0000
0100
0000
,
0010
0000
0010
0000
,
1000
0000
0001
0000
,
1000
0000
0000
0000
,
0001
0000
1000
0000
,
0002
0000
0003
0000
,
1000
0000
0000
0000
,
0010
0000
0000
0000
,
0100
0000
0000
0000
,
0001
0000
0000
0000
,
1000
0000
0000
0000
,
0100
0000
0000
0000
,
0010
0000
0000
0000
,
0001
0000
1000
0000
,
0002
0000
0000
0000
,
0000
0000
0003
0000
,
2000
0000
0000
0000
,
0000
0000
3000
0000
,
0001
0000
0001
0000
,
1000
0000
1000
0000
,
0010
0000
0010
0000
,
0100
0000
0100
0000
,
0001
0000
0000
0000
,
0010
0000
0000
0000
,
0100
0000
0000
0000
,
1000
0000
0000
0000
,
0001
0000
0000
0000
,
0100
0000
0000
0000
,
0010
0000
0000
0000
,
1000
0000
0001
0000
,
1000
0000
0000
0000
,
0001
0000
0000
0000
,
1000
0000
0000
0000
,
0000
0000
0000
0000
,
0001
0000
0000
0000
,
1000
0000
0000
0000
,
0001
0000
0000
0000
,
0000
0000
0000
0000
,
1000
0000
0000
0000
,
2002
0000
3003
0000
;

//---------------dance-double - NewbStepper-EDP----------------
#NOTES:
     dance-double:
     NewbStepper:
     Hard:
     13:
     0.520755,0.544582,0.107667,0.061524,0.534488,474,460,14,8,0,0,0.520755,0.544582,0.107667,0.061524,0.534488,474,460,14,8,0,0:
// measure 0
00000000
00000000
00000000
00000000
,  // measure 1
00010000
00000000
10000000
00000000
01000000
00000000
00000000
00100000
00000000
00100000
00000000
00000000
01000000
00000000
00010000
00000000
,  // measure 2
00001000
00000000
00000010
00000000
00000100
00000000
00000000
00000010
00000000
00000010
00000000
00000000
00000100
00000000
00001000
00000000
,  // measure 3
00010000
00000000
00100000
00000000
00001000
00000000
00000000
01000000
00000000
00010000
00000000
00000000
00100000
00000000
10000000
00000000
,  // measure 4
00100000
00010000
00000000
00000000
01000000
00010000
00000000
00000000
00100000
00000000
00010000
00000000
00000010
00000200
00000000
00000300
,  // measure 5
00001000
00000010
00000000
00000000
00000100
00000001
00000000
00000010
00000000
00000010
00000000
00000000
00000100
00000000
00001000
00000000
,  // measure 6
00010000
00100000
00000000
00000000
01000000
10000000
00000000
00100000
00000000
00100000
00000000
00000000
01000000
00000000
00010000
00000000
,  // measure 7
00001000
00000010
00000000
00000000
00010000
00001000
00000000
00000100
00000000
00000100
00000000
00000000
00000010
00000000
00000001
00000000
,  // measure 8
00000010
00001000
00000000
00000000
00000100
00001000
00000000
00000000
00000010
00010000
00001000
00100000
00000000
00010000
00000000
10000000
,  // measure 9
01000000
00010000
00001000
00000100
,  // measure 10
00000001
00000010
00001000
00000010
00000001
00000100
00001000
00000000
,  // measure 11
00010000
01000000
10000000
00100000
00010000
00100000
10000000
00000000
,  // measure 12
00100000
00010000
00001000
00000010
,  // measure 13
00000001
00000100
00001000
00000100
00000001
00000010
00001000
00000000
,  // measure 14
00010000
00100000
10000000
01000000
00010000
01000000
10000000
00000000
,  // measure 15
00010000
00100000
10000000
00000000
00100000
00001000
00010000
00000000
,  // measure 16
01000000
00010000
00001000
00000000
00000010
00001000
00000010
00000001
,  // measure 17
00000100
00001000
00010000
01000000
10000000
00100000
10000000
00000000
,  // measure 18
00010000
00100000
01000000
00010000
00001000
00000100
00000001
00000000
,  // measure 19
00001000
00000010
00000001
00000000
00000010
00010000
00001000
00000000
,  // measure 20
00000100
00001000
00010000
00000000
00100000
00010000
00100000
10000000
,  // measure 21
01000000
00000000
00000000
00010000
00000000
00000000
00001000
00000000
00000100
00000000
00000001
00000000
00001000
00000000
00000100
00000000
,  // measure 22
00000010
00001000
00010000
00000000
00000010
00001000
00000001
00000010
,  // measure 23
00001000
00000000
00000000
00001000
00010000
00000000
00000000
00010000
00100000
00000000
00000000
00100000
10000000
00000000
00000000
10000000
,  // measure 24
00010000
00000000
00000000
00010000
01000000
00000000
00000000
01000000
00100000
00000000
00000000
00100000
00010000
00000000
00000000
00010000
,  // measure 25
00001000
00000000
00000000
00001000
00000010
00000000
00000000
00000010
00000100
00000000
00000000
00000100
00010000
00000000
00000000
00010000
,  // measure 26
01000000
00000000
00000000
01000000
00100000
00000000
00000000
00100000
00001000
00000000
00000000
00001000
00000010
00000000
00000000
00000010
,  // measure 27
00000100
00000000
00000000
00000100
00010000
00000000
00000000
00010000
01000000
00000000
00000000
00100000
00000000
00000000
00001000
00000000
,  // measure 28
00022000
00033000
02200000
03300000
,  // measure 29
10010000
00011000
00001001
00011000
,  // measure 30
10000000
00000000
01000000
00000000
00010000
00000000
00001000
00000000
00000010
00000000
00000001
00000000
00001000
00000100
00001000
00000100
,  // measure 31
00000010
00000001
00000000
00000000
00000001
00000100
00000000
00000010
00001000
00000000
00000100
00000000
00010000
00000000
00001000
00100000
,  // measure 32
00010000
00100000
00000000
00000000
00010000
01000000
00000000
00100000
10000000
00000000
00010000
00000000
10000000
00000000
00000000
00000000
,  // measure 33
01000000
10000000
00000000
00000000
10000000
00100000
00000000
01000000
00010000
00000000
00001000
00000000
00000010
00000000
00001000
00000000
,  // measure 34
00000001
00001000
00000000
00000000
00001000
00010000
00000000
00000000
00010000
10000000
00000000
00000000
10010000
00000000
00000000
00000000
,  // measure 35
00100000
10000000
00000000
00000000
10000000
01000000
00000000
00100000
00010000
00000000
01000000
00000000
00001000
00000000
00010000
00000010
,  // measure 36
00001000
00000010
00000000
00000000
00001000
00000100
00000000
00000010
00000001
00000000
00001000
00000000
00000001
00000000
00000000
00000000
,  // measure 37
00000100
00000001
00000000
00000000
00000001
00000010
00000000
00000100
00001000
00000000
00010000
00000000
00100000
00000000
00010000
00000000
,  // measure 38
10000000
00010000
00000000
00000000
00010000
00001000
00000000
00000000
00001000
00000001
00000000
00000000
00001001
00000000
00000000
00000000
,  // measure 39
00000220
00000000
00000000
00000330
,  // measure 40
00000001
00000100
00000010
00001000
00000000
00000000
00000000
00000000
00000000
00000000
00000000
00000000
,  // measure 41
00010000
00000000
01000000
00000000
00010000
00000000
10000000
00000000
01000000
00000000
10000000
00000000
00010000
00000000
00000000
10000000
00000000
00000000
00000000
00000000
00000000
00000000
00000000
00000000
,  // measure 42
10000000
01000000
00010000
00001000
00000000
00000000
00010000
00001000
00000100
00000001
00000000
00000000
,  // measure 43
00000010
00000001
00000100
00001000
00000001
00000010
00001000
00000100
,  // measure 44
00000000
00010000
00001000
00000010
00000100
00010000
00100000
10000000
,  // measure 45
00000000
00010000
00100000
10000000
00010000
01000000
10000000
00100000
,  // measure 46
00000000
00010000
00001000
00000010
00000001
00000100
00001000
00010000
,  // measure 47
00100000
10000000
00000000
00000000
10000000
01000000
00000000
00100000
00010000
00000000
01000000
00000000
00001000
00000000
00010000
00000010
,  // measure 48
00001000
00000010
00000000
00000000
00001000
00000100
00000000
00000010
00000001
00000000
00001000
00000000
00000001
00000000
00000000
00000000
,  // measure 49
00000100
00000001
00000000
00000000
00000001
00000010
00000000
00000100
00001000
00000000
00010000
00000000
00100000
00000000
00010000
00000000
,  // measure 50
10000000
00010000
00000000
00000000
00010000
00001000
00000000
00000000
00001000
00000001
00000000
00000000
00001001
00000000
00000000
00000000
,  // measure 51
00000010
00000001
00000000
00000000
00000001
00000100
00000000
00000010
00001000
00000000
00000100
00000000
00010000
00000000
00001000
00100000
,  // measure 52
00010000
00100000
00000000
00000000
00010000
01000000
00000000
00100000
10000000
00000000
00010000
00000000
10000000
00000000
00000000
00000000
,  // measure 53
01000000
10000000
00000000
00000000
10000000
00100000
00000000
01000000
00010000
00000000
00001000
00000000
00000010
00000000
00001000
00000000
,  // measure 54
00000001
00001000
00000000
00000000
00001000
00010000
00000000
00000000
00010000
10000000
00000000
00000000
10010000
00000000
00000000
00000000
,  // measure 55
00010000
00000000
10000000
00000000
01000000
00000000
00000000
00100000
00000000
00100000
00000000
00000000
01000000
00000000
00010000
00000000
,  // measure 56
00001000
00000000
00000010
00000000
00000100
00000000
00000000
00000010
00000000
00000010
00000000
00000000
00000100
00000000
00001000
00000000
,  // measure 57
00010000
00000000
00100000
00000000
00001000
00000000
00000000
01000000
00000000
00010000
00000000
00000000
00100000
00000000
10000000
00000000
,  // measure 58
00100000
00010000
00000000
00000000
01000000
00010000
00000000
00000000
00100000
00000000
00010000
00000000
00000010
00000200
00000000
00000300
,  // measure 59
00001000
00000010
00000000
00000000
00000100
00000001
00000000
00000010
00000000
00000010
00000000
00000000
00000100
00000000
00001000
00000000
,  // measure 60
00010000
00100000
00000000
00000000
01000000
10000000
00000000
00100000
00000000
00100000
00000000
00000000
01000000
00000000
00010000
00000000
,  // measure 61
00001000
00000010
00000000
00000000
00010000
00001000
00000000
00000100
00000000
00000100
00000000
00000000
00000010
00000000
00000001
00000000
,  // measure 62
00000010
00001000
00000000
00000000
00000100
00001000
00000000
00000000
00000010
00010000
00001000
00100000
00000000
00010000
00000000
10000000
,  // measure 63
00000000
00000000
00000000
00000000
,  // measure 64
11000000
00000000
00000000
01010000
00000000
00000000
10010000
00000000
00000000
00000000
00000000
00000000
00000000
00000000
00000000
00000000
;

//---------------dance-double - NewbStepper-DDP----------------
#NOTES:
     dance-double:
     NewbStepper:
     Medium:
     9:
     0.360354,0.420813,0.253786,0.092286,0.049988,328,295,33,12,0,0,0.360354,0.420813,0.253786,0.092286,0.049988,328,295,33,12,0,0:
00000000
00000000
00000000
00000000
,
01000000
00000000
01100000
00000000
10000000
01000000
00010000
00001000
,
00000100
00000000
00000110
00000000
00000001
00000100
00001000
00010000
,
01000000
00000000
01100000
00000000
10000000
00100000
00010000
00100000
,
01000000
00000000
01100000
00000000
00010000
00001000
00000010
00000000
,
00000100
00000000
00000110
00000000
00000001
00000100
00001000
00010000
,
01000000
00000000
01100000
00000000
10000000
01000000
00010000
00001000
,
00000100
00000000
00000110
00000000
00000001
00000010
00001000
00000010
,
00000100
00000110
00001000
00010000
,
00100000
10000000
01000000
00010000
,
00001000
00000100
00000001
00001000
,
00000100
00000010
00000100
00010000
00001000
00000000
00011000
00000000
,
00000010
00000001
00000100
00001000
,
00010000
01000000
10000000
00100000
,
00010000
00001000
00000010
00001000
00010000
00000000
00011000
00000000
,
00100000
10000000
00000000
10000000
01000000
00010000
00000000
00010000
,
00001000
00000100
00000010
00000000
00001000
00000001
00000010
00000000
,
00000001
00000000
00001100
00000000
00000010
00001000
00010000
00000000
,
01000000
00000000
10100000
00000000
10000000
01000000
00010000
00001000
,
00000010
00000001
00000000
00000001
00000100
00001000
00000000
00001000
,
00010000
01000000
00100000
00000000
00010000
10000000
00100000
00000000
,
00010000
00001000
00000110
00000000
,
00001000
00010000
01100000
00000000
,
00011000
01000000
10000000
00000000
,
00100000
00010000
00011000
00000000
,
00001010
00000011
00000101
00001100
,
00010000
00000010
00001000
00000001
00000010
00000100
00000010
00000000
,
00002100
00000000
00003002
00000000
,
00000023
00000000
00002030
00000000
,
00013000
00010000
00100000
00100000
,
10000000
01000000
10000000
01000000
00010000
00001000
00010000
00000000
,
00000010
00000000
00000000
00000000
00001000
00000000
00000000
00000100
00000000
00000000
00000001
00000000
00000100
00000000
00001000
00000000
,
00000010
00000000
00000000
00000000
00010000
00000000
00000000
00002000
00000000
00000000
00000000
00000000
00003000
00000000
00000000
00000000
,
01000000
00000000
00000000
00000000
00010000
00000000
00000000
00100000
00000000
00000000
10000000
00000000
00100000
00000000
00010000
00000000
,
01000000
00001000
00000100
00010000
,
00100000
00000000
00000000
00000000
00010000
00000000
00000000
01000000
00000000
00000000
10000000
00000000
01000000
00000000
00010000
00000000
,
00100000
00000000
00000000
00000000
00001000
00000000
00000000
00020000
00000000
00000000
00000000
00000000
00030000
00000000
00000000
00000000
,
00000100
00000000
00000000
00000000
00001000
00000000
00000000
00000010
00000000
00000000
00000001
00000000
00000010
00000000
00001000
00000000
,
00000100
00010000
00100000
00001000
,
00000020
00000000
00000000
00000000
,
00000200
00000000
00000000
00000330
,
00021000
00000000
00000000
00000000
,
00002000
00000000
00000000
00033000
,
00100000
00000000
10000000
00000000
01000000
00010000
00001000
00000000
,
00000010
00000000
00000001
00000000
00000100
00001000
00010000
00000000
,
01000000
00000000
00010000
00000000
00001000
00100000
00010000
00000000
,
00000100
00000000
00001000
00000000
00010000
00000010
00000100
00000000
,
00000010
00000000
00000000
00000000
00001000
00000000
00000000
00000100
00000000
00000000
00000001
00000000
00000100
00000000
00001000
00000000
,
00000010
00000000
00000000
00000000
00010000
00000000
00000000
00002000
00000000
00000000
00000000
00000000
00003000
00000000
00000000
00000000
,
01000000
00000000
00000000
00000000
00010000
00000000
00000000
00100000
00000000
00000000
10000000
00000000
00100000
00000000
00010000
00000000
,
01000000
00001000
00000100
00010000
,
00100000
00000000
00000000
00000000
00010000
00000000
00000000
01000000
00000000
00000000
10000000
00000000
01000000
00000000
00010000
00000000
,
00100000
00000000
00000000
00000000
00001000
00000000
00000000
00020000
00000000
00000000
00000000
00000000
00030000
00000000
00000000
00000000
,
00000100
00000000
00000000
00000000
00001000
00000000
00000000
00000010
00000000
00000000
00000001
00000000
00000010
00000000
00001000
00000000
,
00000100
00010000
01000000
00001000
,
00000100
00000000
00000110
00000000
00000001
00000100
00001000
00010000
,
01000000
00000000
01100000
00000000
10000000
01000000
00010000
00001000
,
00000100
00000000
00000110
00000000
00000001
00000010
00001000
00000010
,
00000100
00000000
00000110
00000000
00001000
00010000
00100000
00000000
,
01000000
00000000
01100000
00000000
10000000
01000000
00010000
00001000
,
00000100
00000000
00000110
00000000
00000001
00000100
00001000
00010000
,
01000000
00000000
01100000
00000000
10000000
00100000
00010000
00100000
,
01000000
01100000
00010000
00001000
,
00000010
00000000
00000000
00000000
,
00001001
00000000
00000000
00001001
00000000
00000000
00001001
00000000
00000000
00000000
00000000
00000000
00000000
00000000
00000000
00000000
;

//---------------dance-double - NewbStepper-BDP----------------
#NOTES:
     dance-double:
     NewbStepper:
     Easy:
     5:
     0.225221,0.248018,0.053833,0.038452,0,205,198,7,5,0,0,0.225221,0.248018,0.053833,0.038452,0,205,198,7,5,0,0:
00000000
00000000
00000000
00000000
,
10000000
01000000
00010000
00000000
,
00001000
00000100
00000001
00000000
,
00000010
00000001
00001000
00000001
,
00000010
00000100
00001000
00000000
,
00000001
00000100
00001000
00000000
,
00010000
01000000
10000000
00000000
,
00100000
10000000
00010000
10000000
,
00100000
01000000
00010000
00100000
,
00001000
00010000
00001000
00010000
,
00001000
00000100
00000001
00000000
,
00000001
00000010
00001000
00000000
,
00010000
00001000
00010000
00001000
,
00010000
01000000
10000000
00000000
,
10000000
00100000
00010000
00000000
,
00001000
00000000
00000010
00000000
,
00010000
00000000
00100000
00000000
,
00001000
00010000
01000000
00000000
,
10000000
00100000
01000000
00001000
,
00010000
00000000
00100000
00000000
,
00001000
00000000
00000010
00000000
,
00010000
00001000
00000100
00000000
,
00000001
00000010
00000100
00010000
,
00001000
00000000
00100000
00001000
,
00010000
01000000
00200000
00300000
,
20000000
30000000
00010000
00001000
,
00011000
00000000
00000110
00000000
,
00000001
00000100
00000010
00001000
,
00001010
00000000
01010000
00000000
,
10100000
00000000
10010000
00000000
,
10000000
00010000
00001000
00000001
,
00000010
00000001
00000100
00001000
,
00010000
00100000
10000000
00000000
,
00100000
10000000
01000000
00010000
,
00001000
00000010
00000001
00000000
,
00001000
00000100
00010000
00000010
,
00010000
00001000
01000000
00000000
,
00010000
01000000
00001000
00010000
,
00100000
10000000
00010000
00100000
,
00002000
00000000
00000000
00000000
,
00000000
00000000
00000000
00003000
,
00000010
00000000
00000000
00000000
,
00000100
00000000
00000000
00000000
,
00010000
00001000
00000100
00001000
,
00000100
00000001
00000100
00000001
,
00000010
00000001
00000010
00001000
,
00000010
00001000
00010000
00100000
,
00100000
10000000
01000000
00010000
,
00001000
00000010
00000001
00000000
,
00000010
00000001
00000100
00001000
,
00010000
00100000
10000000
00000000
,
00010000
01000000
00001000
00100000
,
00001000
00010000
00000100
00000000
,
00001000
00000100
00010000
00001000
,
00000010
00000001
00001000
00000001
,
00000001
00000100
00001000
00000000
,
00010000
01000000
10000000
00000000
,
00100000
10000000
00010000
10000000
,
00100000
01000000
00010000
00000000
,
10000000
01000000
00010000
00000000
,
00001000
00000100
00000001
00000000
,
00000010
00000001
00001000
00000001
,
00000010
00000100
00001000
00000010
,
00010000
00000000
00000000
00000000
,
00022000
00000000
00033000
00000000
;
