#TITLE:Starlight Fantasia(XX-Special);
#ARTIST:TAG;
#BANNER:Starlight Fantasia(XX-Special).png;
#BACKGROUND:Starlight Fantasia(XX-Special)-bg.png;
#MUSIC:Starlight Fantasia(XX-Special).ogg;
#SAMPLESTART:40.541;
#SAMPLELENGTH:15;
#BPMS:0=148;

//---------------dance-single - Nitrospan-CSP----------------
#NOTES:
     dance-single:
     Nitrospan:
     Challenge:
     16:
     :
0000
0000
0000
0000
,
0000
0000
0000
0000
,
0000
0000
0000
0000
,
0000
0000
0000
0000
,
0000
0000
0000
0000
,
0010
0000
0100
0000
0001
0000
0000
0000
1000
0100
0000
0100
0000
0001
0100
0000
,
0010
0000
1000
0000
0100
0000
0010
0000
0001
0100
0000
0100
0000
1000
0100
0000
,
0010
0000
0000
0011
0000
0000
0000
0000
0000
0001
1000
0001
1000
0000
0000
1100
0000
0000
0000
0000
0000
0010
0100
0010
,
0100
0000
0000
0101
0000
0000
1010
0000
0000
1100
0000
0000
0011
0000
1001
0000
,
0100
0000
1000
0010
0000
0010
0001
0000
1000
0100
0000
0100
0010
0000
1000
0000
,
0100
0000
0001
0100
0000
0100
1000
0000
0001
0010
0000
0010
0100
0000
0010
0000
,
0001
0000
1000
0010
0000
0010
0001
0000
0010
1000
0000
1000
0001
0000
0100
0000
,
1000
0000
1000
0100
0000
0100
0001
0000
1000
0100
0000
0010
0001
0000
1000
0000
,
0010
0000
1000
0100
0000
0100
0001
0000
1000
0010
0000
0010
0100
0000
1000
0000
,
0010
0000
0001
0010
0000
0010
1000
0000
0001
0100
0000
0100
0010
0000
0100
0000
,
0001
0000
1000
0100
0000
0100
0001
0000
0100
1000
0000
1000
0001
0000
0010
0000
,
0011
0000
0000
0101
0000
0000
1100
0000
0000
1010
0000
0000
0100
0001
1000
0010
,
0100
0001
1000
0100
0000
0100
0001
1000
0010
1000
0001
0010
0000
0010
1000
0100
,
0010
0001
0100
0010
0000
0010
0001
1000
0010
0100
0000
0001
1000
0000
0100
0000
,
0010
0001
1000
0100
0000
0100
0001
1000
0010
0100
0001
0010
0000
0010
1000
0100
,
0010
0001
1000
0100
0000
0100
0001
0010
0100
1000
0000
0010
0100
0000
0001
0000
,
0011
0000
0000
1100
0000
0000
1001
0000
0000
0100
0000
0000
0010
1000
0100
0000
,
1100
0000
0000
0011
0000
0000
1001
0000
0000
0010
0000
0000
0100
0000
0001
0000
,
1010
0000
0000
0101
0000
0000
1000
0000
0011
0000
0000
1100
0000
0000
0001
0000
,
1010
0000
0000
0011
0000
0000
0101
0000
0000
1100
0000
0000
0110
0000
1001
0000
,
1000
0000
0010
0000
1000
0100
0010
0001
0000
1000
0100
0000
0001
0000
0100
0000
,
0010
0000
0001
0000
1000
0010
0100
0001
0000
1000
0010
0000
0001
0000
0010
0000
,
0100
0000
0001
0000
1000
0001
0100
0010
0000
1000
0100
0000
0001
0000
0100
0000
,
1000
0001
0100
0000
1010
0000
0101
0000
,
0001
0000
0100
0000
0001
0010
0100
1000
0000
0001
0010
0000
1000
0000
0010
0000
,
0100
0000
1000
0000
0001
0100
0010
1000
0000
0001
0100
0000
1000
0000
0100
0000
,
0010
0000
1000
0000
0001
1000
0010
0100
0000
0001
0010
0000
0100
0000
1001
0000
,
0000
0000
1010
0000
1010
0000
0100
0001
0010
0000
0011
0000
0000
0000
0100
1000
,
0001
0100
1000
0100
0110
0000
0010
0001
,
0010
0000
1000
0100
0000
0000
0010
0000
0110
0000
0000
0000
0100
0000
0001
0000
,
0100
1000
0010
0100
0101
0000
1000
0010
,
0001
0000
0010
1000
0000
0000
0100
0000
1100
0000
0000
0010
0000
0000
0001
0010
,
0100
0001
0100
1000
0011
0000
1000
0010
,
0001
0000
0010
1000
0000
0000
0010
0000
0101
0000
0100
0000
0010
0000
1000
0000
,
2020
3030
0202
0303
,
0022
0033
2200
3300
,
0001
0010
0100
1000
0001
1000
0100
0010
0001
0100
0010
1000
0001
1000
0010
0100
,
0001
0010
0100
1000
0010
0100
0001
0100
0010
1000
0100
0010
0001
0100
0010
1000
,
0001
0010
0100
1000
0001
1000
0100
0010
0001
0100
0010
1000
0001
0010
0100
1000
,
0001
0000
0000
0011
0000
0000
1100
0000
0000
1001
0000
0000
0110
0000
0000
0000
,
1000
0000
0010
0100
0000
0000
0001
1000
0010
1000
0100
0010
0001
0010
0100
1000
,
0010
0000
0100
0001
0000
1000
0100
0000
2000
0000
0000
0000
3002
0000
0000
0000
,
0013
0000
0001
0100
0000
0000
0001
0010
0100
1000
0100
0010
0001
0100
0010
1000
,
0100
0000
0010
0001
0000
0100
0001
0000
1000
0000
0010
0100
0000
0010
1000
0000
,
0000
0000
0001
0100
0010
0000
0100
0000
0010
1000
0000
0100
0000
0001
0000
0100
,
0000
0000
1000
0100
0010
0000
0100
0000
0010
0001
0000
0100
0000
1000
0000
0100
,
0010
0000
1000
0100
0000
1000
0100
0000
0010
0000
0001
0100
0000
0001
0100
0000
,
0010
0000
1000
0001
0000
1000
0001
0000
0022
0000
0033
0000
2200
0000
3300
0000
,
0001
0000
0000
0000
0000
0000
0010
0000
0000
0100
0000
0000
0000
0000
0000
0000
0000
0000
1000
0000
0000
0100
0000
0000
0010
0000
0001
0000
0100
0000
0010
0000
1000
0000
0100
0000
0010
0000
0001
0000
1000
0000
0010
0000
0100
0000
0001
0000
,
0000
0000
0101
0000
0010
0001
0000
0011
0000
0000
0110
0000
1100
0000
1100
0000
,
0010
0000
0000
0000
0000
0000
1000
0000
0000
0100
0000
0000
0000
0000
0000
0000
0000
0000
0010
0000
0000
0001
0000
0000
1000
0000
0010
0000
0100
0000
0001
0000
0010
0000
0100
0000
1000
0000
0010
0000
0100
0000
0001
0000
1000
0000
0100
0000
,
0000
0000
1100
0000
0010
1000
0000
1010
0000
0100
0001
0000
0101
0000
0101
0000
,
0000
0000
1000
0010
0100
0000
0010
0000
0100
0001
0000
0010
0000
1000
0000
0010
,
0000
0000
0001
0010
0100
0000
0010
0000
0100
1000
0000
0010
0000
0001
0000
0010
,
0100
0000
0001
0010
0000
0001
0010
0000
0100
0000
1000
0010
0000
1000
0010
0000
,
0100
0000
0001
1000
0000
0001
1000
0000
2200
0000
3300
0000
0022
0000
0033
0000
,
2002
0000
0000
0003
,
0020
3000
0200
0030
,
0002
0000
0000
0300
,
2000
0000
0000
0000
0000
0000
0000
0000
0000
0000
0000
0000
3003
0000
0000
0000
0000
0000
1000
0000
0001
0000
1000
0000
0001
0000
0000
1000
0000
0000
0001
0000
0000
0100
0000
0000
0010
0000
0000
0000
0000
0000
0100
0000
0010
0000
0100
0000
,
0010
0000
1000
0000
0100
0000
1000
0000
0010
0000
1000
0100
0000
0010
0001
0000
,
0100
0000
0001
0000
0010
0000
0001
0000
0100
0000
0001
0010
0000
0100
1000
0000
,
0010
0010
1000
0001
0010
0010
0100
1000
,
0001
0010
0001
1000
0100
1000
0001
0100
0001
1000
0010
1000
0100
0010
0001
0100
,
0020
0000
0000
0030
,
1001
0000
0000
0000
;

//---------------dance-double - 47R-CDP----------------
#NOTES:
     dance-double:
     47R:
     Challenge:
     16:
     :
00000000
00000000
00000000
00000000
,
00000000
00000000
00000000
00000000
,
00000000
00000000
00000000
00000000
,
00000000
00000000
00000000
00000000
,
00000000
00000000
00000000
00000000
,
00000100
00000000
00010000
00000000
00101000
00000000
00000000
00000000
00100000
00010000
00000000
01000000
00000000
00100000
10000000
00010000
,
01000000
00000000
00001000
00000000
00010000
00000000
00000010
00000000
00001000
00000100
00000000
00000010
00000000
00000001
00000100
00000000
,
00001000
00000000
00001100
00000000
00000000
00000000
00000100
00001000
00010000
00000000
01010000
00000000
00000000
00000000
01000000
00010000
,
00001000
00000000
00000000
00001010
00000000
00000000
00000011
00000000
00000000
00001001
00000000
00000000
00000101
00000000
00001010
00000000
,
00001000
00000000
00000100
00010000
00000000
00001000
00010000
00000000
00100000
01000000
00000000
01000000
00010000
00000000
10000000
00000000
,
01000000
00000000
00100000
00010000
00000000
00100000
00001000
00000000
00010000
00000010
00000000
00000010
00001000
00000000
00001000
00000000
,
00000100
00000000
00000010
00000001
00000000
00000010
00000100
00000000
00010000
00001000
00000000
00001000
01000000
00000000
00010000
00000000
,
00100000
00000000
01000000
10000000
00000000
00100000
10000000
00000000
01000000
00010000
00000000
00010000
00001000
00000000
00001000
00000000
,
00000010
00000000
00000100
00001000
00000000
00000010
00001000
00000000
00000001
00000010
00000000
00000010
00000100
00000000
00010000
00000000
,
00001000
00000000
01000000
00010000
00000000
00100000
00010000
00000000
10000000
00100000
00000000
00100000
00010000
00000000
00010000
00000000
,
00001000
00000000
00000010
00000100
00000000
00001000
00000100
00000000
00010000
00001000
00000000
00001000
01000000
00000000
00010000
00000000
,
00110000
00000000
00000000
01001000
00000000
00000000
00010100
00000000
00000000
00000010
00001000
00000010
00000100
00000001
00001000
00000001
,
00000010
00000001
00001000
00000100
00000000
00000100
00000010
00000001
00000100
00000010
00000000
00000010
00010000
00000000
00010000
00000000
,
01000000
10000000
00010000
01000000
00000000
01000000
00100000
10000000
00010000
00100000
00000000
00100000
00001000
00000000
00001000
00000000
,
00010000
00000010
00001000
00000001
00000000
00000001
00000010
00000100
00001000
00000001
00000000
00000001
00000100
00000000
00000100
00000000
,
00001000
00000000
00010000
00100000
00000000
00100000
01000000
00000000
00010000
00100000
01000000
10000000
00010000
00000000
00010000
00000000
,
10010000
00000000
00000000
11000000
00000000
00000000
01100000
00000000
00000000
00000000
00100000
00000000
00001000
00010000
00001000
00010000
,
00000010
00000000
00000000
00000110
00000000
00000000
00000101
00000000
00000000
00000000
00000001
00000000
00000010
00000000
00001000
00000000
,
00011000
00000000
00000000
00010100
00000000
00000000
00010000
00000000
00011000
00000000
00000000
01001000
00000000
00000000
00001000
00000000
,
00011000
00000000
00000000
00010010
00000000
00000000
00011000
00000000
00000000
00101000
00000000
00000000
00010000
00000000
10000000
00010000
,
01000000
00000000
00010000
10000000
00010000
00000000
00100000
00000000
01000000
00100000
01000000
00000000
00010000
00000000
00011000
00000000
,
00000000
00000000
00000100
00000000
00001000
00000100
00001000
00000000
00000010
00000000
00000100
00000000
00000001
00000000
00000010
00000100
,
00001000
00000000
00000010
00000100
00001000
00000000
00010000
00100000
01000000
00000000
00010000
00100000
01000000
00000000
11000000
00000000
,
00000000
00000000
10000000
00000000
10100000
00000000
00000000
00000000
00010000
00100000
00010000
00000000
10000000
01000000
10000000
00000000
,
00100000
00000000
01000000
00010000
01000000
00000000
00001000
00000000
00010000
00000010
00010000
00000000
00001000
00000000
00001010
00000000
,
00000000
00000000
00000010
00000000
00000100
00001000
00000100
00010000
00001000
00000000
01000000
00010000
01000000
00000000
01100000
00000000
,
00000000
00000000
00100000
00000000
10000000
01000000
00100000
00010000
01000000
00000000
00001000
00000000
00010000
00000000
00010100
00000000
,
00000000
00000000
00000110
00000000
00000110
00000000
00000010
00000001
00000100
00000000
00000110
00000000
00000000
00000000
00000100
00001000
,
00010000
01000000
10000000
00010000
01000000
10000000
00010000
00100000
,
10000000
00000000
01000000
00010000
00001000
00000000
00010000
00000000
00011000
00000000
00001000
00000100
00000010
00000000
00001000
00000000
,
00000001
00000010
00001000
00000001
00000100
00001000
00000001
00000100
,
00001000
00000000
00010000
00001000
01000000
00000000
00001000
00000000
00011000
00000000
00010000
00100000
01000000
00000000
00010000
10000000
,
00010000
10000000
01000000
00010000
00011000
00001000
00000100
00000001
,
00000010
00000000
00001000
00010000
00000100
00000000
00010000
00000000
00011000
00000000
00001000
00000000
00101000
00000000
00001000
00000000
,
01002000
00000000
00000000
00100000
00000000
00000000
00003000
00000000
00020100
00000000
00000000
00000010
00000000
00000000
00030000
00000000
,
00102000
00000000
00000000
01000000
00000000
00000000
00003000
00000000
00020010
00000000
00000000
00000100
00000000
00000000
00030000
00000000
,
00010000
00001000
00010000
00001000
01000000
00010000
01000000
00010000
10000000
01000000
00100000
00010000
01000000
00100000
01000000
00001000
,
00010000
00000100
00001000
00000010
00000100
00000010
00001000
00000001
00000010
00000001
00001000
00000010
00001000
00000100
00010000
00001000
,
01000000
00000000
01000000
00000000
10000000
00000000
10000000
00000000
01000000
00010000
00100000
00010000
10000000
00100000
10000000
01000000
,
00010000
00000000
00000000
00011000
00000000
00000000
00001010
00000000
00000000
00000010
00000001
00000100
00002000
00000000
00010000
00000000
,
01003000
00000000
00010000
00100000
00000000
01000000
00100000
00010000
10000000
00100000
01000000
00010000
10000000
01000000
00100000
00001000
,
00010000
00000000
00001000
00000100
00000000
00000001
00001000
00000000
00000002
00000000
00000010
00000000
00002003
00000000
00000000
00000000
,
00003010
00000000
00001000
00000100
00000000
00000010
00000100
00001000
00000001
00000100
00000010
00001000
00000001
00000010
00000100
00010000
,
00001000
00000000
00010000
00100000
00000000
10000000
00010000
00000000
10000000
00000000
01000000
00010000
00000000
01000000
00100000
00000000
,
00000000
00000000
00001000
00010000
00001000
00000000
00000100
00000000
00000010
00000100
00000000
00000001
00000000
00000010
00000000
00001000
,
00000000
00000000
00010000
00000100
00001000
00000000
00000001
00000000
00000100
00001000
00000000
00010000
00000000
00100000
00000000
01000000
,
00010000
00000000
10000000
01000000
00000000
10000000
01000000
00000000
00010000
00000000
00001000
00000100
00000000
00001000
00000100
00000000
,
00000001
00000000
00000010
00001000
00000000
00010000
00001000
00000000
00010000
01000000
10000000
00100000
01000000
00000000
01100000
00000000
,
01000000
00000000
00001000
00010000
00000000
00001000
00100000
00010000
01000000
00100000
00010000
00001000
00100000
01000000
00010000
00001000
,
00000000
00000000
00000110
00000000
00000001
00001000
00000000
00001010
00000000
00000000
00010010
00000000
00011000
00000000
00001000
00010000
,
00000100
00000000
00001000
00000010
00000000
00000100
00000001
00001000
00000100
00000010
00001000
00010000
00000010
00000100
00001000
00010000
,
00000000
00000000
01100000
00000000
10000000
00100000
00000000
00110000
00000000
00010000
00001000
00000000
00001010
00000000
00000010
00000001
,
00000100
00000000
00000010
00000000
00001000
00000000
00100000
00000000
01000000
00010000
00000000
00100000
00000000
01000000
00000000
00010000
,
00001000
00000000
00000010
00000000
00000100
00000000
00010000
00000000
01000000
00100000
00000000
00010000
00000000
10000000
00000000
00100000
,
00010000
00000000
00010000
00000000
00000100
00001000
00000010
00000100
00000001
00000000
00000010
00000100
00000000
00010000
00001000
00000000
,
01000000
00000000
10000000
01000000
00000000
00010000
00100000
00000000
00001000
00010000
00000010
00000100
00000001
00000010
00000100
00001000
,
00000002
00000000
00000000
00000000
,
00000203
00000000
00002300
00000000
,
00023000
00000000
00000000
00000000
,
02030000
00000000
00000000
00000000
00000000
00000000
00000000
00000000
00000000
00000000
00000000
00000000
00000000
00000000
00000000
00000000
00000000
00000000
13000000
00000000
00010000
00000000
10000000
00000000
00010000
00000000
00000000
01000000
00000000
00000000
00100000
00000000
00000000
10000000
00000000
00000000
00010000
00000000
00000000
00000000
00000000
00000000
10000000
00000000
01000000
00000000
10000000
00000000
,
01000000
00000000
10000000
00000000
00100000
00000000
01000000
00000000
00010000
00000000
00100000
00001000
00000000
00100000
00001000
00000000
,
00010000
00000000
00001000
00000000
00000010
00000000
00000100
00000000
00000010
00000000
00000001
00000100
00000000
00000001
00000100
00000000
,
00000001
00000001
00000010
00001000
00010000
00010000
00100000
01000000
,
00100000
10000000
00100000
10000000
00010000
10000000
00010000
10000000
01000000
00100000
00001000
00010000
00001000
00000100
00000001
00000010
,
00000200
00000000
00000000
00000300
,
00011000
00000000
00000000
00000000
;
