#TITLE:Star Process;
#ARTIST:Shatterproof World;
#BANNER:Star Process.png;
#BACKGROUND:Star Process-bg.png;
#MUSIC:Star Process.ogg;
#OFFSET:-0.013;
#SAMPLESTART:70.6;
#SAMPLELENGTH:15;
#BPMS:0=170,72=85,88=170;

//---------------dance-single - RGTM-bSP----------------
#NOTES:
     dance-single:
     RGTM:
     Beginner:
     3:
     0.140679,0.256305,0.087683,0.026979,0,146,133,13,4,0,0,0.140679,0.256305,0.087683,0.026979,0,146,133,13,4,0,0:
0000
0000
0000
0000
,
0000
0000
0000
0000
,
0000
0000
0000
0000
,
0000
0000
0000
0000
,
1000
0000
0000
0000
,
1000
0000
0000
0000
,
0001
0000
0000
0000
,
0001
0000
0000
0000
,
1000
0000
1000
0000
,
0100
0000
0100
0000
,
0010
0000
0010
0000
,
0001
0000
0001
0000
,
1000
0000
1000
0000
,
0001
0000
0001
0000
,
0100
0000
0100
0000
,
0010
0000
0000
0000
,
1001
0000
0000
0000
,
0000
0000
0000
0000
,
1000
0000
0001
0000
,
0100
0000
0010
0000
,
1000
0000
0001
0000
,
0010
0000
0100
0000
,
1000
0000
0000
0000
,
0001
0000
0000
0000
,
0100
0000
0000
0000
,
0010
0000
0000
0000
,
1000
0000
0000
0000
,
0001
0000
0000
0000
,
0010
0000
0000
0000
,
0100
0000
0000
0000
,
1001
0000
0000
0000
,
0000
0000
0000
0000
,
1000
0000
0000
0000
,
0000
0000
0000
0000
,
0001
0000
0000
0000
,
0000
0000
0000
0000
,
0001
0000
0000
0000
,
0000
0000
0000
0000
,
1001
0000
0000
0000
,
1000
0000
0000
0000
,
0001
0000
0000
0000
,
0001
0000
0000
0000
,
0110
0000
0000
0000
,
1001
0000
0000
0000
,
0010
0010
0010
0010
,
0020
0000
0030
0000
,
1001
0000
1000
0000
,
0001
0000
0000
0000
,
0100
0000
0100
0000
,
0010
0000
0000
0000
,
1000
0000
0001
0000
,
1000
0000
0000
0000
,
0100
0000
0100
0000
,
0010
0000
0000
0000
,
1001
0000
0001
0000
,
1000
0000
0000
0000
,
0010
0000
0010
0000
,
0100
0000
0000
0000
,
0001
0000
1000
0000
,
0001
0000
0000
0000
,
0010
0000
0010
0000
,
0100
0000
0000
0000
,
1001
0000
1000
0000
,
0010
0000
0010
0000
,
0001
0000
0001
0000
,
0100
0000
0100
0000
,
1000
0000
0001
0000
,
1000
0000
0001
0000
,
0010
0000
0100
0000
,
0010
0000
0100
0000
,
1001
0000
0001
0000
,
0010
0000
0010
0000
,
1000
0000
1000
0000
,
0100
0000
0100
0000
,
1001
0000
0001
0000
,
1001
0000
1000
0000
,
0010
0010
0010
0010
,
0020
0000
0030
0000
,
1000
1000
0000
0000
,
0001
0001
0000
0000
,
0010
0010
0000
0000
,
0100
0100
0000
0000
,
1000
1000
0000
0000
,
0001
0001
0000
0000
,
0100
0100
0000
0000
,
0010
0010
0000
0000
,
1001
0000
0000
0000
,
1000
0000
0000
0000
,
0001
0000
0000
0000
,
0001
0000
0000
0000
,
0100
0000
0000
0000
,
0100
0000
0000
0000
,
0010
0000
0000
0000
,
0010
0000
0000
0000
,
2002
0000
0000
0000
,
3003
0000
0000
0000
;

//---------------dance-single - RGTM-BSP----------------
#NOTES:
     dance-single:
     RGTM:
     Easy:
     7:
     0.287138,0.485630,0.155132,0.114663,0,298,275,23,17,0,0,0.287138,0.485630,0.155132,0.114663,0,298,275,23,17,0,0:
0000
0000
0000
0000
,
0000
0000
0000
0000
,
0000
0000
0000
0000
,
0000
0000
0000
0000
,
1000
0000
0010
0000
,
1000
0000
0001
0000
,
0001
0000
0010
0000
,
0001
0000
1000
0000
,
0001
0001
0001
0000
,
0100
0100
0100
0000
,
0010
0010
0010
0000
,
1000
1000
1000
0000
,
0001
1000
0001
0000
,
1000
0001
1000
0000
,
0010
0100
0010
0100
,
0110
0000
0000
0000
,
2002
0000
0000
0000
,
0000
0000
3003
0000
,
2000
0000
3200
0000
,
0320
0000
0032
0000
,
2003
0000
3020
0000
,
0230
0000
0302
0000
,
0003
1000
1000
0001
,
0000
0001
0001
1000
,
1000
0100
0100
0010
,
0001
0100
0100
0001
,
0000
0001
0001
1000
,
0000
1000
1000
0001
,
0001
0100
0100
0010
,
1000
1000
0001
0010
,
1001
0000
1000
0000
,
0000
0001
0001
1000
,
1000
0000
0000
0010
,
0100
0010
1000
0001
,
0000
0001
0001
0000
,
0000
1000
1000
0001
,
0001
0000
0000
0010
,
0100
0010
0100
1000
,
1001
0000
1000
0000
,
0010
0000
0010
0000
,
0100
0000
0100
0000
,
0001
0000
0001
0000
,
1001
0000
1000
0000
,
1001
0000
0001
0000
,
1001
1001
0110
0110
,
2002
0000
0000
3003
,
1000
0010
1000
0001
,
0100
0001
0001
1000
,
1000
0100
0100
0010
,
0001
0100
0010
1000
,
0001
0010
0001
1000
,
0100
1000
1000
0001
,
0001
0100
0100
0010
,
1000
0100
0010
0001
,
1000
0010
0100
0010
,
1000
0100
0100
0010
,
0010
0001
0001
1000
,
0001
0010
0100
1000
,
0001
0010
0100
0010
,
0001
0100
0100
0010
,
0010
1000
1000
0100
,
0010
0001
2000
3001
,
1000
0010
0001
0010
,
1000
0100
0001
0100
,
1000
0010
0001
1000
,
0100
0001
1000
1000
,
0001
0100
0001
1000
,
0010
1000
1000
0001
,
0001
0010
0010
0100
,
1000
0010
0100
0001
,
0001
0010
1000
0010
,
0001
0100
1000
0100
,
0001
0010
1000
0001
,
0100
1000
0001
0001
,
1001
1000
0100
1000
,
1001
0001
0100
0001
,
1001
1001
0110
0110
,
2002
0000
3003
0000
,
1000
0010
0000
0010
,
0001
0100
0000
0100
,
1000
0010
0000
0010
,
0001
1000
0000
1000
,
0001
0010
0000
0010
,
1000
0100
0000
0100
,
0001
0010
0000
0010
,
1000
0001
0000
0001
,
0000
1000
0000
1000
,
0000
1000
0000
1000
,
0000
0001
0000
0001
,
0000
0001
0000
0001
,
1001
1000
0000
1000
,
1001
0001
0000
0001
,
1001
1000
0000
1000
,
0110
0000
0000
0000
,
2002
0000
0000
0000
,
0000
0000
0000
0000
,
3003
0000
0000
0000
;

//---------------dance-single - RGTM-DSP----------------
#NOTES:
     dance-single:
     RGTM:
     Medium:
     10:
     0.398910,0.528797,0.155132,0.101173,0,414,391,23,15,0,0,0.398910,0.528797,0.155132,0.101173,0,414,391,23,15,0,0:
0000
0000
0000
0000
,
0000
0000
0000
0000
,
0000
0000
0000
0000
,
0000
0000
0000
0000
,
1000
1000
0010
0010
,
1000
1000
0001
1000
,
0001
0001
0010
0010
,
0001
0001
1000
0001
,
1001
1000
0100
0010
,
0001
1000
0010
0100
,
0001
0010
0100
1000
,
0001
0100
0010
1000
,
0001
0010
0001
0000
0010
0100
0010
0000
,
0100
1000
0100
0000
1000
0001
1000
0000
,
1010
0110
0101
1001
,
0020
0000
0000
0030
,
2002
0000
0000
0000
,
0000
0000
0000
3003
,
0000
1000
1000
0001
0000
0001
0001
1000
,
1000
0100
0100
0010
0001
0100
0100
0010
,
0000
1000
1000
0001
0000
0001
0001
1000
,
1000
0100
0100
0010
0001
0001
0001
0010
,
0000
0001
0001
1000
,
0000
1000
1000
0001
,
0001
0100
0100
0010
,
1000
0100
0100
0010
,
0000
0001
0001
1000
,
0000
1000
1000
0001
,
0001
0100
0100
0010
,
1000
1000
1000
0001
,
1001
0000
1000
0000
1000
0001
0000
0001
,
0000
0001
1000
0000
1000
0000
0010
0000
,
0010
0100
0000
0100
0000
0000
0010
0000
,
1000
0001
1000
0010
,
1000
0000
0001
0000
0001
1000
0000
1000
,
0000
1000
0001
0000
0001
0000
0010
0000
,
0010
0100
0000
0100
0000
0000
0010
0000
,
0001
0100
0010
1000
,
1001
0000
0001
0000
0001
0010
0000
0010
,
0000
0010
0100
0000
0100
0000
1000
0000
,
1000
0010
0000
0010
0000
0000
0100
0000
,
0001
0010
0100
1000
,
1001
0000
0001
0000
0001
1000
0100
0000
,
0110
0000
0010
0000
0010
0001
1000
0000
,
1010
0011
0101
1100
,
2002
0000
0000
3003
,
0001
1000
0010
0000
0010
1000
0100
0010
,
0000
0010
0001
0000
0001
0000
1000
0000
,
1000
0100
0000
0100
0000
0000
0100
0010
,
0001
0100
0010
1000
,
0000
0001
0010
0000
0010
0001
0100
0010
,
0000
0010
1000
0000
1000
0000
0001
0000
,
0001
0100
0000
0100
0000
0000
0010
1000
,
0001
1000
0001
0010
,
0001
1000
0100
0000
0100
1000
0010
0100
,
0000
0100
0001
0000
0001
0000
1000
0000
,
1000
0010
0000
0010
0000
0000
0010
0100
,
0001
0010
0100
1000
,
0000
0001
0100
0000
0100
0001
0010
0100
,
0000
0100
1000
0000
1000
0000
0001
0000
,
0001
0010
0000
0010
0000
0000
0100
1000
,
0001
1000
0002
0103
,
0010
1000
0100
0000
0010
0001
0100
0000
,
0001
1000
1000
0100
,
0010
0001
0100
1000
,
0010
0001
0100
0010
,
1000
0001
0010
0000
0010
0001
0100
0010
,
0000
0010
1000
0000
1000
0000
0001
0000
,
0001
0100
0000
0100
0000
0000
0100
0010
,
1000
0100
1000
0001
,
0010
0001
0100
0000
0010
1000
0100
0000
,
1000
0001
0001
0100
,
0010
1000
0100
0001
,
0010
1000
0100
0010
,
0110
0000
0100
0000
1000
0001
0100
0000
,
0110
0100
0001
1000
,
1100
0101
0011
1010
,
2002
0000
3003
0000
,
0001
1000
0010
0000
0000
0010
0100
0010
,
1000
0100
0010
0000
0000
0100
0010
0100
,
1000
0001
0010
0000
0000
0010
0100
0010
,
0001
0100
0010
0000
0000
0100
0010
0100
,
0001
1000
0100
0000
0000
0100
0010
0100
,
1000
0010
0100
0000
0000
0010
0100
0010
,
1000
0001
0100
0000
0000
0100
0010
0100
,
0001
0010
0100
0000
0000
0010
0100
0010
,
0002
1000
0000
1000
,
2003
0001
0000
0001
,
3020
0100
0000
0100
,
0230
0010
0000
0010
,
0301
0010
0000
0010
,
0100
1000
0000
1000
,
0001
0100
0000
0100
,
0020
0000
0000
0030
,
2002
0000
0000
0000
,
0000
0000
0000
0000
,
0000
0000
0000
0000
,
0000
0000
0000
0000
,
3003
0000
0000
0000
;

//---------------dance-single - RGTM-ESP----------------
#NOTES:
     dance-single:
     RGTM:
     Hard:
     13:
     0.555969,0.694046,0.188856,0.256305,0.047214,577,549,28,38,0,0,0.555969,0.694046,0.188856,0.256305,0.047214,577,549,28,38,0,0:
0000
0000
0000
0000
,
0000
0000
0000
0000
,
0000
0000
0000
0000
,
0000
0000
0000
0000
,
1000
0010
1000
0001
,
0001
0010
0001
1000
,
1000
0100
1000
0001
,
0001
0100
0001
1000
,
1000
0100
0010
0000
0010
0100
1000
0000
,
1000
0010
0100
0000
0100
0001
1000
0000
,
0001
0010
0100
0000
0100
0010
0001
0000
,
0001
0100
0010
0000
0010
1000
0001
0000
,
1000
0100
0010
0001
0010
0100
1000
0001
,
1000
0010
0100
0001
0100
0010
1000
0001
,
0011
0110
1100
1001
,
0110
0010
0010
0010
,
2002
0000
0000
0000
,
0000
0000
0000
3003
,
2000
0000
0010
0000
0010
0000
0001
0000
3002
1000
0010
0000
0010
0000
1000
0000
,
2003
0000
0100
0000
0100
0000
3010
1000
0002
0000
0100
0000
0100
0000
1000
0000
,
0023
0000
1000
0000
1000
0000
0001
0000
0032
0010
1000
0000
1000
0000
0100
0000
,
0203
0000
1000
0000
1000
0000
0310
0100
0020
0000
0001
0000
0031
0010
1000
0001
,
0002
0010
0010
1000
,
2003
0001
0010
0000
0010
0000
0001
0000
,
3002
0000
0100
0000
0100
0000
0013
0001
,
2000
0100
0100
0001
,
3020
0001
0001
1000
,
2030
0010
0001
0000
0001
0000
0100
0000
,
3200
0000
0001
0000
0001
0000
0310
0100
,
0020
0000
1000
0000
1030
0010
0001
1000
,
1001
0001
0010
0000
0010
0001
1000
0100
,
0000
0100
0010
0000
0010
0000
0001
0000
,
0001
0100
0000
0200
0000
0300
0001
1000
,
0010
0100
0010
1000
0001
0010
0001
1000
,
0100
1000
0010
0000
0010
1000
0001
0100
,
0000
0100
0010
0000
0010
0000
1000
0000
,
1000
0100
0000
0200
0000
0300
0010
0001
,
0010
0100
0010
0001
0100
0010
1000
0001
,
1001
1000
0010
0000
0010
1000
0001
0010
,
0000
0010
0100
0000
0100
0000
1000
0000
,
1000
0001
0000
0002
0000
0003
0010
0001
,
1000
0100
1000
0010
0100
0001
1000
0010
,
0110
0100
0001
0000
0010
0100
1000
0001
,
1001
1000
0010
0000
0010
0100
0001
0010
,
0011
1010
1100
0101
,
2002
0000
0000
3003
,
0001
1000
0010
0100
0010
1000
0100
0010
,
0100
0010
0001
0100
0001
1000
0010
0100
,
0010
1000
0100
0020
0000
0130
1000
0010
,
0001
0010
0100
0001
0010
0100
0001
0100
,
1000
0001
0010
0100
0010
0001
0100
0010
,
0100
0010
1000
0100
1000
0001
0010
0100
,
0010
0001
0100
0020
0000
0130
0001
0010
,
0001
1000
0100
0001
0100
1000
0010
0100
,
0001
1000
0100
0010
0100
1000
0010
0100
,
0010
0100
0001
0010
0001
1000
0100
0010
,
0100
1000
0010
0200
0000
0310
1000
0100
,
0001
0100
0010
0001
0100
0010
0001
0010
,
1000
0001
0100
0010
0100
0001
0010
0100
,
0010
0100
1000
0010
1000
0001
0100
0010
,
0100
0001
0010
0200
0000
0310
0001
0100
,
0001
1000
0010
0001
0010
1000
1001
0000
,
0001
0010
1000
0000
1000
0010
0001
0000
,
0001
0100
1000
0100
0001
0000
1000
0000
,
1000
0100
0001
1000
0010
0001
1000
0100
,
0001
0100
1000
0010
0001
0010
1000
0000
,
0001
1000
0010
0100
0010
1000
0100
0010
,
0100
0010
0001
0100
0001
1000
0010
0100
,
0010
1000
0100
0020
0000
0130
1000
0010
,
0001
0010
0100
0001
0010
0100
0001
0100
,
1000
0010
0001
0000
0001
0010
1000
0000
,
1000
0100
0001
0100
1000
0000
0001
0000
,
0001
0100
1000
0001
0010
1000
0001
0100
,
1000
0100
0001
0010
1000
0010
0001
0000
,
1001
1000
0010
0000
0010
0100
0001
0010
,
0110
0100
1000
0000
0001
1000
0010
0100
,
0101
0011
1010
1100
,
2002
0000
3003
0000
,
0001
0000
0100
0000
0010
0000
0010
0000
0000
0000
0100
0000
0001
1000
0001
0000
,
1000
0000
0100
0000
0010
0000
0010
0000
0000
0000
0100
0000
1000
0001
1000
0000
,
0001
0000
0100
0000
1000
0000
1000
0000
0000
0000
0100
0000
0001
1000
0001
0000
,
1000
0000
0100
0000
0001
0000
0001
0000
0000
0000
0100
0000
1000
0001
1000
0000
,
0001
0000
0010
0000
0100
0000
0100
0000
0000
0000
0010
0000
0001
1000
0001
0000
,
1000
0000
0010
0000
0100
0000
0100
0000
0000
0000
0010
0000
1000
0001
1000
0000
,
0001
0000
0010
0000
1000
0000
1000
0000
0000
0000
0010
0000
0001
1000
0001
0000
,
1000
0000
0010
0000
0001
0000
0001
0000
0000
0000
0010
0000
1000
0001
1000
0000
,
0002
0010
0000
0010
,
2003
0010
0000
0010
,
3002
0100
0000
0100
,
2003
0100
0000
3100
,
0110
0010
0001
0100
,
0110
0010
1000
0100
,
0110
0010
0001
1000
,
2002
0000
0000
3003
,
0220
0000
0000
0000
,
0000
0000
0000
0000
,
0000
0000
0000
0000
,
0000
0000
0000
0000
,
0330
0000
0000
0000
;

//---------------dance-double - RGTM-BDP----------------
#NOTES:
     dance-double:
     RGTM:
     Easy:
     7:
     0.286175,0.453255,0.175366,0.080938,0,297,271,26,12,0,0,0.286175,0.453255,0.175366,0.080938,0,297,271,26,12,0,0:
00000000
00000000
00000000
00000000
,
00000000
00000000
00000000
00000000
,
00000000
00000000
00000000
00000000
,
00000000
00000000
00000000
00000000
,
00010000
00000000
00001000
00000000
,
00010000
00000000
00000100
00000000
,
00000010
00000000
00000100
00000000
,
00001000
00000000
00001000
00000000
,
00000001
00000001
00000001
00000000
,
00000100
00000100
00000100
00000000
,
00001000
00001000
00001000
00000000
,
00010000
00010000
00010000
00000000
,
00100000
00100000
10000000
00000000
,
01000000
00100000
00100000
00000000
,
00001000
00010000
00001000
00010000
,
00011000
00000000
00000000
00000000
,
00001001
00000000
00000000
00000000
,
00000000
00000000
00000000
00000000
,
00000000
00000001
00000100
00001000
,
00010000
00010000
01000000
10000000
,
00000000
10000000
00100000
00010000
,
00001000
00001000
00000010
00000001
,
00000000
00000001
00000001
00000100
,
00000000
00000100
00000100
00001000
,
00001000
00010000
00010000
01000000
,
10000000
00010000
00010000
10000000
,
00000000
10000000
10000000
00100000
,
00000000
00100000
00100000
00010000
,
00010000
00001000
00001000
00000010
,
00000100
00000100
00001000
00000001
,
00001001
00000000
00000001
00000000
,
00000000
00000100
00000100
00000010
,
00000010
00000000
00000000
00001000
,
00001000
00000100
00000100
00010000
,
00000000
00010000
00100000
00000000
,
00000000
01000000
01000000
00100000
,
00100000
00000000
00000000
10000000
,
10000000
01000000
00010000
00001000
,
00011000
00000000
00010000
00000000
,
00000100
00000000
00000010
00000000
,
00000001
00000000
00000100
00000000
,
00001000
00000000
00010000
00000000
,
00011000
00000000
00010000
00000000
,
01100000
00000000
00100000
00000000
,
10010000
10010000
10010000
10010000
,
00200000
00000000
00000000
00300000
,
10010000
10000000
01000000
00100000
,
01000000
00010000
00001000
00010000
,
00010000
00000100
00000100
00000010
,
00000100
00001000
00000010
00001000
,
00000001
00000001
00000100
00000010
,
00000100
00001000
00010000
00001000
,
00001000
01000000
01000000
00100000
,
01000000
00010000
00100000
00010000
,
10010000
10000000
00100000
01000000
,
00100000
00010000
00001000
00010000
,
00010000
00000010
00000010
00000100
,
00000010
00001000
00000100
00001000
,
00000001
00000001
00000010
00000100
,
00000010
00001000
00010000
00001000
,
00001000
00100000
00100000
01000000
,
00100000
00010000
01000000
00010000
,
10010000
10000000
00100000
00010000
,
00001000
00000010
00000001
00001000
,
00000001
00000100
00001000
00010000
,
01000000
10000000
00100000
10000000
,
00010000
10000000
01000000
00100000
,
01000000
00010000
00001000
00010000
,
00010000
00000100
00000100
00000010
,
00000100
00001000
00000010
00001000
,
00001001
00000001
00000100
00001000
,
00010000
01000000
10000000
00010000
,
10000000
00100000
00010000
00001000
,
00000010
00000001
00000100
00000001
,
00001001
00001000
00000100
00010000
,
00011000
00001000
01000000
00010000
,
10010000
10010000
10010000
10010000
,
00200000
00000000
00300000
00000000
,
01100000
10000000
00000000
10000000
,
01000000
00010000
00000000
00010000
,
00001000
00000010
00000000
00000010
,
00000001
00001000
00000000
00001000
,
00000001
00000100
00000000
00000100
,
00001000
00010000
00000000
00010000
,
00100000
10000000
00000000
10000000
,
01000000
00100000
00000000
00100000
,
00020000
00000000
00030000
00000000
,
20000000
00000000
30000000
00000000
,
00200000
00000000
00300000
00000000
,
02000000
00000000
03000000
00000000
,
00012000
00000000
00003000
00000000
,
00021000
00000000
00030000
00000000
,
00000120
00000000
00000030
00000000
,
00000210
00000000
00000300
00000000
,
00002002
00000000
00000000
00000000
,
00000000
00000000
00000000
00000000
,
00003003
00000000
00000000
00000000
;

//---------------dance-double - RGTM-DDP----------------
#NOTES:
     dance-double:
     RGTM:
     Medium:
     10:
     0.405655,0.528797,0.188856,0.094428,0,421,393,28,14,0,0,0.405655,0.528797,0.188856,0.094428,0,421,393,28,14,0,0:
00000000
00000000
00000000
00000000
,
00000000
00000000
00000000
00000000
,
00000000
00000000
00000000
00000000
,
00000000
00000000
00000000
00000000
,
10000000
10000000
00100000
00100000
,
00010000
00010000
00001000
00010000
,
00001000
00001000
00000010
00000010
,
00000001
00000001
00001000
00000001
,
00001001
00000001
00000100
00001000
,
00010000
00100000
10000000
00010000
,
00010000
10000000
01000000
00010000
,
00001000
00000100
00000001
00001000
,
00000001
00000010
00000001
00000000
00000010
00000100
00000010
00000000
,
00000100
00010000
00000100
00000000
00010000
00001000
00010000
00000000
,
00011000
01010000
11000000
10010000
,
00200000
00000000
00000000
00300000
,
20020000
00000000
00000000
00000000
,
00000000
00000000
00000000
30030000
,
00000000
10000000
10000000
01000000
00000000
01000000
01000000
00010000
,
00010000
00001000
00001000
00000100
00000010
00001000
00001000
00000001
,
00000000
00000001
00000001
00000100
00000000
00000100
00000100
00001000
,
00001000
00010000
00010000
00100000
10000000
10000000
00010000
00100000
,
10010000
10000000
10000000
00100000
,
00000000
00100000
00100000
00010000
,
00010000
00001000
00001000
00000010
,
00000100
00001000
00001000
00000001
,
00000000
00000001
00000001
00000010
,
00000000
00000010
00000010
00001000
,
00001000
00010000
00010000
00100000
,
10000000
10000000
00010000
00100000
,
01100000
00000000
10000000
00000000
10000000
00100000
00000000
01000000
,
00000000
01000000
00010000
00000000
00010000
00000000
00100000
00000000
,
00100000
00001000
00000000
00001000
00000000
00000000
00010000
00000000
,
00001000
00010000
00000100
00000010
,
00000001
00001000
00000001
00000000
00000001
00000100
00000000
00000010
,
00000000
00000010
00001000
00000000
00001000
00000000
00000100
00000000
,
00000100
00010000
00000000
00010000
00000000
00000000
00001000
00000000
,
00010000
01000000
10000000
00100000
,
10010000
00000000
10000000
00000000
01000000
00100000
00000000
00010000
,
00000000
00010000
01000000
00000000
01000000
00000000
00001000
00000000
,
00001000
00010000
00000000
00010000
00000000
00000000
00001000
00000000
,
00010000
00000100
00000010
00000001
,
00001001
00000000
00001000
00000000
00000100
00010000
00001000
00000000
,
00011000
00000000
00010000
00000000
00001000
00100000
00010000
00000000
,
10010000
01010000
00011000
00010100
,
00000220
00000000
00000000
00000330
,
00000001
00001000
00000010
00000000
00000010
00001000
00000100
00010000
,
00000000
00010000
00001000
00000000
00001000
00000000
00100000
00000000
,
00100000
01000000
00000000
01000000
00000000
00000000
01000000
00000000
,
10000000
00100000
00010000
00100000
,
10000000
00010000
00100000
00000000
00100000
00010000
01000000
00001000
,
00000000
00001000
00010000
00000000
00010000
00000000
00000010
00000000
,
00000010
00000100
00000000
00000100
00000000
00000000
00000100
00000000
,
00000001
00000010
00001000
00000010
,
00000001
00001000
00000100
00000000
00000100
00001000
00000010
00010000
,
00000000
00010000
00001000
00000000
00001000
00000000
01000000
00000000
,
01000000
00100000
00000000
00100000
00000000
00000000
00100000
00000000
,
10000000
01000000
00010000
01000000
,
10000000
00010000
01000000
00000000
01000000
00010000
00100000
00001000
,
00000000
00001000
00010000
00000000
00010000
00000000
00000100
00000000
,
00000100
00000010
00000000
00000010
00000000
00000000
00000010
00000000
,
00000001
00000100
00001000
00000100
,
00000001
00000010
00000100
00000000
00000010
00000100
00010000
00000000
,
00001000
00010000
00100000
00010000
00100000
00000000
01000000
00000000
,
00100000
10000000
01000000
00010000
,
00100000
00010000
00001000
00000010
,
00000001
00001000
00000010
00000000
00000010
00001000
00000100
00010000
,
00000000
00010000
00001000
00000000
00001000
00000000
00100000
00000000
,
00100000
01000000
00000000
01000000
00000000
00000000
01000000
00000000
,
10000000
00100000
00010000
00100000
,
10000000
00100000
01000000
00000000
00100000
01000000
00001000
00000000
,
00010000
00001000
00000010
00001000
00000010
00000000
00000100
00000000
,
00000010
00000001
00000100
00001000
,
00000010
00001000
00010000
00100000
,
10100000
10000000
01000000
00010000
,
00011000
00001000
00000100
00000001
,
00001001
00001010
00011000
00110000
,
20020000
00000000
30030000
00000000
,
10000000
01000000
00100000
00000000
00000000
00100000
01000000
00100000
,
00001000
00010000
00001000
00000000
00000000
00000010
00000100
00000010
,
00000001
00000100
00000010
00000000
00000000
00000010
00000100
00000010
,
00010000
00001000
00010000
00000000
00000000
01000000
00100000
01000000
,
10000000
00100000
01000000
00000000
00000000
01000000
00100000
01000000
,
00001000
00010000
00001000
00000000
00000000
00000100
00000010
00000100
,
00000001
00000010
00000100
00000000
00000000
00000100
00000010
00000100
,
00010000
00001000
00010000
00000000
00000000
00100000
01000000
00100000
,
20000000
01000000
00000000
01000000
,
30020000
00100000
00000000
00100000
,
00032000
00000100
00000000
00000100
,
00003002
00000010
00000000
00000013
,
00000110
00001000
00000000
00010000
,
01100000
10000000
00000000
00010000
,
00011000
00001000
00000000
00001000
,
00000120
00000000
00000030
00000000
,
00002002
00000000
00000000
00000000
,
00000000
00000000
00000000
00000000
,
00000000
00000000
00000000
00000000
,
00000000
00000000
00000000
00000000
,
00003003
00000000
00000000
00000000
;

//---------------dance-double - RGTM-EDP----------------
#NOTES:
     dance-double:
     RGTM:
     Hard:
     13:
     0.540552,0.694046,0.182111,0.175366,0.020235,561,534,27,26,0,0,0.540552,0.694046,0.182111,0.175366,0.020235,561,534,27,26,0,0:
// measure 0
00000000
00000000
00000000
00000000
,  // measure 1
00000000
00000000
00000000
00000000
,  // measure 2
00000000
00000000
00000000
00000000
,  // measure 3
00000000
00000000
00000000
00000000
,  // measure 4
00010000
00001000
00010000
00000100
,  // measure 5
00000100
00000010
00000100
00001000
,  // measure 6
00001000
00000001
00001000
00000010
,  // measure 7
00000010
00001000
00000100
00010000
,  // measure 8
00001000
00010000
00100000
00000000
00100000
10000000
00010000
00000000
,  // measure 9
00010000
00100000
01000000
00000000
01000000
00010000
00001000
00000000
,  // measure 10
00010000
00001000
00000010
00000000
00000010
00000001
00001000
00000000
,  // measure 11
00001000
00000001
00000100
00000000
00000100
00001000
00010000
00000000
,  // measure 12
00001000
00100000
01000000
00100000
00001000
01000000
00100000
01000000
,  // measure 13
00001000
00010000
00000100
00000010
00000100
00010000
00001000
00010000
,  // measure 14
00011000
00001100
00011000
01010000
,  // measure 15
01100000
00100000
00100000
00100000
,  // measure 16
20020000
00000000
00000000
00000000
,  // measure 17
00000000
00000000
00000000
30030000
,  // measure 18
10000000
00000000
00100000
00000000
00100000
00000000
01000000
00000000
01000000
00010000
00100000
00000000
00100000
00000000
00001000
00000000
,  // measure 19
00001000
00000000
00010000
00000000
00010000
00000000
00010000
00000100
00000010
00000000
00000100
00000000
00000100
00000000
00001000
00000000
,  // measure 20
00000001
00000000
00000010
00000000
00000010
00000000
00000100
00000000
00000100
00001000
00000010
00000000
00000010
00000000
00010000
00000000
,  // measure 21
00010000
00000000
00001000
00000000
00001000
00000000
00001000
01000000
00100000
00000000
00100000
00000000
10000000
00100000
00010000
00100000
,  // measure 22
10000000
01000000
01000000
00100000
,  // measure 23
00100000
00010000
01000000
00000000
01000000
00000000
00001000
00000000
,  // measure 24
00001000
00000000
00010000
00000000
00010000
00000000
00010000
00000010
,  // measure 25
00000100
00000010
00000010
00001000
,  // measure 26
00000001
00000100
00000100
00000010
,  // measure 27
00000010
00001000
00000100
00000000
00000100
00000000
00010000
00000000
,  // measure 28
00010000
00000000
00001000
00000000
00001000
00000000
00001000
00100000
,  // measure 29
01000000
00000000
01000000
00000000
10000000
01000000
00010000
01000000
,  // measure 30
11000000
10000000
00100000
00000000
00100000
01000000
00100000
00010000
,  // measure 31
00000000
00010000
00001000
00000000
00001000
00000000
00000010
00000000
,  // measure 32
00000010
00000100
00000000
00000100
00000000
00000000
00000010
00000001
,  // measure 33
00001000
00000010
00001000
00000001
00000010
00000100
00000010
00000001
,  // measure 34
00000100
00000001
00000010
00000000
00000010
00000100
00000010
00001000
,  // measure 35
00000000
00001000
00010000
00000000
00010000
00000000
00100000
00000000
,  // measure 36
00100000
01000000
00000000
01000000
00000000
00000000
00100000
10000000
,  // measure 37
00010000
00100000
00010000
10000000
01000000
00100000
00010000
10000000
,  // measure 38
10010000
00010000
00100000
00000000
00100000
01000000
00100000
00001000
,  // measure 39
00000000
00001000
00010000
00000000
00010000
00000000
00000010
00000000
,  // measure 40
00000010
00000100
00000000
00000100
00000000
00000000
00001000
00010000
,  // measure 41
00001000
00000100
00000010
00000100
00000001
00000010
00000001
00001000
,  // measure 42
00001001
00000001
00000010
00000000
00000010
00000100
00010000
00001000
,  // measure 43
00011000
00010000
00100000
00000000
00100000
01000000
00100000
10000000
,  // measure 44
10010000
00011000
00001001
00011000
,  // measure 45
20020000
00000000
00000000
30030000
,  // measure 46
10000000
00100000
01000000
00100000
01000000
00010000
10000000
01000000
,  // measure 47
00100000
01000000
00010000
00001000
00010000
00001000
00000100
00000010
,  // measure 48
00000100
00000001
00001000
00000200
00000000
00000310
00000100
00001000
,  // measure 49
00000010
00010000
00001000
00100000
00001000
00010000
00000100
00000010
,  // measure 50
00000001
00000010
00000100
00000010
00000100
00001000
00000001
00000100
,  // measure 51
00000010
00000100
00001000
00010000
00001000
00010000
01000000
00100000
,  // measure 52
01000000
10000000
00010000
02000000
00000000
03100000
01000000
00010000
,  // measure 53
00100000
00001000
00010000
00000010
00010000
00001000
01000000
00100000
,  // measure 54
10000000
01000000
00100000
01000000
00100000
00010000
10000000
00100000
,  // measure 55
01000000
00100000
00010000
00001000
00010000
00001000
00000010
00000100
,  // measure 56
00000010
00000001
00001000
00000020
00000000
00000130
00000010
00001000
,  // measure 57
00000100
00010000
00001000
01000000
00001000
00010000
00000010
00000100
,  // measure 58
00000001
00000100
00000010
00000100
00000010
00001000
00000001
00000010
,  // measure 59
00000100
00000010
00001000
00010000
00001000
00010000
00100000
01000000
,  // measure 60
00100000
10000000
00010000
00200000
00000000
01300000
00100000
00010000
,  // measure 61
01000000
00001000
00010000
00000100
00010000
01000000
10000000
00000000
,  // measure 62
10000000
00100000
00010000
00000000
00001000
00000010
00000001
00000000
,  // measure 63
00000001
00000010
00001000
00010000
00001000
00000000
00010000
00000000
,  // measure 64
00010000
00100000
10000000
00010000
01000000
10000000
00010000
00100000
,  // measure 65
10000000
01000000
00100000
00001000
00010000
00000100
00000010
00000000
,  // measure 66
00000001
00000010
00000100
00000010
00000100
00001000
00000001
00000100
,  // measure 67
00000010
00000100
00001000
00010000
00001000
00010000
01000000
00100000
,  // measure 68
01000000
10000000
00010000
02000000
00000000
03100000
01000000
00010000
,  // measure 69
00100000
00001000
00010000
00000010
00010000
00001000
00000100
00000001
,  // measure 70
00000001
00000010
00001000
00000000
00010000
00100000
10000000
00000000
,  // measure 71
10000000
00100000
00010000
00001000
00010000
00000000
00001000
00000000
,  // measure 72
00001000
00000010
00000001
00001000
00000100
00000001
00001000
00000010
,  // measure 73
00000001
00000100
00000010
00010000
00001000
01000000
00100000
00000000
,  // measure 74
10100000
10000000
01000000
00000000
01000000
00010000
00001000
00010000
,  // measure 75
00011000
00001000
00000100
00000000
00000010
00001000
00000001
00000000
,  // measure 76
00001001
00011000
10010000
00011000
,  // measure 77
00002002
00000000
00003003
00000000
,  // measure 78
00000001
00000100
00000020
00000000
00000030
00000010
00000100
00001000
,  // measure 79
00010000
00100000
02000000
00000000
03000000
01000000
00100000
10000000
,  // measure 80
10000000
01000000
00200000
00000000
00300000
00100000
01000000
00010000
,  // measure 81
00001000
00000010
00000200
00000000
00000300
00000010
00000001
00000100
,  // measure 82
00000001
00000010
00000200
00000000
00000300
00000100
00000010
00001000
,  // measure 83
00010000
01000000
00200000
00000000
00300000
00100000
01000000
10000000
,  // measure 84
10000000
00100000
02000000
00000000
03000000
01000000
00100000
00010000
,  // measure 85
00001000
00000100
00000020
00000000
00000030
00000100
00000001
00000010
,  // measure 86
00000200
00000001
00000000
00000010
,  // measure 87
00002300
00000100
00000000
00010000
,  // measure 88
00203000
00001000
00000000
01000000
,  // measure 89
20300000
00100000
00000000
30010000
,  // measure 90
10010000
01000000
00010000
00001000
,  // measure 91
00011000
00000100
00000001
00001000
,  // measure 92
00001001
00000001
00000100
00001000
,  // measure 93
00021000
00100000
00000000
00130000
,  // measure 94
20020000
00000000
00000000
00000000
,  // measure 95
00000000
00000000
00000000
00000000
,  // measure 96
00000000
00000000
00000000
00000000
,  // measure 97
00000000
00000000
00000000
00000000
,  // measure 98
30030000
00000000
00000000
00000000
;
