#VERSION:0.83;
#TITLE:Star Gate Heaven(XX-Special);
#ARTIST:SySF. feat. Donna Burke;
#BANNER:Star Gate Heaven(XX-Special).png;
#BACKGROUND:Star Gate Heaven(XX-Special)-bg.png;
#JACKET:Star Gate Heaven(XX-Special)-jacket.png;
#MUSIC:Star Gate Heaven(XX-Special).ogg;
#SAMPLESTART:61.260;
#SAMPLELENGTH:15;
#BPMS:0=145;

//---------------dance-single - RGTM-CSP----------------
#NOTEDATA:;
#CHARTNAME:RGTM-CSP;
#STEPSTYPE:dance-single;
#DESCRIPTION:RGTM-CSP;
#DIFFICULTY:Challenge;
#METER:14;
#CREDIT:RGTM;
#NOTES:
0000
0000
0000
0000
,
0000
0000
0000
0000
,
0000
0000
0000
0000
,
0000
0000
0000
0000
,
0000
0000
0000
0000
,
1000
0000
1000
0100
0000
0100
1000
0000
0001
0000
0001
1000
0000
1000
0001
0000
,
0010
0000
0010
0001
0000
0001
0010
0000
0100
0000
0100
0010
0000
0010
0100
0000
,
0001
0000
0001
0100
0000
0100
1000
0000
0001
0000
0001
0100
0000
0100
1000
0000
,
0001
0000
0001
0010
0000
0010
1000
0000
0001
0000
0001
0010
0000
0010
0100
1000
,
0001
0000
0001
0100
0000
0100
0001
0000
1000
0000
1000
0001
0000
0001
1000
0000
,
0100
0000
0100
1000
0000
1000
0100
0000
0010
0000
0010
0100
0000
0100
0010
0000
,
1000
0000
1000
0010
0000
0010
0001
0000
1000
0000
1000
0010
0000
0010
0001
0000
,
1000
0000
1000
0100
0000
0100
0001
0000
1000
0000
1000
0100
0000
0100
0010
0001
,
1000
0000
0100
1000
0000
0100
1000
0000
0001
0000
0010
0001
0000
0010
0001
0000
,
1000
0000
0010
1000
0000
0010
1000
0000
0001
0000
0100
0010
0000
0100
0010
0000
,
0001
0000
0010
1000
0000
0010
1000
0000
0001
0000
0010
1000
0000
0010
1000
0000
,
0001
0000
0100
1000
0000
0100
1000
0000
0001
0000
0100
1000
0000
0100
1000
0100
,
0001
0000
0010
0001
0000
0010
0001
0000
1000
0000
0100
1000
0000
0100
1000
0000
,
0001
0000
0100
0001
0000
0100
0001
0000
1000
0000
0010
0100
0000
0010
0100
0000
,
1000
0000
0100
0001
0000
0100
0001
0000
1000
0000
0100
0001
0000
0100
0001
0000
,
1000
0000
0010
0001
0000
0010
0001
0000
1000
0000
0010
0001
0000
0010
0001
0010
,
1000
0000
1000
0010
0100
0000
0100
0001
,
1000
0000
0000
0100
0000
0000
0010
0000
0001
0000
0000
1000
0000
0000
0010
0000
,
0100
0000
1000
0001
0000
1000
0001
0000
0010
0000
1000
0001
0000
1000
0001
0000
,
0010
0000
1000
0001
0000
1000
0001
0000
0100
0000
1000
0001
0000
1000
0001
0000
,
0100
0010
1000
0000
0100
0010
0001
0000
,
1000
0000
0000
0010
0000
0000
0100
0000
0001
0000
0000
1000
0000
0000
0100
0000
,
0010
0001
0000
1000
0000
0010
0001
0000
1000
0100
0000
0100
0001
1000
0100
0000
,
0100
1000
0000
0001
0000
0100
1000
0000
0001
0010
0000
1000
0001
0010
0100
1000
,
0001
0000
0000
0000
0100
0000
0010
0000
1000
0000
0000
0001
0000
0000
0010
0000
,
0100
0000
0000
1000
0000
0000
0001
0000
0100
0000
0000
0010
0000
0000
1000
0000
,
0100
0000
0001
1000
0000
0001
1000
0000
0010
0000
0001
1000
0000
0001
1000
0000
,
0010
0000
0001
1000
0000
0001
1000
0000
0100
0000
0001
1000
0000
0001
1000
0000
,
0100
0010
0001
0000
0100
0010
1000
0000
,
0001
0000
0000
0010
0000
0000
0100
0000
1000
0000
0000
0001
0000
0000
0100
0000
,
0010
0000
1000
0001
0000
0001
0010
0000
1000
0000
0001
0100
0000
0100
1000
0000
,
0010
0000
0010
0001
0000
0001
1000
0000
0100
0000
0001
1000
0001
0010
0100
1000
,
0001
0000
0001
0010
1000
0000
1000
0010
,
0001
0000
0001
0100
1000
0000
1000
0100
,
0010
0000
0010
1000
0000
0000
0001
0000
0010
0000
0010
1000
0000
0000
0001
0000
,
0100
0000
0100
1000
0000
0000
0001
0000
0100
0000
0100
1000
0000
0001
0010
0000
,
1000
0000
1000
0010
0001
0000
0001
0010
,
1000
0000
1000
0100
0001
0000
0001
0100
,
0010
0000
0010
0001
0000
0000
1000
0000
0010
0000
0010
0001
0000
0000
1000
0000
,
0100
0000
0100
0001
0000
0000
1000
0000
0100
0000
0100
0001
0000
0001
1000
0010
,
0001
0100
1000
0100
0001
0010
1000
0010
,
0100
0001
0100
1000
0010
0001
0010
1000
,
0100
0000
0001
1000
0000
0010
0001
0000
0100
0000
0001
1000
0000
0010
0001
0000
,
0010
0000
0001
1000
0000
0100
0001
0000
0010
0000
0001
1000
0000
0100
0001
0100
,
1000
0010
0001
0010
1000
0100
0001
0100
,
0010
1000
0010
0001
0100
1000
0100
0001
,
0010
0000
1000
0001
0000
0100
1000
0000
0010
0000
1000
0001
0000
0100
1000
0000
,
0100
0000
1000
0001
0000
0010
1000
0000
0100
0000
1000
0001
0000
0010
1000
0010
,
0001
0000
0000
0001
0000
0000
0001
0000
0000
0001
0000
0000
0001
0000
1000
0001
;

//---------------dance-double - RGTM-CDP----------------
#NOTEDATA:;
#CHARTNAME:RGTM-CDP;
#STEPSTYPE:dance-double;
#DESCRIPTION:RGTM-CDP;
#DIFFICULTY:Challenge;
#METER:15;
#CREDIT:RGTM;
#NOTES:
00000000
00000000
00000000
00000000
,
00000000
00000000
00000000
00000000
,
00000000
00000000
00000000
00000000
,
00000000
00000000
00000000
00000000
,
00000000
00000000
00000000
00000000
,
10000000
00100000
00010000
10000000
01000000
00001000
00010000
00000010
,
00000001
00000010
00001000
00000001
00000100
00001000
00010000
00100000
,
10000000
00000000
01000000
00010000
00000000
01000000
00010000
00000000
00001000
00000000
00000100
00000001
00000000
00000100
00000001
00000100
,
00000001
00000000
00000010
00001000
00000000
00000010
00001000
00000000
00010000
00000000
00100000
10000000
00000000
00100000
10000000
00100000
,
10000000
01000000
00010000
10000000
00100000
00001000
00010000
00000100
,
00000001
00000100
00001000
00000001
00000010
00001000
00010000
01000000
,
10000000
00000000
00100000
00010000
00000000
00100000
00010000
00000000
00001000
00000000
00000010
00000001
00000000
00000010
00000001
00000010
,
00000001
00000000
00000100
00001000
00000000
00000100
00001000
00000000
00010000
00000000
01000000
10000000
00000000
01000000
10000000
01000000
,
10000000
00100000
00010000
00100000
01000000
00001000
00000100
00000010
,
00001000
00000100
00000001
00000100
00000010
00010000
00100000
01000000
,
10000000
00000000
00100000
01000000
00000000
00100000
01000000
00000000
00001000
00000000
00000100
00000010
00000000
00000100
00000010
00000100
,
00000001
00000000
00000010
00000100
00000000
00000010
00000100
00000000
00010000
00000000
01000000
00100000
00000000
01000000
00100000
01000000
,
10000000
01000000
00010000
01000000
00100000
00001000
00000010
00000100
,
00001000
00000010
00000001
00000010
00000100
00010000
01000000
00100000
,
10000000
00000000
01000000
00100000
00000000
01000000
00100000
00000000
00001000
00000000
00000010
00000100
00000000
00000010
00000100
00000010
,
00000001
00000000
00000100
00000010
00000000
00000100
00000010
00000000
00010000
00000000
00100000
01000000
00000000
00100000
01000000
00100000
,
10000000
00000000
01000000
00010000
00001000
00000000
00000100
00001000
,
00010000
00000000
00000000
00100000
00000000
00000000
00010000
00000000
00001000
00000000
00000000
00000010
00000000
00000000
00001000
00000000
,
00010000
00000000
01000000
00100000
00000000
00001000
00010000
00000000
00001000
00000000
00000100
00000010
00000000
00010000
00001000
00000000
,
00010000
00000000
00100000
01000000
00000000
00001000
00010000
00000000
00001000
00000000
00000010
00000100
00000000
00010000
00001000
00000100
,
00000001
00000000
00000010
00001000
00010000
00000000
00100000
00010000
,
00001000
00000000
00000000
00000100
00000000
00000000
00000010
00000000
00010000
00000000
00000000
01000000
00000000
00000000
00100000
00000000
,
00001000
00010000
00000000
00000010
00000000
00000100
00001000
00000000
00010000
00001000
00000000
00100000
01000000
00010000
00001000
00000000
,
00010000
00000010
00000000
00000100
00000000
00001000
00010000
00000000
00001000
00100000
00000000
01000000
00010000
00001000
00010000
01000000
,
10000000
00000000
00000000
00000000
00100000
00000000
00010000
00000000
00000010
00000000
00000000
00001000
00000000
00000000
00100000
00000000
,
01000000
00000000
00000000
00001000
00000000
00000000
00000100
00000000
00010000
00000000
00000000
01000000
00000000
00000000
00100000
00000000
,
10000000
00000000
01000000
00010000
00000000
00001000
00000100
00000000
00000001
00000000
00000100
00001000
00000000
00010000
01000000
00000000
,
10000000
00000000
00100000
00010000
00000000
00001000
00000010
00000000
00000001
00000000
00000010
00001000
00000000
00001000
00010000
00100000
,
10000000
00000000
01000000
00010000
00000100
00000000
00001000
01000000
,
00100000
00000000
00000000
00001000
00000000
00000000
00000010
00000000
00010000
00000000
00000000
00100000
00000000
00000000
01000000
00000000
,
10000000
00000000
00100000
00010000
00000000
00001000
00000010
00000000
00000001
00000000
00000010
00001000
00000000
00010000
00100000
00000000
,
10000000
00000000
01000000
00010000
00000000
00001000
00000100
00000000
00000001
00000000
00000100
00001000
00010000
00001000
00010000
01000000
,
10000000
00000000
10000000
01000000
00010000
00001000
00010000
00000000
,
00001000
00000000
00001000
00000100
00000001
00001000
00000001
00000000
,
00000010
00000000
00001000
00010000
00000000
00000000
00100000
00000000
01000000
00000000
00001000
00010000
00000000
00000000
00000010
00000000
,
00000100
00000000
00001000
00010000
00000000
00000000
01000000
00000000
00100000
00000000
00001000
00010000
00000000
00010000
00001000
00000100
,
00000001
00000000
00000001
00000100
00001000
00010000
00001000
00000000
,
00010000
00000000
00010000
01000000
10000000
00010000
10000000
00000000
,
00100000
00000000
00010000
00001000
00000000
00000000
00000010
00000000
00000100
00000000
00010000
00001000
00000000
00000000
00100000
00000000
,
01000000
00000000
00010000
00001000
00000000
00000000
00000100
00000000
00000010
00000000
00010000
00001000
00000000
00001000
00010000
01000000
,
10000000
01000000
10000000
00100000
00010000
00001000
00010000
00000000
,
00001000
00000010
00001000
00000100
00000001
00001000
00000001
00000000
,
00000100
00000000
00001000
00010000
00000000
00010000
01000000
00000000
00100000
00000000
00001000
00010000
00000000
00010000
00000100
00000000
,
00000010
00000000
00001000
00010000
00000000
00010000
00100000
00000000
01000000
00000000
00001000
00010000
00000000
00010000
00001000
00000010
,
00000001
00000100
00000001
00000010
00001000
00010000
00001000
00000000
,
00010000
00100000
00010000
01000000
10000000
00010000
10000000
00000000
,
01000000
00000000
00010000
00001000
00000000
00001000
00000100
00000000
00000010
00000000
00010000
00001000
00000000
00001000
01000000
00000000
,
00100000
00000000
00010000
00001000
00000000
00001000
00000010
00000000
00000100
00000000
00010000
00001000
00000000
00001000
00010000
00100000
,
10000000
00000000
00000000
10000000
00000000
00000000
10000000
00000000
00000000
10000000
00000000
00000000
10000000
00000000
00010000
10000000
;
