#TITLE:Sounds Of Summer;
#ARTIST:Hommarju;
#BANNER:Sounds Of Summer.png;
#BACKGROUND:Sounds Of Summer-bg.png;
#MUSIC:Sounds Of Summer.ogg;
#OFFSET:-0.105;
#SAMPLESTART:78.276;
#SAMPLELENGTH:15;
#BPMS:0=175;
#BGCHANGES:;

//---------------dance-single - NewbStepper-ESP----------------
#NOTES:
     dance-single:
     NewbStepper:
     Hard:
     12:
     0.548544,0.613864,0.395769,0.126309,0.012631,456,409,47,15,0,0,0.548544,0.613864,0.395769,0.126309,0.012631,456,409,47,15,0,0:
0000
0000
0000
0000
,
1100
0000
0000
0011
0000
0100
0000
1000
,
0000
0001
0100
0000
0110
0000
0000
0000
,
0101
0000
0000
1010
0000
0100
0000
0001
,
0000
1000
0100
0000
0110
0000
0000
0000
,
1001
0000
0000
1010
0000
0001
0000
0100
,
0000
0010
1000
0000
1010
0000
0000
0000
,
1001
0000
0000
0011
0000
0100
0000
1000
,
0000
0100
0010
0001
0010
0000
0000
0000
,
0001
0100
0000
0100
0000
0020
0030
0000
,
1000
0100
0000
0100
0000
0020
0030
0000
,
0001
0100
0001
0100
0010
0100
0010
0000
,
1000
0100
1000
0100
0010
0100
0010
0000
,
0001
0010
0001
0000
0100
0010
0100
0000
,
0010
1000
0010
0000
1000
0100
1000
0000
,
0001
0001
0100
0100
0010
0010
1000
1000
,
0000
0000
0000
0000
,
1001
0000
1000
0100
0000
0100
0001
0100
,
0000
0100
0010
0000
0001
0100
0010
0000
,
1001
0000
0001
0100
0000
0010
0001
0010
,
0000
1000
0010
0000
0100
0001
0010
0000
,
1001
0000
0001
0100
0000
0100
1000
0100
,
0000
0100
0010
0000
1000
0100
0010
0000
,
1001
0000
0100
0010
0000
0100
0010
1000
,
0000
0100
0001
0100
1000
0001
0100
0000
,
0001
1000
0100
0010
0001
0100
0010
0100
,
0001
0000
0000
0000
0001
0000
0000
0010
0100
0000
1000
0000
0000
0000
0110
0000
,
0000
0001
0100
0010
1000
0100
0010
0100
,
1000
0000
0000
0000
1000
0000
0000
0010
0100
0000
0001
0000
0000
0000
0110
0000
,
0000
0100
1000
0100
0001
0010
0100
1000
,
0100
0000
0000
0000
0100
0000
0000
0010
0100
0000
0001
0000
0000
0000
0110
0000
,
0000
0100
0010
0100
1000
0100
0001
0000
,
0200
0000
0300
0000
,
2001
0000
0000
0000
,
0020
0000
3000
0000
,
0200
0000
0030
0000
,
0002
0300
0000
0000
,
0020
0000
0003
0000
,
2000
0000
0030
0000
,
0020
0000
3000
0000
,
0002
0000
0033
0000
,
1001
0000
0000
0101
0000
1100
0000
0110
,
0000
0001
1000
0000
1010
0000
0000
0000
,
1001
0000
0000
1100
0000
0101
0000
0110
,
0000
1000
0001
0000
1001
0000
0000
0000
,
0011
0000
0000
0101
0000
1010
0000
1100
,
0000
0010
0001
0000
0101
0000
0000
0000
,
1010
0000
0000
1100
0000
0011
0000
0101
,
0000
0001
0100
1000
0100
0000
0000
0000
,
0001
0010
0001
0010
0100
1000
0100
1000
,
0001
0100
0001
0100
0010
1000
0010
1000
,
0100
0001
0100
1000
0100
0001
0100
1000
,
0010
0100
0001
1000
0100
0010
0001
0000
,
1000
1000
0010
0010
0100
0100
0001
0001
,
0010
1000
0010
0001
0100
1000
0100
0001
,
1000
1000
0100
0100
0010
0010
0001
0001
,
0000
0000
0000
0000
,
1001
0000
0001
0100
0000
0100
1000
0100
,
0000
0100
0010
0000
1000
0100
0010
0000
,
1001
0000
1000
0100
0000
0010
1000
0010
,
0000
0001
0010
0000
0100
1000
0010
0000
,
1001
0000
1000
0100
0000
0100
0001
0100
,
0000
0100
0010
0000
0001
0100
0010
0000
,
1001
0000
0100
0010
0000
0100
0010
0001
,
0000
0100
1000
0100
0001
1000
0100
0000
,
1000
0100
0001
0100
0010
1000
0010
0001
,
0100
1000
0100
0001
1000
0010
0100
0000
,
0001
0100
1000
0100
0010
0001
0010
1000
,
0100
0001
0100
1000
0001
0010
0100
0000
,
1000
0100
0001
0100
1000
0010
0001
0010
,
1000
0100
0010
0001
0100
0010
1000
0000
,
0001
0100
1000
0100
0001
0010
1000
0010
,
0001
0100
0010
1000
0100
0010
0001
0000
,
2010
0001
0100
3001
,
0012
1000
0100
1003
,
2100
0001
0010
3001
,
0102
1000
0010
1003
,
0010
1000
0100
0100
0010
0010
0001
0100
,
1000
0100
0100
0001
0010
0010
0010
1000
,
0010
0100
1000
0010
0001
1000
0100
0001
,
0010
1000
0001
0100
1000
0100
0010
0001
,
1001
0000
0000
0000
;

//---------------dance-single - NewbStepper-DSP----------------
#NOTES:
     dance-single:
     NewbStepper:
     Medium:
     9:
     0.386146,0.477450,0.176833,0.143151,0,321,300,21,17,0,0,0.386146,0.477450,0.176833,0.143151,0,321,300,21,17,0,0:
0000
0000
0000
0000
,
1001
0000
0000
1000
0000
0001
0000
1000
,
0000
1000
0100
0000
0010
0000
0000
0000
,
1001
0000
0000
0001
0000
1000
0000
0001
,
0000
0001
0100
0000
0010
0000
0000
0000
,
0110
0000
0000
1000
0000
0100
0000
0001
,
0000
0100
0100
0000
0010
0000
0000
0000
,
0110
0000
0000
0001
0000
0100
0000
1000
,
0000
0100
0100
0000
0010
0000
0000
0000
,
1000
0000
0000
0100
0000
1000
0000
0000
,
0001
0000
0000
0100
0000
0001
0000
0000
,
0010
0000
0000
0100
0000
0010
0000
0000
,
0001
0000
0000
1000
0000
0001
0000
0000
,
1000
1000
0100
0100
,
0010
0010
0001
0001
,
0100
0010
0100
0010
0100
0010
0100
0000
,
0000
0000
0000
0000
,
0101
0000
0000
0100
0000
0010
0000
1000
,
0000
0100
0001
0000
0110
0000
0000
0000
,
1100
0000
0000
0100
0000
0010
0000
0001
,
0000
0100
1000
0000
0110
0000
0000
0000
,
1001
0000
0000
0010
0000
0001
0000
0010
,
0000
1000
0010
0000
0001
0000
0000
0000
,
1001
0000
0000
0010
0000
1000
0000
0010
,
0000
0001
0010
0100
0010
0000
0000
0000
,
0000
0001
0001
0100
0010
0000
1000
0000
,
0001
0000
0010
0000
1000
0010
0000
0001
,
0000
1000
1000
0100
0010
0000
0001
0000
,
1000
0000
0010
0000
0001
0010
0000
1000
,
0000
0001
0001
0010
0100
0000
1000
0000
,
0001
0000
0100
0000
1000
0100
0000
0001
,
0000
1000
1000
0010
0100
0000
0001
0000
,
2000
0000
3000
0000
,
0002
0000
0000
0000
,
0023
0000
0000
0000
,
0230
0000
0000
0000
,
2300
0000
0000
0000
,
3020
0000
0000
0000
,
0230
0000
0000
0000
,
0302
0000
0000
0000
,
2003
0000
3000
0000
,
1001
0000
0000
0001
0000
1000
0000
0001
,
0000
0001
0100
0000
0010
0000
0000
0000
,
1001
0000
0000
1000
0000
0001
0000
1000
,
0000
1000
0100
0000
0010
0000
0000
0000
,
0110
0000
0000
0001
0000
0100
0000
1000
,
0000
0100
0100
0000
0010
0000
0000
0000
,
0110
0000
0000
1000
0000
0100
0000
0001
,
0000
0100
0100
0000
0010
0000
0000
0000
,
0001
0001
0100
0100
,
0010
0010
1000
1000
,
0001
0100
0001
0000
1000
0100
1000
0000
,
0001
0010
0001
0000
1000
0010
1000
0000
,
0001
0010
0100
0000
1000
0010
0100
0000
,
0001
0100
0010
0000
1000
0100
0010
0000
,
0100
0010
0100
0010
0100
0010
0100
0000
,
0000
0000
0000
0000
,
1100
0000
0000
0100
0000
0010
0000
0001
,
0000
0100
1000
0000
0110
0000
0000
0000
,
0101
0000
0000
0100
0000
0010
0000
1000
,
0000
0100
0001
0000
0110
0000
0000
0000
,
1001
0000
0000
0010
0000
1000
0000
0010
,
0000
0001
0010
0000
1000
0000
0000
0000
,
1001
0000
0000
0010
0000
0001
0000
0010
,
0000
1000
0010
0100
0010
0000
0000
0000
,
1000
0100
0010
0000
0001
0000
0100
0000
,
0010
1000
0010
0000
0100
0000
0000
0000
,
0001
0100
0010
0000
1000
0000
0100
0000
,
0010
0001
0010
0000
0100
0000
0000
0000
,
1000
0001
0100
0000
1000
0000
0100
0000
,
0010
0100
0010
0000
1000
0000
0000
0000
,
0001
1000
0100
0000
0001
0000
0100
0000
,
0010
0100
0010
0100
0010
0000
0000
0000
,
0002
0103
2000
3010
,
0002
0103
2000
3010
,
0002
0013
2000
3100
,
0020
0031
0200
0310
,
1000
0010
1000
0000
0010
0100
0010
0000
,
0100
0001
0100
0000
0001
0010
0001
0000
,
0010
0100
1000
0000
0010
0100
0001
0000
,
1000
0010
0001
0100
,
1001
0000
0000
0000
;

//---------------dance-single - NewbStepper-BSP----------------
#NOTES:
     dance-single:
     NewbStepper:
     Easy:
     6:
     0.259836,0.341035,0.092627,0.126309,0,216,205,11,15,0,0,0.259836,0.341035,0.092627,0.126309,0,216,205,11,15,0,0:
0000
0000
0000
0000
,
0010
0000
0000
0010
0000
0000
0000
0000
,
0001
1000
0001
0000
,
0010
0000
0000
0010
0000
0000
0000
0000
,
1000
0001
1000
0000
,
0100
0000
0000
0100
0000
0000
0000
0000
,
0001
1000
0001
0000
,
0100
0000
0000
0100
0000
0000
0000
0000
,
1000
0001
1000
0000
,
0010
0100
0010
0000
,
0001
1000
0001
0000
,
0100
0010
0100
0000
,
1000
0001
1000
0000
,
0001
0000
0100
0000
,
0010
0000
1000
0000
,
0100
0010
0100
0010
,
0100
0000
0000
0000
,
1001
0000
0000
1000
0000
0010
0000
1000
,
0000
0001
0010
0000
,
1001
0000
0000
0001
0000
0010
0000
0001
,
0000
1000
0010
0000
,
1001
0000
0000
0010
0000
0001
0000
0010
,
0000
0100
0010
0000
,
1001
0000
0000
0100
0000
1000
0000
0100
,
0000
0010
0100
0000
,
0001
0010
0100
1000
,
0001
0100
0101
0000
,
1000
0100
0010
0001
,
1000
0100
1100
0000
,
0010
0001
0100
1000
,
0100
0001
0010
0000
,
0001
0100
0010
1000
,
0002
0000
0003
0000
,
2000
0000
0000
0000
,
0000
0000
3000
0000
,
0002
0000
0000
0000
,
0000
0000
0003
0000
,
2000
0000
0000
0000
,
0000
0000
3000
0000
,
0020
0000
0000
0000
,
0000
0000
0030
0000
,
0010
0000
0000
0010
0000
0000
0000
0000
,
1000
0001
1000
0000
,
0010
0000
0000
0010
0000
0000
0000
0000
,
0001
1000
0001
0000
,
0100
0000
0000
0100
0000
0000
0000
0000
,
1000
0001
1000
0000
,
0100
0000
0000
0100
0000
0000
0000
0000
,
0001
1000
0001
0000
,
2000
3000
0200
0300
,
0020
0030
0002
0003
,
1000
1000
0100
0100
,
0010
0010
0001
0001
,
0200
0000
0000
0000
,
0020
0000
0000
0000
,
0000
0000
0000
0330
,
0000
0000
0000
0000
,
1001
0000
0000
0001
0000
0010
0000
0001
,
0000
1000
0010
0000
,
1001
0000
0000
1000
0000
0010
0000
1000
,
0000
0001
0010
0000
,
1001
0000
0000
0010
0000
1000
0000
0010
,
0000
0100
0010
0000
,
1001
0000
0000
0100
0000
0001
0000
0100
,
0000
0010
0100
0000
,
1000
0100
0001
0100
,
1000
0010
0100
0100
,
0001
0100
1000
0100
,
0001
0010
0100
0100
,
1000
0010
0001
0010
,
1000
0100
0010
0010
,
0001
0010
1000
0010
,
0001
0100
0010
0000
,
2000
0000
0000
3000
,
0002
0000
0000
0003
,
0200
0000
0000
0300
,
0020
0000
0000
0030
,
1000
1000
0100
0001
,
0001
0100
1000
1000
,
0010
0001
0001
0010
,
1000
0100
0010
0001
,
1001
0000
0000
0000
;

//---------------dance-single - NewbStepper-bSP----------------
#NOTES:
     dance-single:
     NewbStepper:
     Beginner:
     3:
     0.141948,0.204621,0.084206,0.033683,0,118,108,10,4,0,0,0.141948,0.204621,0.084206,0.033683,0,118,108,10,4,0,0:
0000
0000
0000
0000
,
1001
0000
0000
0000
,
0000
0000
0000
0000
,
1001
0000
0000
0000
,
0000
0000
0000
0000
,
1001
0000
0000
0000
,
0000
0000
0000
0000
,
1001
0000
0000
0000
,
0000
0000
0000
0000
,
0010
0000
0010
0000
,
0001
0000
0001
0000
,
0100
0000
0100
0000
,
0010
0000
0010
0000
,
1000
0000
1000
0000
,
0001
0000
0001
0000
,
0200
0000
0000
0300
,
0000
0000
0000
0000
,
0001
0000
1000
0000
,
0001
0001
0001
0000
,
1000
0000
0001
0000
,
1000
1000
1000
0000
,
0100
0000
0010
0000
,
0100
0100
0100
0000
,
0010
0000
0100
0000
,
0010
0010
0010
0000
,
1000
0000
0001
0000
,
1000
0000
1000
0000
,
0001
0000
1000
0000
,
0001
0000
0001
0000
,
0100
0000
0010
0000
,
0100
0000
0100
0000
,
0010
0000
1000
0000
,
0002
0000
0000
0003
,
1000
0000
0000
0000
,
0000
0000
0000
0000
,
0000
0000
0000
0000
,
0000
0000
0000
0000
,
0001
0000
0000
0000
,
0000
0000
0000
0000
,
0000
0000
0000
0000
,
0000
0000
0000
0000
,
1001
0000
0000
0000
,
0000
0000
0000
0000
,
1001
0000
0000
0000
,
0000
0000
0000
0000
,
1001
0000
0000
0000
,
0000
0000
0000
0000
,
1001
0000
0000
0000
,
0000
0000
0000
0000
,
0220
0000
0000
0000
,
0000
0000
0000
0000
,
0000
0000
0000
0000
,
0000
0000
0000
0000
,
0000
0000
0000
0000
,
0000
0000
0000
0000
,
0000
0000
0000
0330
,
0000
0000
0000
0000
,
1000
0000
0001
0000
,
1000
1000
1000
0000
,
0001
0000
1000
0000
,
0001
0001
0001
0000
,
0100
0000
0010
0000
,
0100
0100
0100
0000
,
0010
0000
0100
0000
,
0010
0010
0010
0000
,
1000
0000
1000
0000
,
0001
0001
0001
0000
,
0100
0000
0100
0000
,
0010
0010
0010
0000
,
0001
0000
0001
0000
,
1000
1000
1000
0000
,
0010
0000
0010
0000
,
0100
0100
0100
0000
,
0001
0000
0000
0000
,
0001
0000
0000
0000
,
0001
0000
0000
0000
,
0001
0000
0000
0000
,
1000
0000
0000
0000
,
1000
0000
0000
0000
,
1000
0000
0000
0000
,
1000
0000
0000
0000
,
1001
0000
0000
0000
;

//---------------dance-double - NewbStepper-EDP----------------
#NOTES:
     dance-double:
     NewbStepper:
     Hard:
     13:
     0.532905,0.579760,0.261039,0.109468,0.012631,443,412,31,13,0,0,0.532905,0.579760,0.261039,0.109468,0.012631,443,412,31,13,0,0:
// measure 0
00000000
00000000
00000000
00000000
,  // measure 1
00011000
00000000
00000000
00011000
00000000
00100000
00000000
10000000
,  // measure 2
00000000
10000000
01000000
00000000
01100000
00000000
00000000
00000000
,  // measure 3
00011000
00000000
00000000
00011000
00000000
00000010
00000000
00000001
,  // measure 4
00000000
00000001
00000100
00000000
00000110
00000000
00000000
00000000
,  // measure 5
00001001
00000000
00000000
00000001
00000000
00000100
00000000
00001000
,  // measure 6
00000000
01000000
00010000
00000000
01010000
00000000
00000000
00000000
,  // measure 7
10010000
00000000
00000000
10000000
00000000
01000000
00000000
00010000
,  // measure 8
00000000
00000100
00000001
00000100
00001000
00000000
00000000
00000000
,  // measure 9
00000001
00000100
00001000
00010000
01000000
10000000
00010000
00000000
,  // measure 10
10000000
01000000
00010000
00001000
00000100
00000001
00001000
00000000
,  // measure 11
00000001
00000010
00001000
00010000
00100000
10000000
00010000
00000000
,  // measure 12
10000000
00100000
00010000
00001000
00000010
00000001
00001000
00000000
,  // measure 13
00000001
00000100
00000001
00000100
00000010
00001000
00010000
00001000
,  // measure 14
00010000
01000000
00010000
00100000
01000000
10000000
00010000
00000000
,  // measure 15
10000000
01000000
00000000
00010000
00000000
00001000
00010000
00001000
,  // measure 16
00000000
00000000
00000000
00000000
,  // measure 17
00000110
00000000
00000001
00000100
00000000
00000100
00001000
00010000
,  // measure 18
00000000
00010000
00000010
00000000
00010000
01000000
10000000
00000000
,  // measure 19
01100000
00000000
10000000
01000000
00000000
01000000
00010000
00001000
,  // measure 20
00000000
00001000
00100000
00000000
00001000
00000100
00000001
00000000
,  // measure 21
00000110
00000000
00000001
00000010
00000000
00001000
00000010
00000001
,  // measure 22
00000000
00001000
00010000
00000000
01000000
00100000
10000000
00000000
,  // measure 23
01100000
00000000
10000000
00100000
00000000
00010000
00100000
10000000
,  // measure 24
00000000
01000000
00010000
00001000
00010000
00000000
00000000
00000000
,  // measure 25
00000010
00010000
00001000
00000010
00001000
00010000
00100000
01000000
,  // measure 26
00100000
00000000
00000000
00000000
00100000
00000000
00000000
10000000
01000000
00000000
00010000
00000000
00000000
00000000
00011000
00000000
,  // measure 27
00000000
00001000
00010000
00100000
00010000
00001000
00000010
00000100
,  // measure 28
00000010
00000000
00000000
00000000
00000010
00000000
00000000
00000001
00000100
00000000
00001000
00000000
00000000
00000000
00011000
00000000
,  // measure 29
00000000
00100000
01000000
00100000
00010000
00001000
00000100
00000010
,  // measure 30
00000001
00000000
00000000
00000000
00001000
00000000
00000000
00000001
00000010
00000000
00001000
00000000
00000000
00000000
00011000
00000000
,  // measure 31
00000000
00000010
00000100
00000010
00001000
00010000
01000000
00000000
,  // measure 32
00200000
00000000
00300000
00000000
,  // measure 33
20010000
00000000
00000000
00000000
,  // measure 34
00020000
00000000
30000000
00000000
,  // measure 35
00002000
00000000
00030000
00000000
,  // measure 36
00000002
00000000
00003000
00000000
,  // measure 37
00000020
00000000
00000003
00000000
,  // measure 38
00002000
00000000
00000030
00000000
,  // measure 39
02000000
00000000
00003000
00000000
,  // measure 40
00020000
00000000
03030000
00000000
,  // measure 41
00011000
00000000
00000000
00011000
00000000
00000010
00000000
00000001
,  // measure 42
00000000
00000001
00000100
00000000
00000110
00000000
00000000
00000000
,  // measure 43
00011000
00000000
00000000
00011000
00000000
00100000
00000000
10000000
,  // measure 44
00000000
10000000
01000000
00000000
01100000
00000000
00000000
00000000
,  // measure 45
10010000
00000000
00000000
10000000
00000000
01000000
00000000
00010000
,  // measure 46
00000000
00000100
00001000
00000000
00001100
00000000
00000000
00000000
,  // measure 47
00001001
00000000
00000000
00000001
00000000
00000100
00000000
00001000
,  // measure 48
00000000
01000000
10000000
01000000
00010000
00000000
00000000
00000000
,  // measure 49
10000000
01000000
10000000
01000000
00100000
00010000
00100000
00010000
,  // measure 50
00001000
00000100
00001000
00000100
00000010
00000001
00000010
00000001
,  // measure 51
00000100
00000010
00001000
00000001
00000100
00001000
00010000
01000000
,  // measure 52
00010000
00000100
00001000
00010000
00100000
00001000
00010000
00100000
,  // measure 53
10000000
01000000
00010000
00001000
00100000
00010000
00001000
00000100
,  // measure 54
00001000
00000001
00000100
00001000
01000000
00001000
00010000
01000000
,  // measure 55
00010000
00000010
00010000
00100000
10000000
01000000
00100000
00010000
,  // measure 56
00000000
00000000
00000000
00000000
,  // measure 57
01100000
00000000
10000000
01000000
00000000
01000000
00010000
00001000
,  // measure 58
00000000
00001000
00100000
00000000
00001000
00000100
00000001
00000000
,  // measure 59
00000110
00000000
00000001
00000100
00000000
00000100
00001000
00010000
,  // measure 60
00000000
00010000
00000010
00000000
00010000
01000000
10000000
00000000
,  // measure 61
01100000
00000000
10000000
00100000
00000000
00010000
00100000
10000000
,  // measure 62
00000000
00010000
00001000
00000000
00000100
00000010
00000001
00000000
,  // measure 63
00000110
00000000
00000001
00000010
00000000
00001000
00000010
00000001
,  // measure 64
00000000
00000100
00001000
00010000
00001000
00000000
00000000
00000000
,  // measure 65
00100000
00010000
00001000
00010000
00100000
00001000
00010000
00100000
,  // measure 66
00010000
00000010
00001000
00000100
00000001
00000100
00001000
00000000
,  // measure 67
00000010
00001000
00010000
00001000
00000010
00010000
00001000
00000010
,  // measure 68
00001000
00100000
00010000
01000000
10000000
01000000
00010000
00000000
,  // measure 69
10000000
01000000
00010000
10000000
00100000
00010000
00001000
00000100
,  // measure 70
00000010
00000001
00000100
00001000
00010000
00000100
00000010
00000000
,  // measure 71
00000001
00000100
00001000
00000001
00000010
00001000
00010000
01000000
,  // measure 72
00100000
10000000
01000000
00010000
00001000
00000100
00000001
00000000
,  // measure 73
00002000
00000010
00000001
00000100
,  // measure 74
00023000
00100000
10000000
01000000
,  // measure 75
00032000
00000010
00000001
00000100
,  // measure 76
00023000
00100000
10000000
01000000
,  // measure 77
00031000
00000100
00010000
00000100
00000010
00000001
00001000
00000001
,  // measure 78
00000100
00001000
00010000
00100000
00010000
00000010
00001000
00010000
,  // measure 79
01000000
00010000
00100000
10000000
00100000
00010000
00001000
00000100
,  // measure 80
00000001
00000100
00010000
00001000
01000000
00001000
00010000
00000000
,  // measure 81
00011000
00000000
00000000
00000000
;

//---------------dance-double - NewbStepper-DDP----------------
#NOTES:
     dance-double:
     NewbStepper:
     Medium:
     9:
     0.376522,0.443346,0.176833,0.075786,0,313,292,21,9,0,0,0.376522,0.443346,0.176833,0.075786,0,313,292,21,9,0,0:
00000000
00000000
00000000
00000000
,
10010000
00000000
00000000
10000000
00000000
00010000
00000000
10000000
,
00000000
10000000
01000000
00000000
00010000
00000000
00000000
00000000
,
00011000
00000000
00000000
00001000
00000000
00010000
00000000
00001000
,
00000000
00001000
00000010
00000000
00000100
00000000
00000000
00000000
,
00001001
00000000
00000000
00000001
00000000
00001000
00000000
00000001
,
00000000
00000001
00000100
00000000
00001000
00000000
00000000
00000000
,
00011000
00000000
00000000
00001000
00000000
00010000
00000000
00001000
,
00000000
01000000
01000000
00000000
00100000
00000000
00000000
00000000
,
10000000
00000000
00000000
01000000
00000000
00010000
00000000
00000000
,
00001000
00000000
00000000
00000100
00000000
00000001
00000000
00000000
,
00000001
00000000
00000000
00000010
00000000
00001000
00000000
00000000
,
00010000
00000000
00000000
00100000
00000000
10000000
00000000
00000000
,
00010000
00010000
01000000
01000000
,
00001000
00001000
00010000
00010000
,
00000100
00000010
00000100
00000010
00000100
00000010
00000100
00000000
,
00000000
00000000
00000000
00000000
,
00001100
00000000
00000000
00000010
00000000
00000001
00000000
00000100
,
00000000
00001000
00010000
00000000
00011000
00000000
00000000
00000000
,
01010000
00000000
00000000
00100000
00000000
10000000
00000000
01000000
,
00000000
00010000
00001000
00000000
00011000
00000000
00000000
00000000
,
00000110
00000000
00000000
00000010
00000000
00000001
00000000
00000010
,
00000000
00001000
00000010
00000000
00010000
00000000
00000000
00000000
,
01100000
00000000
00000000
00100000
00000000
10000000
00000000
00100000
,
00000000
01000000
00010000
00001000
00010000
00000000
00000000
00000000
,
00000000
00000100
00000100
00000010
00000001
00000000
00000100
00000000
,
00000001
00000000
00000010
00000000
00001000
00010000
00000000
00001000
,
00000000
01000000
01000000
00100000
10000000
00000000
01000000
00000000
,
10000000
00000000
00100000
00000000
00010000
00001000
00000000
00010000
,
00000000
00000010
00000010
00000100
00000001
00000000
00000010
00000000
,
00000001
00000000
00000100
00000000
00001000
00010000
00000000
00001000
,
00000000
00100000
00100000
01000000
10000000
00000000
01000000
00000000
,
00200000
00000000
00000000
00300000
,
00020000
00000000
00000000
00000000
,
00230000
00000000
00000000
00000000
,
00302000
00000000
00000000
00000000
,
00023000
00000000
00000000
00000000
,
00030020
00000000
00000000
00000000
,
00000230
00000000
00000000
00000000
,
00000302
00000000
00000000
00000000
,
00002003
00000000
00003000
00000000
,
00001001
00000000
00000000
00000001
00000000
00001000
00000000
00000001
,
00000000
00000001
00000100
00000000
00001000
00000000
00000000
00000000
,
00011000
00000000
00000000
00010000
00000000
00001000
00000000
00010000
,
00000000
00010000
00100000
00000000
01000000
00000000
00000000
00000000
,
10010000
00000000
00000000
10000000
00000000
00010000
00000000
10000000
,
00000000
10000000
01000000
00000000
00010000
00000000
00000000
00000000
,
00011000
00000000
00000000
00001000
00000000
00010000
00000000
00001000
,
00000000
00000100
00000100
00000000
00000010
00000000
00000000
00000000
,
00001000
00001000
00000100
00000100
,
00010000
00010000
00001000
00001000
,
00100000
00100000
01000000
01000000
,
00010000
00010000
00001000
00001000
,
00000010
00000010
00000001
00000001
,
00000100
00001000
00010000
00100000
,
01000000
00100000
01000000
00100000
01000000
00100000
01000000
00000000
,
00000000
00000000
00000000
00000000
,
01010000
00000000
00000000
00100000
00000000
10000000
00000000
01000000
,
00000000
00010000
00001000
00000000
00011000
00000000
00000000
00000000
,
00001100
00000000
00000000
00000010
00000000
00000001
00000000
00000100
,
00000000
00001000
00010000
00000000
00011000
00000000
00000000
00000000
,
01100000
00000000
00000000
00100000
00000000
10000000
00000000
00100000
,
00000000
00010000
00100000
00000000
00001000
00000000
00000000
00000000
,
00000110
00000000
00000000
00000010
00000000
00000001
00000000
00000010
,
00000000
00000100
00001000
00010000
00001000
00000000
00000000
00000000
,
01000000
00010000
01000000
00000000
00100000
00000000
10000000
00000000
,
01000000
00100000
01000000
00000000
00010000
00000000
00000000
00000000
,
00000100
00001000
00000100
00000000
00000010
00000000
00000001
00000000
,
00000100
00000010
00000100
00000000
00001000
00000000
00000000
00000000
,
00100000
00010000
00100000
00000000
01000000
00000000
10000000
00000000
,
00100000
01000000
00100000
00000000
00010000
00000000
00000000
00000000
,
00000010
00001000
00000010
00000100
00000000
00000001
00000000
00000010
,
00000000
00001000
00010000
00001000
00010000
00000000
00000000
00000000
,
00100000
10000000
00100000
10000000
,
01000000
00010000
01000000
00010000
,
00001000
00100000
00001000
00100000
,
00001000
00010000
00001000
00010000
,
00000100
00001000
00000100
00000000
00000010
00000001
00000010
00000000
,
00000100
00000010
00000100
00000000
00010000
00001000
00010000
00000000
,
00001000
00100000
00001000
00000000
01000000
00100000
01000000
00000000
,
10000000
00100000
00010000
00001000
,
00011000
00000000
00000000
00000000
;

//---------------dance-double - NewbStepper-BDP----------------
#NOTES:
     dance-double:
     NewbStepper:
     Easy:
     7:
     0.253822,0.341035,0.075786,0.126309,0,211,202,9,15,0,0,0.253822,0.341035,0.075786,0.126309,0,211,202,9,15,0,0:
00000000
00000000
00000000
00000000
,
00000010
00000000
00000000
00000010
00000000
00000000
00000000
00000000
,
00000001
00001000
00000001
00000000
,
00000010
00000000
00000000
00000010
00000000
00000000
00000000
00000000
,
00001000
00000001
00001000
00000000
,
00000100
00000000
00000000
00000100
00000000
00000000
00000000
00000000
,
00010000
00001000
00010000
00000000
,
01000000
00000000
00000000
01000000
00000000
00000000
00000000
00000000
,
10000000
00010000
10000000
00000000
,
00100000
01000000
00100000
00000000
,
00010000
00001000
00010000
00000000
,
00000100
00000010
00000100
00000000
,
00000001
00001000
00000001
00000000
,
00001000
00000000
00000100
00000000
,
00010000
00000000
00001000
00000000
,
00100000
01000000
00100000
01000000
,
00100000
00000000
00000000
00000000
,
10010000
00000000
00000000
01000000
00000000
00100000
00000000
01000000
,
00000000
00001000
00010000
00000000
,
00001001
00000000
00000000
00000100
00000000
00000010
00000000
00000100
,
00000000
00010000
00001000
00000000
,
10010000
00000000
00000000
00100000
00000000
01000000
00000000
00100000
,
00000000
00001000
00010000
00000000
,
00001001
00000000
00000000
00000010
00000000
00000100
00000000
00000010
,
00000000
00010000
00001000
00000000
,
00000010
00000001
00000100
00000010
,
00001000
00000100
00010000
00000000
,
00100000
10000000
01000000
00100000
,
00010000
01000000
00001000
00000000
,
00000100
00000001
00000010
00000100
,
00001000
00000010
00010000
00000000
,
00100000
10000000
01000000
00100000
,
00020000
00000000
00030000
00000000
,
20000000
00000000
00000000
00000000
,
00000000
00000000
30000000
00000000
,
00020000
00000000
00000000
00000000
,
00000000
00000000
00030000
00000000
,
00002000
00000000
00000000
00000000
,
00000000
00000000
00003000
00000000
,
00000002
00000000
00000000
00000000
,
00000000
00000000
00000003
00000000
,
00000010
00000000
00000000
00000010
00000000
00000000
00000000
00000000
,
00000001
00001000
00000001
00000000
,
00000010
00000000
00000000
00000010
00000000
00000000
00000000
00000000
,
00001000
00000001
00001000
00000000
,
00000100
00000000
00000000
00000100
00000000
00000000
00000000
00000000
,
00010000
00001000
00010000
00000000
,
01000000
00000000
00000000
01000000
00000000
00000000
00000000
00000000
,
10000000
00010000
10000000
00000000
,
00020000
00030000
00200000
00300000
,
00002000
00003000
00020000
00030000
,
00000100
00000100
00001000
00001000
,
00000010
00000010
00000100
00000100
,
00000002
00000000
00000000
00000000
,
00002000
00000000
00000000
00000000
,
00000000
00000000
00000000
00003003
,
00000000
00000000
00000000
00000000
,
00001001
00000000
00000000
00000100
00000000
00000010
00000000
00000100
,
00000000
00010000
00001000
00000000
,
10010000
00000000
00000000
01000000
00000000
00100000
00000000
01000000
,
00000000
00001000
00010000
00000000
,
00001001
00000000
00000000
00000010
00000000
00000100
00000000
00000010
,
00000000
00010000
00001000
00000000
,
10010000
00000000
00000000
00100000
00000000
01000000
00000000
00100000
,
00000000
00001000
00010000
00000000
,
00000010
00001000
00000100
00000001
,
00000100
00001000
00000010
00000000
,
00010000
00000010
00001000
00000100
,
00001000
00000010
00010000
00000000
,
00001000
00100000
00010000
01000000
,
00010000
00100000
00001000
00000000
,
00100000
00010000
01000000
10000000
,
01000000
00010000
00100000
00000000
,
00020000
00000000
00000000
00030000
,
00200000
00000000
00000000
00300000
,
00002000
00000000
00000000
00003000
,
00000020
00000000
00000000
00000030
,
00000001
00000001
00000100
00001000
,
00001000
00000100
00000010
00000010
,
00010000
00001000
00001000
00010000
,
00100000
10000000
01000000
00100000
,
01100000
00000000
00000000
00000000
;
