#TITLE:Something Worth A Wish;
#ARTIST:Daniel Van Eden;
#BANNER:Something Worth A Wish.png;
#BACKGROUND:Something Worth A Wish-bg.png;
#MUSIC:Something Worth A Wish.ogg;
#OFFSET:1.588;
#SAMPLESTART:38.425;
#SAMPLELENGTH:15;
#BPMS:0=150,228=165,244=170,254=180;

//---------------dance-single - XX Team-CSP----------------
#NOTES:
     dance-single:
     XX Team:
     Challenge:
     16:
     0.752809,0.978050,0.231865,0.351311,0.421573,750,717,33,50,0,0,0.752809,0.978050,0.231865,0.351311,0.421573,750,717,33,50,0,0:
// measure 0
0000
0000
0000
0000
,  // measure 1
0000
0000
0000
0000
,  // measure 2
0000
0000
0000
0000
,  // measure 3
0000
0000
0000
0000
,  // measure 4
0000
0000
0000
0000
,  // measure 5
0001
0100
0010
0001
0010
1000
0000
0010
,  // measure 6
1000
0100
0010
1000
0010
0001
0000
0100
,  // measure 7
0001
0010
0100
0001
0100
1000
0000
0010
,  // measure 8
0200
0000
0000
0000
0000
0000
0302
0000
0000
0000
0000
0000
1003
0000
0010
0100
,  // measure 9
0010
0000
1000
0000
0100
0000
0010
0000
0000
0000
0001
0100
0010
0000
0100
0000
,  // measure 10
0001
1000
0100
0001
1000
0010
0001
1000
,  // measure 11
0010
0000
1000
0000
0100
0000
1000
0000
0000
0000
0010
1000
0100
0000
0020
0000
,  // measure 12
0000
0031
0010
0100
0001
0100
1000
0001
,  // measure 13
0100
0000
0001
0000
0011
0000
0100
0000
0000
0000
1000
0010
0100
0000
0010
0000
,  // measure 14
1000
0000
0010
0000
1010
0000
1000
0001
0100
0000
0001
0000
1001
0000
1000
0000
,  // measure 15
0100
1000
0010
0000
0100
0000
0010
0000
0100
0001
0010
0000
0100
1000
0001
0000
,  // measure 16
0100
0000
0001
0000
0010
0000
1000
0000
0010
0001
1000
0001
0100
0001
1000
0010
,  // measure 17
1000
0100
0010
0002
0000
0103
0001
0000
,  // measure 18
0001
0100
0010
2000
0000
3001
2000
0000
,  // measure 19
0020
0000
0030
0200
0000
0300
0000
0000
,  // measure 20
3001
0000
0100
0000
1000
0000
0010
0000
0001
0000
0100
0000
0001
1000
0100
1000
,  // measure 21
0020
0000
0100
0000
0130
0000
0002
0000
0100
0000
0103
0000
0001
0010
0100
1000
,  // measure 22
0200
0000
0010
0000
0310
0000
2000
0000
0010
0000
3010
0100
1000
0000
0010
1000
,  // measure 23
0001
0000
0010
0000
0010
0000
1100
0000
0010
0000
0010
0000
1001
0000
1000
0010
,  // measure 24
0100
0010
0010
0101
0010
0010
1001
1000
,  // measure 25
1010
0010
0100
0002
0000
0013
0001
0100
,  // measure 26
0001
0000
0010
0000
0100
0000
0001
0000
1000
0000
0010
0000
0100
0000
1000
0010
,  // measure 27
0100
1000
0100
0010
1000
0100
0010
1000
,  // measure 28
0001
0000
0100
0000
1000
0000
0010
0000
0001
0000
1000
0100
0000
0010
0100
0001
,  // measure 29
0010
0000
0001
0000
0100
0000
0001
0000
0010
0000
0001
0000
0100
0000
0010
1000
,  // measure 30
0010
0000
1000
0000
0100
0000
1000
0000
0010
0000
1000
0000
0100
0000
0010
0001
,  // measure 31
1000
0010
1000
0010
0100
0001
0100
0001
1000
0100
0010
0001
0100
0010
1000
0100
,  // measure 32
0020
0000
0000
0030
,  // measure 33
1001
0000
0001
0000
1000
0010
0100
0000
0002
0000
0000
0000
1003
0100
0001
0000
,  // measure 34
0001
0100
1000
0000
1001
0000
0001
0000
0201
0000
0000
0000
0310
0000
1010
0000
,  // measure 35
1001
0000
1000
0000
0001
0010
0100
0000
2000
0000
0000
0000
3001
0100
1000
0000
,  // measure 36
1000
0100
0001
0000
1000
0000
0001
0100
0010
0000
1000
0000
0001
0000
0100
0000
,  // measure 37
2000
0000
3100
0010
2000
0000
3001
0010
,  // measure 38
2000
0000
0000
0000
3001
0000
0100
0010
0001
0000
1000
0000
0010
0000
0100
0000
,  // measure 39
0020
0000
0001
0000
1000
0000
0130
0001
,  // measure 40
1000
0000
0000
0000
0000
0000
0000
0000
0000
1100
0000
0000
0000
0000
0000
0000
0000
0000
0110
0000
0000
0000
0000
0000
0012
0000
0000
0000
0000
0000
1003
0000
0000
0000
0000
0000
0001
0000
1000
0000
0001
0000
1000
0000
0000
0000
0000
0000
,  // measure 41
1001
0000
0001
0000
1000
0100
0010
0000
2000
0000
0000
0000
3010
0001
1000
0000
,  // measure 42
1000
0010
0001
0000
0011
0000
0010
0000
2010
0000
0000
0000
3001
0000
1001
0000
,  // measure 43
1010
0000
1000
0000
0001
0010
0100
0000
0002
0000
0000
0000
0103
1000
0100
1000
,  // measure 44
0001
0100
0010
1000
0001
1000
0100
0000
2000
0000
3001
0010
0100
0000
1100
0000
,  // measure 45
1001
0000
0001
0000
1000
0100
0001
0000
0200
0000
0000
0000
0310
0001
1000
0000
,  // measure 46
0001
0100
1000
0000
0100
0000
0010
0000
2000
0000
0000
0000
3001
0000
0100
0010
,  // measure 47
1000
0001
1000
0100
0010
0001
1000
0010
1000
0001
0100
1000
0100
0001
1000
0100
,  // measure 48
0010
0000
0001
0000
0101
0000
0100
0010
1000
0000
0010
0000
0010
0100
0001
0000
,  // measure 49
0101
0100
0010
0200
0000
0301
0101
0000
,  // measure 50
0011
0010
0001
2000
0000
3001
0011
1000
,  // measure 51
0010
0000
0100
0000
1000
0000
0020
0000
0000
0000
0130
0000
0001
0100
0010
0000
,  // measure 52
1000
0100
0010
0001
1000
0001
0100
0010
,  // measure 53
1001
0000
0001
0000
1001
0000
2000
0000
0000
0000
3010
0000
0010
0100
0010
0000
,  // measure 54
0100
0000
0001
0000
0010
0000
0100
1000
0010
0000
0000
1010
0000
0000
0101
0000
,  // measure 55
1000
0001
1000
0000
0100
0000
0001
0000
0100
0000
0010
0000
0001
0000
0100
0000
,  // measure 56
0010
0000
1000
0000
0001
0010
0100
0000
0010
0000
0001
0000
1000
0000
0010
0000
,  // measure 57
0100
0000
0001
0000
0010
0000
0000
0200
,  // measure 58
0000
0000
0000
0000
0000
0300
0000
0000
,  // measure 59
0010
0000
0001
1000
0000
0010
0000
0001
,  // measure 60
0000
0010
0000
0100
0010
1000
0001
0010
,  // measure 61
0100
0010
0001
0000
1000
0000
0000
0020
,  // measure 62
0000
0000
0000
0000
0000
0000
0130
0001
0100
0000
0001
0000
0010
0000
0100
0000
,  // measure 63
1000
0100
1000
0010
0100
0001
0010
0001
,  // measure 64
0100
0010
1000
0001
0010
0100
0010
0001
,  // measure 65
1000
0000
0100
1000
0002
0000
0103
0020
,  // measure 66
0000
0000
0000
0000
0000
0000
0130
0002
,  // measure 67
0000
0023
0230
2300
,  // measure 68
3010
0100
0001
2000
0000
3200
0000
0000
,  // measure 69
0300
0000
0020
0000
0230
0000
1300
0020
,  // measure 70
0000
0000
0230
0000
0310
1000
0000
0000
,  // measure 71
0001
0000
1000
0000
0010
0000
0100
0001
0000
0001
0010
0000
0100
1000
0010
0000
,  // measure 72
1001
0000
0000
0000
0000
0000
0000
0000
0001
0010
0001
0010
0100
1000
0100
1000
,  // measure 73
0001
0000
1000
0000
0010
0000
0100
0010
1000
0000
0001
0000
0020
0000
0000
0000
,  // measure 74
0031
0000
1000
0000
0010
0000
0100
0010
1000
0000
0001
0000
0010
0000
0100
0000
,  // measure 75
0001
0000
1000
0000
0010
0000
0001
0010
0100
0000
1000
0000
0001
0000
0100
0000
,  // measure 76
0010
0000
0001
0000
0010
0000
0100
0010
1000
0000
0001
0000
0010
0000
0100
0000
,  // measure 77
1000
0000
0001
0000
0010
0000
0100
0010
1000
0000
0010
0000
0001
0000
1000
0000
,  // measure 78
0010
0000
0001
0000
1000
0000
0001
0010
0100
0000
0010
0000
1000
0000
0001
0000
,  // measure 79
0010
0000
0001
0000
1000
0000
0100
0010
1000
0000
0010
0000
0001
0000
1000
0000
,  // measure 80
0010
0000
0100
0000
0001
0100
0010
1000
0001
0000
0100
0010
0001
0000
0010
0000
,  // measure 81
1000
0000
0001
0000
0010
0000
0001
0010
0100
0010
0001
0000
2000
0000
0000
0000
,  // measure 82
3001
0000
1000
0000
0010
0000
1000
0010
0100
0010
1000
0000
0001
0000
0010
0000
,  // measure 83
1000
0000
0010
0000
0100
0000
0001
0100
0010
0001
1000
0000
0001
1000
0100
0000
,  // measure 84
1000
0000
0001
0000
0100
0000
0010
0100
0001
0100
0010
0000
1000
0000
0001
0000
,  // measure 85
0010
0000
0100
0000
0001
0000
0100
1000
0100
1000
0001
0010
0100
0000
1000
0000
,  // measure 86
0001
0000
0100
0000
1000
0000
0001
0010
0100
0010
1000
0000
0001
0000
1000
0000
,  // measure 87
0100
0000
0001
0100
1000
0000
0001
0000
1000
0010
0100
0001
1000
0010
0100
0010
,  // measure 88
1000
0000
0001
0000
0010
0000
0001
0010
0100
0010
0001
0000
1000
0000
0010
0000
,  // measure 89
0100
0001
1000
0100
0100
0001
2000
0000
,  // measure 90
3010
1000
0001
0010
0010
1000
0001
1000
,  // measure 91
0100
0010
0001
0100
0010
1000
0100
0010
,  // measure 92
0001
0010
0001
0010
0100
1000
0100
1000
0001
0010
0100
0000
0010
0001
1000
0010
,  // measure 93
0200
0000
0000
0000
,  // measure 94
0000
0000
0000
0000
,  // measure 95
0000
0000
0000
0000
,  // measure 96
0300
0000
0000
0000
;

//---------------dance-double - XX Team-CDP----------------
#NOTES:
     dance-double:
     XX Team:
     Challenge:
     17:
     0.745783,1.011776,0.175656,0.597229,0.428600,743,718,25,85,0,0,0.745783,1.011776,0.175656,0.597229,0.428600,743,718,25,85,0,0:
00000000
00000000
00000000
00000000
,
00000000
00000000
00000000
00000000
,
00000000
00000000
00000000
00000000
,
00000000
00000000
00000000
00000000
,
00000000
00000000
00000000
00000000
,
00001000
01000000
00100000
10000000
00100000
00010000
00000000
00001000
,
00010000
00000100
00000010
00000001
00000010
00001000
00000000
00010000
,
00000100
00001000
00000010
00001000
00010000
01000000
00000000
00100000
,
00020000
00000000
00000000
00000000
00000000
00000000
00032000
00000000
00000000
00000000
00000000
00000000
00103000
00000000
00010000
01000000
,
00010000
00000000
00100000
00000000
01000000
00000000
10000000
00000000
00000000
00000000
00010000
01000000
00100000
00000000
20000000
00000000
,
00000000
30010000
01000000
00001000
00010000
00100000
00001000
00000010
,
00001000
00000000
00000100
00000000
00000010
00000000
00000001
00000000
00000000
00000000
00001000
00000100
00000010
00000000
00000002
00000000
,
00000000
00000103
00001000
00000100
00000010
00001000
00010000
01000000
,
00100000
00000000
10000000
00000000
01000000
00000000
00010000
00000000
00000000
00000000
00001000
00010000
00000100
00000000
00010000
00001000
,
00000010
00000000
00000001
00000000
00000100
00000000
00001000
00010000
00001000
00000000
00100000
00000000
00010000
00000000
00100000
00000000
,
01000000
00100000
01000000
00000000
00010000
00000000
00001000
00000000
00000100
00000010
00000100
00000000
00001000
00010000
00000010
00000000
,
00001000
00000000
00000001
00000000
00000100
00000000
00001000
00000000
00010000
00001000
01000000
00001000
00010000
00001000
00100000
00010000
,
10000000
01000000
00010000
00002000
00000000
00003010
00000001
00000000
,
00000001
00000100
00001000
00020000
00000000
00130000
10000000
00000000
,
10100000
00000000
00000000
01010000
00000000
00000000
00000000
00000000
,
00001000
00010000
01000000
00100000
00001000
01000000
00100000
00010000
,
00002000
00000000
00000010
00000000
00003010
00000000
00000200
00000000
00010000
00000000
00010300
00000000
00000100
00000000
00000010
00001000
,
00020000
00000000
00100000
00000000
00130000
00000000
02000000
00000000
00001000
00000000
03001000
00010000
01000000
00000000
00100000
00001000
,
00010000
00000000
00000100
00000000
00000100
00000000
00011000
00000000
00000100
00000000
00000100
00000000
00001010
00000000
00000010
00000100
,
00001000
01000000
01000000
00011000
01000000
01000000
00110000
00010000
,
10010000
10000000
01000000
00020000
00000000
00031000
00100000
00001000
,
00010000
00000000
00001000
00000000
00000010
00000000
00010000
00000000
00001000
00000000
00000100
00000000
00000001
00000000
00000100
00001000
,
00000001
00000100
00001000
00010000
00000010
00001000
00010000
00001000
,
00000010
00000000
00010000
00000000
00100000
00000000
00001000
00000000
00010000
00000000
01000000
00100000
00000000
10000000
01000000
00100000
,
00010000
00000000
00100000
00000000
00001000
00000000
00100000
00000000
01000000
00000000
00100000
00000000
00001000
00000000
00010000
00000010
,
00001000
00000000
00000010
00000000
00010000
00000000
00000010
00000000
00000100
00000000
00000010
00000000
00010000
00000000
00001000
01000000
,
00010000
01000000
00001000
01000000
00010000
01000000
00001000
00010000
00000100
00001000
00000100
00010000
00000100
00001000
00000100
00010000
,
00002000
00000000
00000000
00003000
,
00011000
00000000
00001000
00000000
01000000
00010000
00100000
00000000
02100000
00000000
00000000
00000000
13000000
01000000
10000000
00000000
,
01000000
00100000
00010000
00000000
01010000
00000000
01000000
00000000
01002000
00000000
00000000
00000000
00013000
00000000
00010000
00000000
,
00010000
00000000
00000020
00000000
00001030
00000100
00001000
00000000
00001002
00000000
00000000
00000000
00000103
00000001
00000100
00000000
,
00000010
00001000
00000010
00000000
00002000
00000000
00003100
00001000
00000020
00000000
00000230
00000000
00002300
00000000
00023000
00000000
,
00000100
00000000
00030020
00002030
00000100
00000000
00003020
00020030
,
00001000
00000000
00000000
00000000
00031000
00000000
00001000
00010000
00200000
00000000
02300000
00000000
03020000
00000000
00230000
00000000
,
01000000
00000000
10000000
00000000
01300000
00000000
00100000
00001000
,
00010000
00000000
00000000
00010000
00000000
00000000
00010000
00000000
00001000
00000000
00010000
00000000
00000100
00001000
00000010
00000000
,
00000100
00000000
00000001
00000000
00000100
00001000
00010000
00000000
00200000
00000000
00000000
00000000
10300000
00100000
10000000
00000000
,
01000000
00010000
00001000
00000000
00010000
00000000
00000100
00000000
00000020
00000000
00000000
00000000
00000031
00000000
00000001
00000000
,
00000001
00000000
00000100
00000000
00000010
00010000
00001000
00000000
02000000
00000000
00000000
00000000
03100000
10000000
00100000
10000000
,
01000000
10000000
01000000
10000000
00010000
00100000
00010000
00000000
01000000
00000000
01000000
00010000
00100000
00000000
00001000
00000000
,
00001000
00000000
00100000
00000000
01000000
00010000
00001000
00000000
00000200
00000000
00000000
00000000
00000310
00001000
00000010
00000000
,
00010000
00000100
00001000
00000000
00000010
00000000
00000010
00000000
00200000
00000000
00000000
00000000
00310000
00100000
00010000
00000000
,
01000000
00010000
01000000
00010000
00100000
00001000
00100000
00001000
00010000
00000100
00010000
00000100
00001000
00000010
00001000
00000010
,
00000100
00000000
00000010
00000000
00001010
00000000
00001000
00000100
00010000
00000010
00001000
00000000
00000010
00010000
00001000
00000000
,
01001000
01000000
00010000
00210000
00000000
10300000
00100000
00001000
,
00011000
00010000
00000010
00002010
00000000
00013000
00000100
00000001
,
00001001
00000000
00000000
00000001
00000000
00000000
00000010
00000000
00000000
00002000
00000000
00000000
00000000
00000000
00000000
00013000
00000000
00000000
00000100
00010000
00000100
00010000
00000000
00000000
,
00001000
00000000
01000000
00000000
10000000
00000000
00010000
00000000
00100000
00000000
01000000
00000000
00001000
00000000
00010000
00000100
,
00001000
00000000
00000000
00001001
00000000
00000000
00000101
00000000
00000000
00000200
00000000
00000000
00000000
00000000
00000000
00000310
00000000
00000000
00010000
00000010
00010000
00001000
00000000
00000000
,
01000000
00000000
00010000
00000000
10000000
00000000
01000000
00100000
00001000
00000000
00000000
00011000
00000000
00000000
00010010
00000000
,
00000010
00001000
00000010
00000100
00000000
00000000
00000001
00000000
00000000
00001000
00000000
00000000
00000010
00000000
00000000
00000100
00000000
00000000
00010000
00000000
00000000
00001000
00000000
00000000
,
00000010
00000000
00000000
00000000
00000000
00000000
00010000
00000000
00000000
00000000
00000000
00000000
00001000
00000000
00010000
00000000
00001000
00000000
01000000
00000000
00000000
00000000
00000000
00000000
00100000
00000000
00000000
00000000
00000000
00000000
10000000
00000000
00000000
00000000
00000000
00000000
01000000
00000000
00000000
00010000
00000000
00000000
00001000
00000000
00000000
00000000
00000000
00000000
,
00011000
00000000
00020000
00000000
00030200
00000000
00000001
00000302
,
00000000
00000103
00001000
00000010
00000000
00000100
00001000
00010000
,
00200000
00000000
10000000
20300000
00000000
32000000
00000000
03020000
,
00000000
00030200
00000000
00000310
00000001
00000001
00001000
00001000
,
00000010
00010000
00001000
00000000
02000000
00000000
10000000
23000000
,
00000000
00000000
00000000
00000000
31000000
00000000
00010000
01000000
00001000
00000000
00010000
00000000
00000100
00000000
00000010
00000000
,
00000001
00000100
00001000
00000001
00000010
00001000
00010000
01000000
,
00010000
00100000
10000000
00010000
01000000
10000000
00010000
01000000
,
00001000
00001000
00010000
00000010
00000200
00000000
00000301
00002000
,
00000000
00000000
00003100
00010000
00001000
00100000
10000000
00200000
,
00000000
00301000
00020000
00000000
00030020
00000000
00000230
00000000
,
00001300
00010000
00000100
00000020
00000000
00000032
00000000
00000000
,
00001003
00000010
00020000
00000000
00032000
00000000
01003000
20000000
,
00000000
00000000
32000000
00000000
03010000
00200000
00000000
00301000
,
00010000
00000100
00000010
00000001
00001000
00000010
00010000
00000000
,
00001000
00000000
00000000
00000000
00000000
00000000
00000000
00000000
00001000
00010000
00001000
01000000
00100000
01000000
00010000
10000000
,
01000000
00000000
00010000
00000000
00001000
00000000
00000200
00000010
00000000
00000000
00002300
00000000
00003200
00000000
00000301
00000010
,
00000100
00000000
00010000
00000000
00001000
00000000
02000000
00100000
00000000
00000000
23000000
00000000
32000000
00000000
03010000
00000000
,
00100000
00000000
10000000
00000000
00010000
00000000
02000000
00100000
00000000
00000000
13000000
00000000
01000000
00000000
00010000
00000000
,
00001000
00000000
00000100
00000000
00000001
00000000
00000010
00000100
00000000
00010000
00001000
00000000
00100000
00000000
01000000
10000000
,
00100000
00000000
00010000
00000000
00001000
00000000
00000020
00000100
00000000
00000000
00002030
00000000
00003020
00000000
00000031
00000100
,
00000010
00000000
00001000
00000000
00000100
00000000
00000001
00001000
00000000
00001000
00010000
00000000
00100000
00000000
00010000
00000000
,
10000000
00000000
01000000
00000000
00010000
00000000
00100000
00001000
00000000
00001000
00010000
00000000
00000010
00000000
00000100
00000000
,
00001000
00000000
00000100
00000000
00000001
00000000
00000010
00000000
00001000
00000000
00010000
00001000
00100000
00000000
01100000
00000000
,
01000000
00000000
00010000
00000000
00001000
00000000
00000200
00000010
00000000
00000000
00002300
00000000
00003200
00000000
00000301
00000010
,
00000100
00000000
00010000
00000000
00001000
00000000
02000000
00100000
00000000
00000000
23000000
00000000
32000000
00000000
03010000
00000000
,
00100000
00000000
10000000
00000000
00010000
00000000
00002000
00010000
00000000
00000000
00003200
00000000
00000310
00000000
00001000
00000000
,
00000001
00000000
00000010
00000000
00000100
00000000
00010000
00001000
00000000
00001000
01000000
00000000
00100000
00000000
10000000
00000000
,
01000000
00000000
00100000
00000000
10000000
00000000
00020000
00000000
00000000
00000000
00031000
00010000
01000000
00100000
00001000
00000000
,
00010000
00000000
00000010
00000000
00000001
00000000
00001000
00000100
00000000
00000100
00000010
00000000
00001000
00000000
00000001
00000000
,
00000010
00000000
00000100
00010000
00001000
00000000
00010000
00000000
00100000
10000000
00010000
00100000
01000000
00010000
00001000
00100000
,
00010000
00000000
01000000
00000000
00001000
00000000
00010000
00100000
00000000
00100000
01000000
00000000
00001000
00000000
00010000
00000000
,
00011000
00001000
00000100
00000002
00000000
00000013
00002000
00000000
,
00013000
00001000
00010000
00200000
00000000
10300000
02000000
00000000
,
03100000
00000000
00001000
00000000
00000000
00010000
00001000
00000000
,
00000010
00000100
00000010
00000100
00001000
00000001
00001000
00000001
00000100
00000001
00001000
00000100
00010000
00001000
00100000
00010000
,
20000000
00000000
00000000
00000000
,
00000000
00000000
00000000
00000000
,
00000000
00000000
00000000
00000000
,
30000000
00000000
00000000
00000000
;

//---------------dance-single - Kekkle-ESP----------------
#NOTES:
     dance-single:
     Kekkle:
     Hard:
     13:
     0.589199,0.674517,0.021079,0.428600,0.133498,587,584,3,61,0,0,0.589199,0.674517,0.021079,0.428600,0.133498,587,584,3,61,0,0:
// measure 0
0000
0000
0000
0000
,  // measure 1
0000
0000
0000
0000
,  // measure 2
0000
0000
0000
0000
,  // measure 3
0000
0000
0000
0000
,  // measure 4
0000
0000
0000
0000
,  // measure 5
0001
0000
0001
0000
0001
0000
0001
0100
,  // measure 6
0010
0000
0010
0000
0010
0000
0010
1000
,  // measure 7
0100
0000
0100
0000
0100
0000
0100
0010
,  // measure 8
0002
0000
0000
1000
0000
0000
0103
0010
,  // measure 9
1000
0000
0001
0000
1000
0000
0200
0000
0000
0000
0310
0001
0010
0000
0002
0000
,  // measure 10
0000
1003
0010
0100
0010
1000
0010
0001
,  // measure 11
0010
0000
1000
0000
0001
0000
0020
0000
0000
0000
0130
1000
0100
0000
2000
0000
,  // measure 12
0000
3001
0100
0010
0100
0001
0100
1000
,  // measure 13
0100
0000
0010
0000
1000
0000
0002
0000
0000
0000
1003
0100
2000
0000
0000
0000
,  // measure 14
3001
0000
0100
0000
0000
0000
0010
0100
0010
0000
0100
0000
0001
0000
1000
0000
,  // measure 15
0100
0001
0000
0001
0100
1000
0001
0100
,  // measure 16
0000
0000
0010
0000
1000
0000
0001
0000
0010
0000
0100
0000
1000
0001
1000
0001
,  // measure 17
2000
0000
0000
0000
,  // measure 18
3020
0000
0000
0000
,  // measure 19
0230
0000
0000
0001
0000
0000
0000
0000
,  // measure 20
0310
1000
0100
0010
0001
0100
0001
0010
,  // measure 21
0100
1000
1000
0100
0001
0001
0100
0010
,  // measure 22
0001
0000
0100
0000
0100
0000
1000
0000
0100
0000
0100
0000
0010
0000
1000
0001
,  // measure 23
1000
0100
0100
0001
0100
0100
1000
0001
,  // measure 24
0100
0010
1000
0001
0010
1000
0010
0001
,  // measure 25
0100
0010
0001
0020
0000
1030
0001
0010
,  // measure 26
0100
0001
0100
1000
1000
0001
0100
0010
,  // measure 27
0010
1000
0001
0010
1000
0001
0100
1000
,  // measure 28
0001
0000
0100
0000
0010
0000
0001
0000
0010
0000
1000
0001
0000
1000
0001
1000
,  // measure 29
0001
0000
0100
0000
0010
0000
1000
0000
1000
0000
0001
0000
0010
0000
0100
0010
,  // measure 30
0100
0000
1000
0000
1000
0000
0001
0000
0100
0000
0010
0000
1000
0000
0001
1000
,  // measure 31
0001
0000
0100
0000
0010
0000
1000
0000
0001
0000
0010
0000
0100
0010
0100
0010
,  // measure 32
0200
0000
0000
0300
,  // measure 33
1000
0000
0001
0000
0100
0001
0100
0000
0020
0000
0000
0000
1030
0001
1000
0000
,  // measure 34
0000
0100
0010
0000
0001
0000
0001
0000
0002
0000
0000
0000
1003
0000
0010
0000
,  // measure 35
0010
0000
0100
0000
0001
1000
0001
0000
2000
0000
0000
0000
3100
0010
0100
0000
,  // measure 36
0000
0010
0001
0000
1000
0000
0001
0100
0001
0000
0100
0000
0010
0000
2000
0000
,  // measure 37
0000
3001
0010
0200
0000
0310
0001
2000
,  // measure 38
0000
0000
3001
0000
0100
0000
0010
1000
0010
0000
0100
0000
0001
0000
0200
0000
,  // measure 39
0000
0000
0001
0000
1000
0000
0310
2000
,  // measure 40
0001
0000
0000
0001
0000
0000
0001
0000
3001
0000
0100
0000
0020
0000
0030
0000
,  // measure 41
1000
0000
0001
0000
0010
0001
1000
0000
0002
0000
0000
0000
1003
0010
0100
0000
,  // measure 42
0000
0001
0100
0000
0010
0000
0010
0000
0020
0000
0000
0000
1030
0000
0001
0000
,  // measure 43
0001
0000
1000
0000
0100
0010
0001
0000
2000
0000
0000
0000
3001
0100
0010
0000
,  // measure 44
1000
0000
0010
0000
0001
0000
0010
0000
1000
0000
0001
1000
0010
0000
0100
0000
,  // measure 45
0100
0000
0001
0000
1000
0100
0010
0000
0002
0000
0000
0000
0103
0010
1000
0000
,  // measure 46
0000
0001
1000
0000
0100
0000
0100
0000
0200
0000
0000
0000
0310
0001
1000
0000
,  // measure 47
0000
0001
0100
0000
0010
0000
0010
0000
1000
0000
1000
0000
0001
0000
0001
0000
,  // measure 48
0010
0000
0110
0000
1001
0001
0100
0010
,  // measure 49
1000
0001
1000
0200
0000
0301
0200
0000
,  // measure 50
1300
0001
1000
0020
0000
0031
0010
1000
,  // measure 51
0001
1000
0100
0002
0000
0103
1000
0001
,  // measure 52
1000
0010
0001
0010
1000
0001
0010
0100
,  // measure 53
1000
1000
1000
0002
0000
0103
0010
0100
,  // measure 54
1000
0100
0010
1000
0100
0010
0001
0100
,  // measure 55
0001
0001
0100
0010
0001
0010
1000
0001
,  // measure 56
1000
0100
0010
0010
0001
1000
0010
0100
,  // measure 57
0000
0000
0020
0000
1000
0000
0000
0230
,  // measure 58
0000
0000
0000
0000
,  // measure 59
0302
0000
1003
0200
0000
0010
0000
0001
,  // measure 60
0000
1000
0000
0310
0001
1000
0010
1000
,  // measure 61
0100
0010
0002
0000
1000
0000
0000
0023
,  // measure 62
0000
0000
0000
0130
1000
0001
0100
0010
,  // measure 63
1000
0001
1000
0100
0010
0001
0100
0001
,  // measure 64
0010
0100
1000
0010
0100
0001
1000
0010
,  // measure 65
0100
0000
0002
0000
2003
0000
0000
3200
,  // measure 66
0000
0000
0000
0000
0000
0310
0001
2000
,  // measure 67
0000
3001
0100
0010
,  // measure 68
1000
0001
0010
0200
0000
2300
0000
0000
,  // measure 69
3000
0000
0001
0000
0200
0000
0310
2000
,  // measure 70
0000
0000
3002
0000
0013
0200
0000
0020
,  // measure 71
0000
0000
0000
0000
,  // measure 72
0330
0000
0000
0000
0001
1000
0010
0100
,  // measure 73
0001
1000
0001
0020
0000
0130
1000
0001
,  // measure 74
0100
0010
0001
0020
0000
0130
0001
1000
,  // measure 75
0001
0010
0100
2000
0000
3001
0100
0001
,  // measure 76
0010
1000
0010
0100
1000
0001
1000
0010
,  // measure 77
0100
1000
0100
0020
0000
1030
0001
1000
,  // measure 78
0100
0010
0001
0100
1000
0100
0001
0010
,  // measure 79
0100
1000
0001
1000
0010
0100
0001
1000
,  // measure 80
0100
0010
0001
0010
1000
0010
0001
1000
,  // measure 81
0010
0100
0010
0002
0000
0013
1000
0001
,  // measure 82
1000
0100
0010
2000
0000
3010
0001
1000
,  // measure 83
0010
0100
0001
0200
0000
0310
1000
0001
,  // measure 84
0100
1000
0100
0010
1000
0001
0100
0010
,  // measure 85
1000
0000
0001
0000
0010
0000
0200
0000
0000
0000
1300
0001
1000
0000
0001
0000
,  // measure 86
0100
0010
1000
0010
0100
1000
0100
0001
,  // measure 87
1000
0000
0100
1000
0100
0000
0010
0000
0001
1000
0001
1000
0001
0000
1000
0000
,  // measure 88
0010
0100
0001
1000
0001
0010
1000
0010
,  // measure 89
0002
0000
1000
0000
0000
0103
0010
0000
,  // measure 90
2000
0000
0001
0000
0000
3100
0010
0000
,  // measure 91
0001
0100
0001
0020
0000
0130
1000
0001
,  // measure 92
0100
0010
1000
0010
0001
0010
1000
0001
,  // measure 93
2002
0000
0000
0000
,  // measure 94
0000
0000
0000
0000
,  // measure 95
0000
0000
0000
0000
,  // measure 96
3003
0000
0000
0000
;

//---------------dance-single - Kekkle-DSP----------------
#NOTES:
     dance-single:
     Kekkle:
     Medium:
     11:
     0.452689,0.573340,0.203760,0.196734,0.003513,451,422,29,28,0,0,0.452689,0.573340,0.203760,0.196734,0.003513,451,422,29,28,0,0:
0000
0000
0000
0000
,
0000
0000
0000
0000
,
0000
0000
0000
0000
,
0000
0000
0000
0000
,
0000
0000
0000
0000
,
0001
0000
0001
0000
0100
0000
0000
0010
,
1000
0000
1000
0000
0100
0000
0000
0010
,
0001
0000
0001
0000
0100
0000
0000
0010
,
2000
0000
0000
0001
0000
0000
3001
0000
,
0100
0010
1000
0020
0000
0130
0001
1000
,
0000
0001
0010
0100
0010
0001
1000
0000
,
0001
0100
0010
2000
0000
3001
0100
0010
,
0000
1000
0001
1000
0100
0010
0100
0000
,
1000
0001
1000
0010
0000
0000
0100
0000
,
0001
0100
0000
0010
1000
0010
0100
0001
,
1000
0002
0000
1003
0010
2000
0000
3001
,
0000
1000
0001
1000
0100
0010
0001
1000
,
0002
0000
0000
0003
,
2000
0000
0000
3000
,
0020
0000
0000
0100
0000
0000
0030
0000
,
1000
0001
1000
0100
0010
0001
1000
0000
,
0001
0100
0100
0000
0010
0010
0000
1000
,
0000
0010
0010
0000
1000
1000
0001
1000
,
0100
0010
0010
0000
0001
0001
0000
1000
,
0010
0100
0001
0100
0010
1000
0001
1000
,
0100
0010
0001
0020
0000
0031
1000
0001
,
1000
0010
1000
0001
0100
0010
1000
0000
,
0001
0010
0001
1000
0010
0100
0010
1000
,
0001
0010
0001
0010
0100
1000
0001
1000
,
0010
0100
0010
2000
0000
3010
0100
0000
,
0001
1000
0100
2000
0000
3100
0010
0001
,
1000
0010
0100
0001
0100
0010
1000
0010
,
0200
0000
0000
0300
,
0101
1001
0101
1000
,
1100
0000
1001
0000
1100
0000
1000
1000
,
1000
0011
1001
1000
,
1001
1010
1001
0101
,
0002
0000
1003
0200
0000
0000
1300
0002
,
0000
0000
0103
0010
1000
0010
0100
0002
,
0000
1000
1000
1003
,
0010
0000
0000
0010
0000
0000
0010
0000
0020
0000
0000
0000
0030
0000
0000
0000
,
1001
0011
1001
1000
,
1010
0000
1001
0000
1010
0000
0010
0010
,
0010
0101
1001
1000
,
1100
0000
1001
0000
1100
0000
0100
0010
,
0001
0101
0110
1010
,
1000
0001
0100
0001
1000
0100
1000
0100
,
0010
0001
1000
0001
0100
0010
1000
0010
,
0100
0000
0110
0000
1001
0000
0001
0100
,
0010
1000
0010
2000
0000
0000
3001
0000
,
1000
0100
1000
0200
0000
0000
0310
0000
,
0001
0100
0001
0200
0000
0310
1000
0010
,
1000
0100
1000
0200
0000
0310
0001
0010
,
0001
1000
0010
2000
0000
3001
0100
0001
,
1000
0100
1000
0100
0010
0001
0010
0000
,
0001
0100
0010
1000
0010
0100
0001
1000
,
0001
0010
0100
0010
0001
1000
0001
1000
,
0000
0000
0010
0000
0100
0000
0000
0100
,
0000
0000
0000
0000
,
0001
0000
1000
0100
0000
0100
0000
0010
,
0000
0010
0000
0001
1000
0000
0010
0000
,
0100
0000
0100
0000
0001
0000
0000
0001
,
0000
0000
1000
0001
,
0010
0100
0010
0001
,
1000
0010
0100
0001
,
0100
0000
0010
0000
0010
0000
0000
2000
,
0000
0000
0000
0000
3000
0000
0001
1000
,
0000
0100
0010
0001
,
1000
0000
0001
0100
0000
0100
0000
0000
,
0000
0000
0010
0000
1000
0000
0001
1000
,
0000
0000
0001
0000
0010
0100
0000
0200
,
0000
0000
0000
0000
,
0300
0000
0000
0000
,
1000
0000
0001
0000
0100
0001
0100
0000
,
0010
0000
1000
0000
0001
0010
0001
0000
,
1000
0010
0100
0100
,
0001
1000
0100
0100
,
0010
0000
0001
0000
1000
0010
1000
0000
,
0010
0000
0100
0000
0001
1000
0001
0000
,
1000
0100
1000
0000
0001
0100
0001
0000
,
0100
0100
0010
1000
,
0001
0000
1000
0000
0001
0010
0001
0000
,
0100
0000
0010
0000
1000
0010
1000
0000
,
0001
0100
0010
0010
,
1000
0001
0010
0010
,
0100
0000
1000
0000
0001
0100
0001
0000
,
0100
0000
0010
0000
1000
0100
1000
0000
,
0001
0000
0100
0000
0010
0100
0010
0000
,
1000
0001
1000
0100
,
0020
0000
0000
0031
,
2000
0000
0000
3010
,
0100
0000
0000
0100
0000
0000
0100
0000
,
0001
0000
1000
0000
0100
0010
0100
0000
,
0220
0000
0000
0000
,
0000
0000
0000
0000
,
0000
0000
0000
0000
,
0330
0000
0000
0000
;

//---------------dance-single - Kekkle-BSP----------------
#NOTES:
     dance-single:
     Kekkle:
     Easy:
     7:
     0.303131,0.404710,0.014052,0.077288,0,302,300,2,11,0,0,0.303131,0.404710,0.014052,0.077288,0,302,300,2,11,0,0:
0000
0000
0000
0000
,
0000
0000
0000
0000
,
0000
0000
0000
0000
,
0000
0000
0000
0000
,
0000
0000
0000
0000
,
0001
0001
0001
0000
,
1000
1000
1000
0000
,
0010
0010
0010
0000
,
0200
0000
0000
0300
,
0010
1000
0001
0001
,
1000
0100
0010
0001
,
1000
0001
0100
0100
,
0010
1000
0001
0100
,
0001
0010
0100
0100
,
1000
0001
0100
0100
,
0010
1000
0001
0010
,
0100
0100
0010
0010
,
0200
0000
0300
0000
,
0020
0000
0030
0000
,
0001
0000
0000
0001
0000
0000
0000
0000
,
1000
0000
1000
0000
0001
1000
0001
0000
,
0100
0000
0000
0100
0000
0000
0100
0000
,
0010
0000
0000
0010
0000
0000
0010
0000
,
1000
0000
0000
1000
0000
0000
1000
0000
,
0001
0000
0000
0001
0000
0000
0001
0000
,
0100
0010
0100
0100
,
0001
0000
1000
0000
0001
0000
0001
1000
,
0001
1000
0100
0100
,
0010
0000
0001
0000
1000
0000
1000
0001
,
1000
0001
0100
0100
,
0001
1000
0100
0100
,
1000
0001
1000
0000
0001
1000
0001
0000
,
2002
0000
0000
3003
,
0001
0001
0001
0100
,
0010
0000
0010
0000
0010
0000
1000
0001
,
1000
1000
1000
0100
,
0010
0010
0010
0001
,
1000
1000
0010
0010
,
0100
0000
0100
0000
0001
1000
0001
1000
,
0000
0001
0001
0001
,
1000
0001
2000
3000
,
0010
0010
0010
1000
,
0001
0000
0001
0000
0001
0000
0100
0010
,
0100
0100
0100
0010
,
1000
0000
1000
0000
1000
0000
0001
1000
,
0001
1000
1000
0100
,
0010
0001
0001
0100
,
0010
1000
0010
0000
1000
0001
1000
0000
,
0001
0001
1001
0000
,
1000
0000
1000
0000
0001
0100
0001
0000
,
0100
0000
0100
0000
0010
1000
0010
0000
,
1000
0000
1000
0000
0001
0010
0001
0000
,
1000
1000
0010
0010
,
0100
0000
0100
0000
0001
1000
0001
0000
,
0010
0010
0100
0100
,
1000
0001
1000
0000
0001
0000
0001
0000
,
0100
0000
0010
0100
0010
0000
0010
0000
,
2000
0000
0000
0000
,
0000
0000
0000
3000
,
0001
0000
1000
0000
,
0010
0000
0100
0100
,
0001
0000
1000
0000
,
0100
0000
0010
0010
,
0001
1000
0001
1000
,
0010
0100
0010
0100
,
0001
0000
0001
0000
,
1000
0000
0000
0010
,
0010
0000
1000
0001
,
1000
0000
1000
0000
,
0000
0001
0001
0000
,
0100
0000
0010
0000
,
2000
0000
0000
0000
,
3000
0000
0000
0000
,
0001
0001
0000
0100
,
0010
0010
0000
1000
,
0001
0001
0000
1000
,
0100
0100
0010
0100
,
1000
1000
0000
0001
,
0100
0100
0010
0100
,
0001
1000
0001
0001
,
1000
0001
1000
1000
,
0010
0010
0000
0100
,
0001
0001
0000
1000
,
0100
0100
0000
0010
,
0001
0001
0100
0010
,
0100
0100
0000
0010
,
1000
1000
0001
0001
,
0100
0010
0010
0010
,
1000
0001
1000
0001
,
0200
0000
0000
0300
,
0020
0000
0000
0030
,
1000
0000
0001
0000
,
1000
1000
0001
0001
,
0200
0000
0000
0000
,
0000
0000
0000
0000
,
0000
0000
0000
0000
,
0300
0000
0000
0000
;

//---------------dance-single - Kekkle-bSP----------------
#NOTES:
     dance-single:
     Kekkle:
     Beginner:
     4:
     0.187700,0.269807,0.007026,0.084315,0,187,186,1,12,0,0,0.187700,0.269807,0.007026,0.084315,0,187,186,1,12,0,0:
0000
0000
0000
0000
,
0000
0000
0000
0000
,
0000
0000
0000
0000
,
0000
0000
0000
0000
,
0000
0000
0000
0000
,
0001
0000
0001
0000
,
1000
0000
1000
0000
,
0010
0000
0010
0000
,
0200
0000
0300
0000
,
0001
0000
0001
0000
,
1000
0000
0001
1000
,
0001
0000
0001
0000
,
1000
0000
1000
0001
,
1000
0000
0010
0000
,
0100
0000
0100
0010
,
0100
0000
0010
0000
,
0100
0000
0010
0100
,
0020
0000
0030
0000
,
0200
0000
0300
0000
,
0010
0000
0000
0000
,
1000
0000
0001
0000
,
1000
0000
1000
0000
,
0001
0000
0001
0000
,
0100
0000
0100
0000
,
0010
0000
1000
0001
,
1000
0000
0001
0000
,
0001
0000
0100
0010
,
0100
0000
0100
0000
,
0010
0000
0010
1000
,
0010
0000
1000
0000
,
0010
0000
1000
0000
,
0001
1000
0001
1000
,
0002
0000
0003
0000
,
0100
0000
0100
0000
,
0010
0000
0010
1000
,
0010
0000
1000
0000
,
0001
0000
0001
0010
,
0001
0000
0001
0000
,
0100
0000
0010
0100
,
0020
0000
0030
0000
,
0200
0000
0300
0000
,
0010
0000
1000
0000
,
0010
1000
0010
0000
,
1000
0000
0001
0000
,
1000
0001
1000
0001
,
1000
0000
0001
0000
,
0010
0001
0010
0000
,
0001
1000
0001
0000
,
1001
0000
0000
0000
,
0001
0000
0001
0100
,
0001
0000
1000
0010
,
1000
0000
1000
0001
,
1000
0000
0001
0000
,
0010
0000
0100
0010
,
0100
0000
0010
0001
,
0010
0000
0001
0000
,
1000
0001
1000
0000
,
0020
0000
0000
0000
,
0000
0000
0030
0000
,
0100
0000
0000
0000
,
0100
0000
0001
1000
,
0001
0000
0000
0000
,
1000
0000
0010
0000
,
0010
0000
0000
0000
,
1000
0000
0001
0000
,
1000
0000
0100
0000
,
0100
0000
0000
0000
,
0010
0000
0001
0000
,
1000
0000
1000
0000
,
0000
0000
0010
0000
,
0100
0000
0010
0000
,
0020
0000
0000
0000
,
0030
0000
0000
0000
,
1000
0000
0001
0000
,
0001
0000
1000
0000
,
1000
0000
0010
0000
,
0100
0010
0100
0000
,
0001
0000
1000
0000
,
1000
0000
0100
0000
,
0100
0000
0010
0000
,
0001
1000
0001
0000
,
1000
0000
0001
0000
,
0001
0000
0100
0000
,
0100
0000
0010
0000
,
1000
0010
1000
0000
,
0001
0000
1000
0000
,
0001
1000
0001
0000
,
1000
0000
0001
0000
,
0100
0000
0010
0100
,
0020
0000
0030
0000
,
0200
0000
0300
0000
,
0020
0000
0030
0000
,
1000
0001
1000
0001
,
2000
0000
0000
0000
,
0000
0000
0000
0000
,
0000
0000
0000
0000
,
3000
0000
0000
0000
;

//---------------dance-double - NewbStepper-EDP----------------
#NOTES:
     dance-double:
     NewbStepper:
     Hard:
     13:
     0.574143,0.640791,0.035131,0.428600,0.108906,572,567,5,61,0,0,0.574143,0.640791,0.035131,0.428600,0.108906,572,567,5,61,0,0:
00000000
00000000
00000000
00000000
,
00000000
00000000
00000000
00000000
,
00000000
00000000
00000000
00000000
,
00000000
00000000
00000000
00000000
,
00000000
00000000
00000000
00000000
,
00000001
00000000
00000001
00000000
00000001
00000000
00000001
00000100
,
00000010
00000000
00000010
00000000
00000010
00000000
00000010
00001000
,
00000100
00000000
00000100
00000000
00000100
00000000
00000100
00010000
,
00002000
00000000
00000000
00000000
00000000
00000000
01003000
00100000
,
10000000
00000000
00010000
00000000
10000000
00000000
02000000
00000000
00000000
00000000
03100000
00010000
00100000
00000000
00002000
00000000
,
00000000
00013000
00000100
00001000
00000100
00010000
00001000
00000010
,
00000001
00000000
00001000
00000000
00000001
00000000
00000200
00000000
00000000
00000000
00000310
00001000
00000010
00000000
00020000
00000000
,
00000000
00031000
00010000
01000000
00100000
00010000
01000000
00100000
,
10000000
00000000
01000000
00000000
00010000
00000000
00002000
00000000
00000000
00000000
00103000
00010000
00200000
00000000
00000000
00000000
,
00301000
00000000
00020000
00000000
00000000
00000000
00030010
00001000
00000010
00000000
00010000
00000000
00001000
00000000
00000100
00000000
,
00000010
00001000
00000000
00000100
00000010
00000001
00000100
00001000
,
00000000
00000000
00010000
00000000
00100000
00000000
10000000
00000000
01000000
00100000
01000000
00100000
01000000
00000000
10000000
00000000
,
00020000
00000000
00000000
00000000
,
20030000
00000000
00000000
00000000
,
30200000
00000000
00000000
00010000
00000000
00000000
00000000
00000000
,
10300000
01000000
00010000
00001000
01000000
00010000
00100000
01000000
,
10000000
00100000
00100000
00010000
00001000
00001000
00000100
00000010
,
00010000
00001000
00001000
00000010
00000100
00000100
00000001
00000100
,
00001000
00000010
00000010
00010000
00001000
00001000
00100000
00001000
,
00010000
01000000
00100000
00010000
10000000
00100000
00010000
00001000
,
00000010
00000001
00000100
00002000
00000000
00013000
00001000
00100000
,
00001000
00010000
00100000
00010000
00001000
00100000
00010000
01000000
,
10000000
01000000
00010000
10000000
00100000
00010000
00001000
00010000
,
00000010
00000000
00010000
00000000
00001000
00000000
00000100
00000000
00000001
00000000
00000010
00000100
00000000
00000010
00000100
00000000
,
00001000
00000000
00000001
00000000
00000100
00000000
00001000
00000000
00010000
00000000
01000000
00000000
10000000
00000000
00010000
01000000
,
00010000
00000000
10000000
00000000
01000000
00000000
00010000
00000000
00001000
00000000
00000100
00000000
00000001
00000000
00001000
00000001
,
00001000
00000001
00000100
00000010
00001000
00010000
01000000
00100000
,
20000000
00000000
00000000
30000000
,
00010000
00000000
10000000
00000000
01000000
10000000
01000000
00000000
00200000
00000000
00000000
00000000
00301000
00010000
00001000
00000000
,
00000000
00010000
00000100
00000000
00000010
00000000
00000001
00000000
00000020
00000000
00000000
00000000
00000031
00000000
00000100
00000000
,
00000100
00000000
00001000
00000000
00000000
00010000
00001000
00000000
00200000
00000000
00000000
00000000
00301000
00010000
00001000
00000000
,
00100000
00010000
00100000
00000000
01000000
00000000
10000000
00000000
00100000
00000000
00010000
00000000
00001000
00000000
00000010
00000000
,
00000002
00000000
00000103
00002000
00000000
00000000
00003100
00000020
,
00000000
00000000
00010030
00000000
00001000
00000000
00000100
00000010
00000100
00000000
00000010
00000000
00001000
00000000
00000200
00000000
,
00000000
00000000
00000010
00000000
00001000
00000000
00010300
00002000
,
00100000
00000000
00000000
00100000
00000000
00000000
00100000
00000000
00103000
00000000
00001000
00000000
00011000
00000000
00000000
00000000
,
00010000
00000000
01000000
00000000
00000000
10000000
01000000
00000000
00200000
00000000
00000000
00000000
00301000
00100000
00001000
00000000
,
00010000
00001000
00010000
00000000
00001000
00000000
00001000
00000000
00000200
00000000
00000000
00000000
00000010
00000000
00000010
00000000
,
00000310
00000000
00000100
00000000
00000000
00000001
00000100
00000000
00000020
00000000
00000000
00000000
00010030
00001000
00010000
00000000
,
00001000
00000000
00100000
00000000
00010000
00000000
01000000
00000000
00100000
00000000
00010000
00001000
00100000
00000000
01000000
00000000
,
01000000
00000000
10000000
00000000
00000000
10000000
00100000
00000000
00020000
00000000
00000000
00000000
00031000
00010000
00001000
00000000
,
00000100
00000010
00000100
00000000
00000001
00000000
00000010
00000000
00000200
00000000
00000000
00000000
00001300
00000001
00000100
00000000
,
00000000
00000001
00000100
00000000
00000010
00000000
00000010
00000000
00010000
00000000
00010000
00000000
00001000
00000000
00001000
00000000
,
00100000
00000000
01100000
00000000
10010000
10000000
00010000
01000000
,
00100000
10000000
01000000
00020000
00000000
00031000
00020000
00000000
,
00030010
00010000
00001000
00000020
00000000
00000031
00000100
00000001
,
00001000
00000001
00000100
00002000
00000000
00013000
00000100
00010000
,
00001000
00010000
00100000
10000000
01000000
00010000
00001000
00000010
,
00000001
00000001
00000001
00002000
00000000
00003100
00000010
00000100
,
00000001
00000100
00000010
00000001
00000100
00001000
00010000
01000000
,
10000000
10000000
01000000
00100000
10000000
00100000
00010000
10000000
,
00010000
01000000
00100000
00100000
10000000
01000000
00100000
00010000
,
00000000
00000000
00200000
00000000
01000000
00000000
00000000
00302000
,
00000000
00000000
00000000
00000000
,
00023000
00000000
00030010
00000200
00000000
00000010
00000000
00001000
,
00000000
00000001
00000000
00000310
00001000
00000100
00000010
00000001
,
00000010
00000100
00002000
00000000
00000001
00000000
00000000
00003020
,
00000000
00000000
00000000
00010030
00001000
00000100
00000010
00001000
,
00000100
00001000
00000010
00000100
00000001
00001000
00000100
00010000
,
00001000
01000000
00100000
10000000
01000000
00100000
00010000
01000000
,
00100000
00000000
20000000
00000000
30020000
00000000
00000000
02030000
,
00000000
00000000
00000000
00000000
00000000
03100000
10000000
00020000
,
00000000
10030000
01000000
00010000
,
00001000
00010000
00001000
00000200
00000000
00000302
00000000
00000000
,
00000000
00000000
00001003
00000000
00000100
00000000
00000010
00000002
,
00000000
00000000
00002003
00000000
00003010
00020000
00000000
00002000
,
00000000
00000000
00000000
00000000
,
00033000
00000000
00011000
00000000
,
00001000
00100000
00001000
00020000
00000000
00130000
01000000
00001000
,
00010000
00000010
00010000
00002000
00000000
00003010
00000100
00000010
,
00000001
00000100
00000010
00002000
00000000
00003001
00000100
00000010
,
00001000
00000001
00000100
00001000
00010000
01000000
10000000
00010000
,
01000000
00100000
00010000
00002000
00000000
00103000
00001000
00010000
,
00000010
00000100
00001000
00010000
00000100
00000010
00000001
00000100
,
00000010
00001000
00000100
00010000
00001000
00100000
00010000
00100000
,
01000000
10000000
01000000
00010000
00001000
00000100
00000001
00000010
,
00000100
00000010
00001000
00020000
00000000
00030010
00010000
00001000
,
01000000
00100000
00010000
00002000
00000000
00003100
00000010
00000100
,
00000001
00001000
00000010
00000200
00000000
00001300
00010000
00100000
,
10000000
01000000
00100000
00010000
00001000
00000100
00000010
00000001
,
00001000
00000000
00000001
00000000
00000100
00000000
00000020
00000000
00000000
00000000
00001030
00000100
00000010
00000000
00000001
00000000
,
00000100
00001000
00010000
00000010
00001000
00000001
00000100
00001000
,
00010000
00000000
00001000
00100000
00001000
00000000
00010000
00000000
00100000
00000000
10000000
00000000
01000000
00000000
00010000
00000000
,
00001000
00100000
01000000
10000000
00100000
00010000
00001000
00000010
,
00002000
00000000
00100000
00000000
00000000
00013000
00001000
00000000
,
00020000
00000000
00000010
00000000
00000000
00031000
00010000
00000000
,
00002000
00000000
00000000
00203000
00000000
00000000
00310000
00000000
,
01000000
00001000
00010000
00000010
00010000
00001000
00100000
00001000
,
00022000
00000000
00000000
00000000
,
00000000
00000000
00000000
00000000
,
00000000
00000000
00000000
00000000
,
00033000
00000000
00000000
00000000
;

//---------------dance-double - NewbStepper-DDP----------------
#NOTES:
     dance-double:
     NewbStepper:
     Medium:
     11:
     0.448674,0.573340,0.231865,0.189708,0.003513,447,414,33,27,0,0,0.448674,0.573340,0.231865,0.189708,0.003513,447,414,33,27,0,0:
00000000
00000000
00000000
00000000
,
00000000
00000000
00000000
00000000
,
00000000
00000000
00000000
00000000
,
00000000
00000000
00000000
00000000
,
00000000
00000000
00000000
00000000
,
00000001
00000000
00000001
00000000
00000100
00000000
00000000
00000010
,
00010000
00000000
00010000
00000000
00001000
00000000
00000000
00100000
,
00010000
00000000
00010000
00000000
01000000
00000000
00000000
00100000
,
20000000
00000000
00000000
00010000
00000000
00000000
30010000
00000000
,
01000000
00100000
10000000
00200000
00000000
01300000
00001000
00010000
,
00000000
00000010
00001000
00000001
00001000
00000001
00000010
00000000
,
00000100
00000010
00000001
00000020
00000000
00000031
00000100
00001000
,
00000000
00010000
00001000
00100000
00010000
01000000
00100000
00000000
,
10000000
01000000
00100000
00010000
00000000
00010000
01000000
00000000
,
00001000
00010000
00000000
00001000
00000100
00000001
00000010
00000100
,
00001000
00000002
00000000
00000103
00000010
00002000
00000000
00003100
,
00000000
00010000
00001000
00100000
00010000
01000000
00100000
10000000
,
00020000
00000000
00000000
00030000
,
02000000
00000000
00000000
03000000
,
00002000
00000000
00000000
00010000
00000000
00000000
00003000
00000000
,
00010000
00000100
00001000
00000010
00000100
00000001
00001000
00000000
,
00000001
00000100
00000100
00000000
00000010
00000010
00000000
00010000
,
00000000
00001000
00001000
00000000
00100000
00010000
01000000
00100000
,
10000000
01000000
01000000
00000000
00100000
00100000
00000000
00001000
,
00000000
00010000
00000100
00010000
00001000
00000100
00000001
00001000
,
00000100
00000010
00000001
00000020
00000000
00000031
00001000
00000001
,
00000100
00000010
00010000
00000100
00001000
00000010
00010000
00000000
,
00001000
00100000
00001000
00010000
00000100
00010000
00001000
01000000
,
00001000
00100000
00010000
01000000
00100000
10000000
00010000
00000000
,
01000000
00100000
10000000
00200000
00000000
10300000
00010000
00000000
,
00100000
00001000
00010000
00002000
00000000
00013000
00000010
00010000
,
00001000
00000010
00000001
00000100
00000010
00001000
00000001
00000010
,
00000200
00000000
00000000
00000300
,
00010100
00011000
00010100
00001000
,
01001000
00000000
00011000
00000000
01001000
00000000
00010000
00010000
,
00010000
00010010
00011000
00001000
,
00101000
00011000
01001000
01010000
,
00020000
00000000
10030000
02000000
00000000
03000000
10000000
00020000
,
00000000
00000000
00130000
00001000
00010000
00000010
00010000
00002000
,
00000000
00010000
00010000
00013000
,
00000010
00000000
00000000
00000010
00000000
00000000
00000010
00000000
00000020
00000000
00000000
00000000
00000030
00000000
00000000
00000000
,
00001001
00001010
00010010
00010000
,
00011000
00000000
01001000
00000000
00101000
00000000
00100000
00100000
,
00100000
00110000
00101000
00001000
,
00011000
00000000
00010100
00000000
00010010
00000000
00000010
00001000
,
00000100
00010100
00011000
00010100
,
00011000
01001000
00011000
01001000
,
00010000
00001000
00100000
00010000
10000000
00100000
10000000
01000000
,
00010000
00011000
00011000
00000000
,
00001000
00100000
00001000
00020000
00000000
00000000
00030100
00000000
,
00010000
00000010
00010000
00002000
00000000
00000000
01003000
00000000
,
00100000
10000000
00100000
02000000
00000000
03010000
01000000
00010000
,
10000000
01000000
00100000
00001000
00010000
00000100
00000010
00000000
,
00000001
00000100
00000001
00002000
00000000
00003001
00000100
00000000
,
00000001
00001000
00000100
00010000
00001000
00100000
01000000
00000000
,
10000000
00010000
01000000
00001000
00010000
00000100
00000010
00000001
,
00001000
00000010
00000100
00000001
00001000
00000001
00000100
00000010
,
00000000
00000000
00010000
00000000
00001000
00000000
00000000
00100000
,
00000000
00000000
00000000
00000000
,
00001000
00000000
01000000
00001000
00000000
00001000
00000000
00100000
,
00000000
00100000
00000000
00010000
10000000
00000000
01000000
00000000
,
00010000
00000000
00001000
00000000
00000010
00000000
00000000
00000100
,
00000000
00000000
00001000
00000001
,
00000010
00001000
00010000
00100000
,
10000000
01000000
00100000
00010000
,
01000000
00000000
00001000
00000000
00001000
00000000
00000000
00020000
,
00000000
00000000
00000000
00000000
00030000
00000000
00000010
00001000
,
00000000
00000001
00000100
00001000
,
00010000
00000000
00000010
00001000
00000000
00001000
00000000
00000000
,
00000100
00000000
00010000
00000000
00001000
01000000
00000000
00000000
,
00100000
00000000
10000000
01000000
00000000
02000000
00000000
00000000
,
00000000
00000000
00000000
00000000
,
03000000
00000000
00000000
00000000
,
00010000
00000000
00001000
00000000
00100000
00010000
00100000
00000000
,
00001000
00000000
00010000
00000000
00000010
00001000
00000010
00000000
,
00010000
00001000
00000010
00000010
,
00000100
00001000
00000001
00000100
,
00001000
00000000
00010000
00000000
00000100
00001000
00000100
00000000
,
00010000
00000000
00001000
00000000
01000000
00010000
01000000
00000000
,
00001000
00010000
00001000
00000000
00100000
00010000
00100000
00000000
,
01000000
01000000
00100000
10000000
,
00010000
00000000
00100000
00000000
00001000
00010000
00001000
00000000
,
00010000
00000000
00000010
00000000
00010000
00001000
00010000
00000000
,
00001000
00000010
00000001
00000001
,
00000100
00001000
00010000
00010000
,
00000010
00000000
00000100
00000000
00001000
00010000
00001000
00000000
,
00100000
00000000
01000000
00000000
00010000
00001000
00010000
00000000
,
00000100
00000000
00000010
00000000
00000001
00000100
00000001
00000000
,
00001000
00000100
00010000
00001000
,
00200000
00000000
00000000
00310000
,
20000000
00000000
00000000
30010000
,
00100000
00000000
00000000
00100000
00000000
00000000
00100000
00000000
,
00001000
00000000
00010000
00000000
00001000
00010000
00001000
00000000
,
00022000
00000000
00000000
00000000
,
00000000
00000000
00000000
00000000
,
00000000
00000000
00000000
00000000
,
00033000
00000000
00000000
00000000
;

//---------------dance-double - NewbStepper-BDP----------------
#NOTES:
     dance-double:
     NewbStepper:
     Easy:
     7:
     0.297109,0.404710,0.014052,0.070262,0,296,294,2,10,0,0,0.297109,0.404710,0.014052,0.070262,0,296,294,2,10,0,0:
00000000
00000000
00000000
00000000
,
00000000
00000000
00000000
00000000
,
00000000
00000000
00000000
00000000
,
00000000
00000000
00000000
00000000
,
00000000
00000000
00000000
00000000
,
00000001
00000001
00000001
00000000
,
00001000
00001000
00001000
00000000
,
00000010
00000010
00000010
00000000
,
00020000
00000000
00000000
00030000
,
00001000
00100000
00010000
00010000
,
10000000
01000000
00100000
00001000
,
00010000
00001000
01000000
01000000
,
00100000
00010000
00001000
00000100
,
00000010
00001000
00000001
00000001
,
00000100
00001000
00010000
00010000
,
00000010
00001000
00000100
00010000
,
00001000
00001000
00100000
00100000
,
00020000
00000000
00030000
00000000
,
20000000
00000000
30000000
00000000
,
00010000
00000000
00000000
00010000
00000000
00000000
00000000
00000000
,
10000000
00000000
10000000
00000000
00010000
01000000
00010000
00000000
,
01000000
00000000
00000000
01000000
00000000
00000000
01000000
00000000
,
00001000
00000000
00000000
00001000
00000000
00000000
00001000
00000000
,
00010000
00000000
00000000
00010000
00000000
00000000
00010000
00000000
,
00000100
00000000
00000000
00000100
00000000
00000000
00000100
00000000
,
00000010
00000001
00000100
00000100
,
00000010
00000000
00010000
00000000
00001000
00000000
00001000
00010000
,
00001000
01000000
00100000
00100000
,
10000000
00000000
01000000
00000000
00010000
00000000
00010000
00001000
,
00010000
00001000
00000100
00000100
,
00001000
00010000
01000000
01000000
,
10000000
00010000
10000000
00000000
00010000
10000000
00010000
00000000
,
20020000
00000000
00000000
30030000
,
10000000
10000000
10000000
00100000
,
01000000
00000000
01000000
00000000
01000000
00000000
00010000
10000000
,
00010000
00010000
00010000
01000000
,
00001000
00001000
00001000
00010000
,
00000010
00000010
00001000
00001000
,
00000001
00000000
00000001
00000000
00000100
00000010
00000100
00000010
,
00000000
00010000
00010000
00010000
,
00001000
00100000
00002000
00003000
,
01000000
01000000
01000000
00100000
,
10000000
00000000
10000000
00000000
10000000
00000000
00010000
01000000
,
00010000
00010000
00010000
00100000
,
00001000
00000000
00001000
00000000
00001000
00000000
00010000
00001000
,
00010000
00000100
00000010
00000001
,
00000100
00001000
00010000
01000000
,
10000000
00100000
10000000
00000000
00010000
00100000
00010000
00000000
,
01000000
01000000
01100000
00000000
,
00001000
00000000
00001000
00000000
00010000
00000010
00010000
00000000
,
00000100
00000000
00000100
00000000
00001000
00000010
00001000
00000000
,
00000001
00000100
00001000
00010000
,
01000000
10000000
00100000
01000000
,
00010000
00000000
00010000
00000000
01000000
00100000
01000000
00000000
,
00001000
00001000
00010000
00010000
,
00000100
00001000
00000100
00000000
00000010
00000001
00000010
00000000
,
00000100
00010000
00001000
01000000
,
00000000
00000000
00000000
00000000
,
00000000
00000000
00000000
00000000
,
00010000
00000000
10000000
00000000
,
00100000
00000000
01000000
01000000
,
00001000
00000000
00010000
00000000
,
00000100
00000000
00000010
00000010
,
00000001
00001000
00000001
00001000
,
00000100
00010000
00000100
00010000
,
00001000
00000000
00001000
00000000
,
01000000
00000000
00000000
00010000
,
00010000
00000000
10000000
00010000
,
10000000
00000000
10000000
00000000
,
00000000
00100000
00100000
00000000
,
01000000
00000000
00001000
00000000
,
00020000
00000000
00000000
00000000
,
00030000
00000000
00000000
00000000
,
00000100
00000100
00000000
00010000
,
00001000
00001000
00000000
01000000
,
00100000
00100000
00000000
10000000
,
00010000
00010000
00100000
00001000
,
01000000
01000000
00000000
00001000
,
00010000
00010000
00000000
00000100
,
00000010
00000010
00000000
00000001
,
00001000
00001000
00000010
00000100
,
00000001
00000001
00000000
00001000
,
00000010
00000010
00000000
00010000
,
00001000
00001000
00000000
01000000
,
00100000
00100000
10000000
00010000
,
10000000
10000000
00000000
00010000
,
00100000
00100000
00000000
00001000
,
00010000
00010000
00000000
00000100
,
00000010
00000001
00000100
00001000
,
00020000
00000000
00000000
00030000
,
00000200
00000000
00000000
00000300
,
00010000
00000000
00000010
00000000
,
00010000
00010000
00001000
00001000
,
02000000
00000000
00000000
00000000
,
00000000
00000000
00000000
00000000
,
00000000
00000000
00000000
00000000
,
03000000
00000000
00000000
00000000
;
