#TITLE:Snow Eagle;
#ARTIST:Mutsuhiko Izumi;
#BANNER:Snow Eagle.png;
#BACKGROUND:Snow Eagle-bg.png;
#MUSIC:Snow Eagle.ogg;
#OFFSET:1.192;
#SAMPLESTART:36;
#SAMPLELENGTH:15;
#LASTBEATHINT:0.64;
#BPMS:0=200;

//---------------dance-single - NewbStepper-ESP----------------
#NOTES:
     dance-single:
     NewbStepper:
     Hard:
     16:
     0.802470,1.037015,0.538127,0.528686,0.472041,595,538,57,56,0,0,0.802470,1.037015,0.538127,0.528686,0.472041,595,538,57,56,0,0:
// measure 0
0000
0000
0000
0000
,  // measure 1
0000
0000
0000
0000
,  // measure 2
0000
0000
0000
0000
,  // measure 3
0000
0000
0000
0000
,  // measure 4
0000
0000
0000
0000
,  // measure 5
0000
0000
0000
0000
,  // measure 6
0000
0000
0000
0000
,  // measure 7
1001
0000
0000
0000
,  // measure 8
0010
1000
0010
0000
0100
0001
0100
0000
0010
1000
0010
1000
0001
0000
0010
0000
,  // measure 9
0100
0000
0000
0000
0100
0000
1000
0000
0000
0000
1000
0000
0010
0100
0001
0000
,  // measure 10
1000
0000
0000
0000
1000
0000
0010
0000
0000
0000
0010
0000
0100
0001
1000
0000
,  // measure 11
0001
0000
0000
0000
0001
0000
0010
0000
0000
0000
0010
0000
0100
1000
0100
0010
,  // measure 12
0002
1000
0000
1000
0000
1003
0000
1000
,  // measure 13
2020
0000
0000
0000
3030
0000
0000
0000
0100
0001
0100
0001
1000
0100
0010
0001
,  // measure 14
1000
0010
0001
0020
0000
1030
0100
0001
,  // measure 15
1000
0010
0001
0020
0000
0031
0100
0001
,  // measure 16
1000
0000
0000
0000
1000
0100
0020
0000
0000
0000
0000
0000
0030
0000
0000
0000
,  // measure 17
0001
0010
0001
0000
1000
0000
0100
0000
1000
0010
1000
0000
0001
0000
0100
0000
,  // measure 18
0001
0010
1000
0020
0000
0031
0100
1000
,  // measure 19
0001
0010
1000
0020
0000
1030
0100
1000
,  // measure 20
0001
0000
0000
0000
0001
0100
0020
0000
0000
0000
0000
0000
0000
0000
0030
0000
,  // measure 21
1000
0010
1000
0010
0100
0001
0100
0001
1000
0100
1000
0100
0010
0001
0010
0000
,  // measure 22
0011
0000
0000
0000
0101
0000
0000
0000
0010
1000
0200
0000
0000
0000
1300
0000
,  // measure 23
1010
0000
0000
0000
0101
0000
0000
0000
0010
0001
0200
0000
0000
0000
0310
0000
,  // measure 24
1000
0000
1100
0000
0110
0000
0001
0000
0101
0000
0110
0000
,  // measure 25
1001
0000
0000
0000
0001
0010
0001
0000
0010
0100
0010
0000
0100
1000
0100
0000
,  // measure 26
1100
0000
0000
0000
1010
0000
0000
0000
0100
0001
0020
0000
0000
0000
0031
0000
,  // measure 27
0101
0000
0000
0000
0011
0000
0000
0000
0100
1000
0020
0000
0000
0000
1030
0000
,  // measure 28
0001
0000
0101
0000
0110
0000
1000
0000
1100
0000
0110
0000
,  // measure 29
0011
0000
0110
0000
1100
0000
2002
0000
0000
3003
0000
0000
,  // measure 30
1010
0000
0110
0000
0101
0000
2001
0000
0000
0000
0000
0000
,  // measure 31
3001
0001
0100
1000
1000
0100
0010
0100
,  // measure 32
0001
0010
1000
1010
0000
0001
0010
0011
,  // measure 33
0000
1000
0010
0001
0001
0010
1000
0100
,  // measure 34
0010
0000
1000
0000
0001
0000
0100
0000
1000
0000
0001
0100
0001
0100
0010
0000
,  // measure 35
0000
1000
0100
0001
0001
0100
0010
0100
,  // measure 36
1000
0010
0001
0011
0000
0010
1000
1010
,  // measure 37
0000
0001
0010
1000
1000
0010
0001
0100
,  // measure 38
0010
0000
0001
0000
1000
0000
0100
0000
0001
0000
1000
0100
1000
0100
0010
0000
,  // measure 39
0000
0001
0200
0000
0310
0200
0000
1300
,  // measure 40
0200
0000
0301
0020
0000
1030
0010
0001
,  // measure 41
1000
0010
0001
1000
0100
0001
0010
0001
,  // measure 42
0100
1000
0001
0010
1000
0100
0010
0001
,  // measure 43
0000
1000
0200
0000
0310
0200
0000
0301
,  // measure 44
0200
0000
1300
0020
0000
0031
0010
1000
,  // measure 45
0001
0010
1000
0001
0100
1000
0010
1000
,  // measure 46
0100
0000
0001
0000
1000
0000
0010
0000
0001
0100
0001
0100
0001
0100
0010
0000
,  // measure 47
1000
0000
0100
0000
0001
0000
0000
0000
0001
0000
0100
0000
1000
0000
0010
0100
,  // measure 48
0010
0000
1000
0000
0100
0000
1000
0000
0000
0000
0001
0000
0100
0000
0010
1000
,  // measure 49
0010
1000
0100
0010
0001
0100
1000
0100
,  // measure 50
0001
0001
0100
0100
0010
0010
1000
0000
,  // measure 51
0002
0000
0000
0000
0103
0001
0200
0000
0000
0000
0310
1000
0020
0000
0000
0000
,  // measure 52
2030
0000
0000
0000
3100
1000
0200
0000
0000
0000
0000
0000
0300
0000
0010
0001
,  // measure 53
0010
0000
0001
0100
0001
0000
1000
0100
1000
0000
0001
0100
0010
1000
0001
0010
,  // measure 54
0100
1000
0001
0100
0010
0010
0010
0010
,  // measure 55
2000
0000
0000
0000
,  // measure 56
3002
0000
0000
0000
,  // measure 57
0023
0000
0000
0030
,  // measure 58
0001
0100
0001
0100
0001
0100
0010
0000
1000
0100
1000
0100
1000
0100
0010
0000
,  // measure 59
0002
0000
0000
0000
,  // measure 60
2003
0000
0000
0000
,  // measure 61
3020
0000
0000
0030
,  // measure 62
1001
0000
0000
0000
0000
0000
0000
0000
0100
1000
0100
1000
0001
0100
0010
1000
,  // measure 63
0001
0010
1000
0020
0000
0031
0100
1000
,  // measure 64
0001
0010
1000
0020
0000
1030
0100
1000
,  // measure 65
0001
0000
0000
0000
0001
0100
0020
0000
0000
0000
0000
0000
0030
0000
0000
0000
,  // measure 66
1000
0010
1000
0000
0001
0000
0100
0000
0001
0010
0001
0000
1000
0000
0100
0000
,  // measure 67
1000
0010
0001
0020
0000
1030
0100
0001
,  // measure 68
1000
0010
0001
0020
0000
0031
0100
0001
,  // measure 69
1000
0000
0000
0000
1000
0100
0020
0000
0000
0000
0000
0000
0000
0000
0030
0000
,  // measure 70
0001
0010
0001
0010
0100
1000
0100
1000
0001
0100
0001
0100
0010
1000
0010
0000
,  // measure 71
1010
0000
0000
0000
1100
0000
0000
0000
0010
0001
0200
0000
0000
0000
0301
0000
,  // measure 72
0011
0000
0000
0000
1100
0000
0000
0000
0010
1000
0200
0000
0000
0000
0310
0000
,  // measure 73
0001
0000
0101
0000
0110
0000
1000
0000
1100
0000
0110
0000
,  // measure 74
1001
0000
0000
0000
1000
0010
1000
0000
0010
0100
0010
0000
0100
0001
0100
0000
,  // measure 75
0101
0000
0000
0000
0011
0000
0000
0000
0100
1000
0020
0000
0000
0000
1030
0000
,  // measure 76
1100
0000
0000
0000
1010
0000
0000
0000
0100
0001
0020
0000
0000
0000
0031
0000
,  // measure 77
1000
0000
1100
0000
0110
0000
0001
0000
0011
0000
0110
0000
,  // measure 78
1010
0000
0110
0000
0101
0000
2002
0000
0000
3003
0000
0000
,  // measure 79
0011
0000
0110
0000
1100
0000
1002
0000
0000
0000
0000
0000
,  // measure 80
1003
0010
0002
0000
0013
0200
0000
0301
,  // measure 81
0200
0000
1300
0200
0000
0301
0100
0001
,  // measure 82
0000
0010
2000
0000
3010
0200
0000
1300
,  // measure 83
0200
0000
0301
0200
0000
1300
0100
1000
,  // measure 84
0000
0001
0100
0000
0100
1000
0000
1000
,  // measure 85
0010
0000
0010
0001
0000
0001
1000
0001
,  // measure 86
0000
1000
0100
0000
0100
0001
0000
0001
,  // measure 87
0010
0000
0010
1000
0000
1000
0001
1000
;

//---------------dance-single - NewbStepper-DSP----------------
#NOTES:
     dance-single:
     NewbStepper:
     Medium:
     12:
     0.571844,0.663690,0.236021,0.264343,0.113290,424,399,25,28,0,0,0.571844,0.663690,0.236021,0.264343,0.113290,424,399,25,28,0,0:
0000
0000
0000
0000
,
0000
0000
0000
0000
,
0000
0000
0000
0000
,
0000
0000
0000
0000
,
0000
0000
0000
0000
,
0000
0000
0000
0000
,
0000
0000
0000
0000
,
1001
0000
0000
0000
,
0010
1000
0100
0010
0001
0100
0010
0000
,
1000
0000
1000
0100
0000
0100
0010
0000
,
0001
0000
0001
0100
0000
0100
0010
0000
,
1000
0000
1000
0001
0000
0001
0010
0100
,
1000
0001
0000
0100
0000
0010
0000
1000
,
2020
0000
3030
0000
0001
0100
0010
0100
,
0001
0010
0100
1000
0000
1000
0010
0000
,
1000
0100
0010
0001
0000
0001
0010
0000
,
1000
0000
0010
0200
0000
0000
0300
0000
,
1000
0010
0100
0001
1000
0100
0010
0001
,
1000
0010
0100
0001
0000
0001
0010
0000
,
0001
0100
0010
1000
0000
1000
0010
0000
,
0001
0000
0010
0200
0000
0000
0300
0000
,
0001
0010
0100
1000
0010
0100
0001
0000
,
1000
0000
0100
0000
0001
0200
0000
1300
,
0001
0000
0100
0000
1000
0200
0000
0301
,
1000
0000
1000
0000
1000
0000
0001
0000
0001
0000
0001
0000
,
0010
0101
1010
0110
,
0001
0000
0010
0000
1000
0020
0000
0031
,
1000
0000
0010
0000
0001
0020
0000
1030
,
0001
0000
0001
0000
0001
0000
1000
0000
1000
0000
1000
0000
,
0010
0000
0100
0000
0010
0000
2000
0000
0000
3000
0000
0000
,
0001
0000
0100
0000
0010
0000
2000
0000
0000
3000
0000
0000
,
1000
0010
0100
0000
0001
0010
0000
0001
,
0100
0000
1000
0100
0000
0001
0010
0001
,
0000
0010
0100
0000
1000
0010
0000
1000
,
0100
0000
0001
0100
0000
1000
0100
0010
,
0001
0100
1000
0000
0100
0010
0000
1000
,
0010
0000
0001
0010
0000
1000
0100
1000
,
0000
0100
0001
0000
0100
0010
0000
0001
,
0010
0000
1000
0010
0000
0001
0100
0001
,
2000
0000
0001
0000
0010
0010
0000
0001
,
0001
0000
0100
3100
0000
1000
0100
1000
,
0002
0000
1000
0000
0010
0010
0000
1000
,
1000
0000
0100
0103
0000
0001
0100
0001
,
1000
0100
0010
0000
0001
0100
0000
0100
,
0010
0000
0010
1000
0000
1000
0100
1000
,
0001
0100
0010
0000
1000
0100
0000
0100
,
0010
0000
0010
0001
0000
0001
0100
0001
,
0101
0000
0010
0000
0010
0000
0010
1000
,
1100
0000
0010
0000
0010
0000
0010
0001
,
0201
0010
1000
0001
,
0320
1000
0001
0130
,
0001
0100
0001
0100
0000
0010
1000
0000
,
1000
0100
1000
0100
0000
0010
0001
0000
,
1000
0100
0010
0100
0001
0100
1000
0000
,
0001
0100
0010
0100
1000
0100
0001
0010
,
0200
0000
0000
0000
,
2300
0000
0000
0000
,
3020
0000
0000
0030
,
1000
0100
0010
0001
1000
0010
0100
0001
,
0200
0000
0000
0000
,
0302
0000
0000
0000
,
0023
0000
0000
0030
,
0001
0100
1000
0100
0010
0010
0010
0000
,
1000
0010
0100
0001
0000
0001
0010
0000
,
0001
0100
0010
1000
0000
1000
0010
0000
,
0001
0000
0010
0200
0000
0000
0300
0000
,
0001
0010
0100
1000
0001
0100
0010
1000
,
0001
0010
0100
1000
0000
1000
0010
0000
,
1000
0100
0010
0001
0000
0001
0010
0000
,
1000
0000
0010
0200
0000
0000
0300
0000
,
1000
0010
0100
0001
0010
0100
1000
0000
,
0001
0000
0100
0000
1000
0200
0000
0301
,
1000
0000
0100
0000
0001
0200
0000
1300
,
0001
0000
0001
0000
0001
0000
1000
0000
1000
0000
1000
0000
,
0010
1100
0011
0110
,
1000
0000
0010
0000
0001
0020
0000
1030
,
0001
0000
0010
0000
1000
0020
0000
0031
,
1000
0000
1000
0000
1000
0000
0001
0000
0001
0000
0001
0000
,
0010
0000
0100
0000
0010
0000
0002
0000
0000
0003
0000
0000
,
1000
0000
0100
0000
0010
0000
0002
0000
0000
0003
0000
0000
,
0001
0000
0100
0000
1010
0000
0000
0110
,
0000
0000
0101
0000
0000
0001
0100
1000
,
0000
0000
0100
0000
0011
0000
0000
0110
,
0000
0000
1100
0000
0000
1000
0100
0001
,
0000
0110
0000
0000
1010
0000
0000
0101
,
0000
0000
1010
0000
0000
0001
0010
1000
,
0000
0110
0000
0000
0011
0000
0000
1100
,
0000
0000
0011
0000
0000
1000
0010
0001
;

//---------------dance-single - NewbStepper-BSP----------------
#NOTES:
     dance-single:
     NewbStepper:
     Easy:
     7:
     0.366843,0.456287,0.207698,0.236021,0,272,250,22,25,0,0,0.366843,0.456287,0.207698,0.236021,0,272,250,22,25,0,0:
0000
0000
0000
0000
,
0000
0000
0000
0000
,
0000
0000
0000
0000
,
0000
0000
0000
0000
,
0000
0000
0000
0000
,
0000
0000
0000
0000
,
0000
0000
0000
0000
,
1001
0000
0000
0000
,
0220
0000
0000
0330
,
1000
0020
1030
0000
,
0001
0020
0031
0000
,
1000
0100
1000
0010
,
0200
0000
0000
0000
,
0020
0000
0000
0330
,
1000
0000
0001
0010
,
0100
0000
1000
0010
,
0100
0000
0000
0202
0000
0000
0303
0000
,
0001
0010
0100
1000
,
0001
0000
1000
0010
,
0100
0000
0001
0010
,
0100
0000
0000
2200
0000
0000
3300
0000
,
1000
0010
0100
0001
,
0010
0001
0011
0000
,
1000
0010
1010
0000
,
0001
0100
1000
0100
,
0001
0010
0110
0000
,
1000
0010
1010
0000
,
0001
0010
0011
0000
,
1000
0100
0001
0100
,
1000
0010
0110
0000
,
1001
0000
2002
3003
,
1000
0100
0010
0001
,
0100
1000
0100
0000
,
0001
0100
0010
1000
,
0100
0001
0100
0000
,
1000
0010
0100
0001
,
0010
1000
0010
0000
,
0001
0010
0100
1000
,
0010
0001
0010
1000
,
0000
0001
0000
0000
1000
0000
0000
0010
,
0000
0000
0100
0000
0000
0001
0000
0001
,
0000
1000
0000
0000
0001
0000
0000
0010
,
0000
0000
0100
0000
0000
1000
0000
1000
,
0000
0001
0001
0000
0100
0100
0000
0010
,
0010
0000
1000
1000
0000
0001
0000
0001
,
0000
1000
1000
0000
0100
0100
0000
0010
,
0010
0000
0001
0001
0000
1000
0000
1000
,
0001
0100
0001
0000
,
0100
1000
0100
0000
,
1000
0010
1000
0000
,
0010
0001
0010
0000
,
0001
0100
0001
0100
,
0010
1000
0010
1000
,
0002
0000
0000
0003
,
1000
0100
0001
0100
,
2000
0000
0000
3000
,
0200
0000
0000
0300
,
0020
0000
0000
0030
,
0001
0100
0010
1000
,
0002
0000
0000
0003
,
0200
0000
0000
0300
,
0020
0000
0000
0030
,
1000
0100
0010
0001
,
0001
0000
1000
0010
,
0100
0000
0001
0010
,
0100
0000
0000
2200
0000
0000
3300
0000
,
1000
0010
0100
0001
,
1000
0000
0001
0010
,
0100
0000
1000
0010
,
0100
0000
0000
0202
0000
0000
0303
0000
,
0001
0010
0100
1000
,
0010
1000
1010
0000
,
0001
0010
0011
0000
,
1000
0100
0001
0100
,
1000
0010
0110
0000
,
0001
0010
0011
0000
,
1000
0010
1010
0000
,
0001
0100
1000
0100
,
0001
0010
0110
0000
,
1001
0000
2002
3003
,
0000
0001
0001
0000
0100
0100
0000
0010
,
0010
0000
1000
1000
0000
0001
0000
0001
,
0000
1000
1000
0000
0100
0100
0000
0010
,
0010
0000
0001
0001
0000
1000
0000
1000
,
0000
0001
0000
0000
0010
0000
0000
0100
,
0000
0000
1000
0000
0000
0010
0000
0010
,
0000
1000
0000
0000
0100
0000
0000
0010
,
0000
0000
0001
0000
0000
0010
0000
0010
;

//---------------dance-single - NewbStepper-bSP----------------
#NOTES:
     dance-single:
     NewbStepper:
     Beginner:
     4:
     0.188816,0.284169,0.018882,0.037763,0,140,138,2,4,0,0,0.188816,0.284169,0.018882,0.037763,0,140,138,2,4,0,0:
0000
0000
0000
0000
,
0000
0000
0000
0000
,
0000
0000
0000
0000
,
0000
0000
0000
0000
,
0000
0000
0000
0000
,
0000
0000
0000
0000
,
0000
0000
0000
0000
,
1001
0000
0000
0000
,
0000
0000
0000
0000
,
1000
0000
0000
0000
,
0001
0000
0000
0000
,
1000
0000
0000
0000
,
0220
0000
0000
0330
,
0000
0000
0000
0000
,
0001
0001
0001
0000
,
1000
1000
1000
0000
,
0010
0000
0000
0100
0000
0000
0000
0000
,
0001
1000
0001
0000
,
1000
1000
1000
0000
,
0001
0001
0001
0000
,
0010
0000
0000
0100
0000
0000
0000
0000
,
1000
0001
1000
0000
,
0001
0000
0001
0000
,
1000
0000
1000
0000
,
0010
0000
0010
0000
,
0010
0100
0010
0000
,
1000
0000
1000
0000
,
0001
0000
0001
0000
,
0010
0000
0010
0000
,
0100
0000
0100
0000
,
2000
0000
0000
3000
,
0001
0000
0001
0000
,
0100
0000
0100
0000
,
1000
0000
1000
0000
,
0100
0000
0100
0000
,
0001
0000
0001
0000
,
0010
0000
0010
0000
,
0100
0000
0100
0000
,
1000
0000
1000
0000
,
0001
0000
0001
0000
,
0001
0000
0000
0000
0000
0100
0000
0000
,
1000
0000
1000
0000
,
1000
0000
0000
0000
0000
0100
0000
0000
,
0001
0000
0001
0000
,
0001
0000
0000
0000
0000
0010
0000
0000
,
1000
0000
1000
0000
,
1000
0000
0000
0000
0000
0010
0000
0000
,
0001
0000
0000
0000
,
1000
0000
0000
0000
,
0100
0000
0000
0000
,
0010
0000
0000
0000
,
0001
0000
0001
0000
,
1000
0000
1000
0000
,
0010
0000
0000
0000
,
0100
0000
0010
0000
,
0100
0000
0000
0000
,
0000
0000
0000
0000
,
0000
0000
0000
0000
,
0001
0000
1000
0000
,
0000
0000
0100
0000
,
0000
0000
0000
0000
,
0000
0000
0000
0000
,
1000
0000
0001
0000
,
1000
1000
1000
0000
,
0001
0001
0001
0000
,
0010
0000
0000
0100
0000
0000
0000
0000
,
1000
0001
1000
0000
,
0001
0001
0001
0000
,
1000
1000
1000
0000
,
0010
0000
0000
0100
0000
0000
0000
0000
,
0001
1000
0001
0000
,
1000
0000
1000
0000
,
0001
0000
0001
0000
,
0010
0000
0010
0000
,
0010
0100
0010
0000
,
0001
0000
0001
0000
,
1000
0000
1000
0000
,
0010
0000
0010
0000
,
0100
0000
0100
0000
,
0002
0000
0000
0003
,
1000
0000
0000
0000
,
0000
0000
0000
0000
,
0001
0000
0000
0000
,
0000
0000
0000
0000
,
1000
0000
0000
0000
,
0000
0000
0000
0000
,
0001
0000
0000
0000
;

//---------------dance-double - NewbStepper-EDP----------------
#NOTES:
     dance-double:
     NewbStepper:
     Hard:
     16:
     0.791680,1.037015,0.490923,0.500363,0.457880,587,535,52,53,0,0,0.791680,1.037015,0.490923,0.500363,0.457880,587,535,52,53,0,0:
00000000
00000000
00000000
00000000
,
00000000
00000000
00000000
00000000
,
00000000
00000000
00000000
00000000
,
00000000
00000000
00000000
00000000
,
00000000
00000000
00000000
00000000
,
00000000
00000000
00000000
00000000
,
00000000
00000000
00000000
00000000
,
10010000
00000000
00000000
00000000
,
00100000
00010000
00100000
00000000
01000000
10000000
01000000
00000000
00100000
00010000
00100000
00010000
10000000
00000000
00100000
00000000
,
01000000
00000000
00000000
00000000
01000000
00000000
00010000
00000000
00000000
00000000
00010000
00000000
00100000
00001000
00010000
00000000
,
00001000
00000000
00000000
00000000
00001000
00000000
00000010
00000000
00000000
00000000
00000010
00000000
00000001
00000100
00000010
00000000
,
00001000
00000000
00000000
00000000
00001000
00000000
00010000
00000000
00000000
00000000
00010000
00000000
01000000
00100000
01000000
00000000
,
00020000
10000000
00000000
10000000
00000000
10030000
00000000
01000000
,
00020000
00000000
00000000
00000000
00030000
00000000
00000000
00000000
00001000
00010000
00001000
00010000
00000100
00001000
00000100
00000010
,
00000001
00000010
00001000
00020000
00000000
00031000
00000100
00000010
,
00001000
00010000
01000000
00200000
00000000
10300000
01000000
00100000
,
00010000
00000000
00000000
00000000
00010000
01000000
00200000
00000000
00000000
00000000
00000000
00000000
00300000
00000000
00000000
00000000
,
10000000
00100000
10000000
00000000
00010000
00000000
00100000
00000000
00001000
00010000
00001000
00000000
00010000
00000000
01000000
00000000
,
10000000
00100000
00010000
00002000
00000000
00013000
01000000
00100000
,
00010000
00001000
00000100
00000020
00000000
00000031
00000100
00000010
,
00001000
00000000
00000000
00000000
00001000
00000100
00000020
00000000
00000000
00000000
00000000
00000000
00000030
00000000
00000000
00000000
,
00000001
00000100
00000001
00000100
00000010
00000100
00000010
00000000
00001000
00000100
00010000
00000100
00010000
00001000
00010000
00000000
,
00011000
00000000
00000000
00000000
01001000
00000000
00000000
00000000
00100000
10000000
02000000
00000000
00000000
00000000
03010000
00000000
,
00011000
00000000
00000000
00000000
00010100
00000000
00000000
00000000
00000010
00000001
00000200
00000000
00000000
00000000
00001300
00000000
,
00011000
00000000
01010000
00000000
11000000
00000000
10100000
00000000
01100000
00000000
01010000
00000000
,
10010000
00000000
00000000
00000000
10000000
01000000
10000000
00000000
01000000
00010000
01000000
00000000
00010000
00001000
00010000
00000000
,
00011000
00000000
00000000
00000000
00010010
00000000
00000000
00000000
00000100
00000001
00000020
00000000
00000000
00000000
00001030
00000000
,
00011000
00000000
00000000
00000000
00101000
00000000
00000000
00000000
01000000
10000000
00200000
00000000
00000000
00000000
00310000
00000000
,
00001000
00000000
00011000
00000000
00011000
00000000
00000010
00000000
00000110
00000000
00000110
00000000
,
00000101
00000000
00000110
00000000
00001010
00000000
00002000
00000000
00000000
00000000
00000000
00000000
,
00013000
00000000
01010000
00000000
01100000
00000000
20010000
00000000
00000000
00000000
00000000
00000000
,
30010000
00010000
01000000
10000000
10000000
01000000
00100000
01000000
,
00010000
10000000
00100000
00010000
00000000
00001000
00000010
00000001
,
00000000
00001000
00000010
00000001
00000001
00000010
00001000
00010000
,
01000000
00000000
00100000
00000000
10000000
00000000
01000000
00000000
00010000
00000000
00001000
00100000
00001000
00100000
00010000
00000000
,
00000000
00001000
00000100
00000001
00000001
00000100
00000010
00000100
,
00001000
00000001
00000010
00001000
00000000
00010000
00100000
10000000
,
00000000
00010000
00100000
10000000
10000000
00100000
00010000
00001000
,
00000100
00000000
00000010
00000000
00000001
00000000
00000100
00000000
00001000
00000000
00010000
00000010
00010000
00000010
00001000
00000000
,
00000000
00010000
02000000
00000000
03100000
02000000
00000000
13000000
,
02000000
00000000
03010000
00200000
00000000
00301000
00000010
00000001
,
00000100
00000010
00000100
00001000
01000000
00010000
00001000
00010000
,
01000000
00100000
10000000
01000000
00010000
00001000
00000100
00000001
,
00000000
00001000
00000200
00000000
00000310
00000200
00000000
00000301
,
00000200
00000000
00001300
00000020
00000000
00010030
00100000
10000000
,
01000000
00100000
01000000
00010000
00000100
00001000
00010000
00001000
,
00000100
00000000
00000010
00000000
00000001
00000000
00000100
00000000
00001000
00010000
00001000
00010000
00001000
00010000
00100000
00000000
,
10000000
00000000
01000000
00000000
00010000
00000000
00000000
00000000
00001000
00000000
00000100
00000000
00000001
00000000
00000010
00000100
,
00000010
00000001
00000100
00000001
00000000
00001000
00000100
00000010
,
00001000
00000000
00010000
00000000
00100000
01000000
00100000
00000000
00010000
00000000
00001000
00000000
00000010
00000100
00000010
00000000
,
00001000
00010000
00100000
10000000
01000000
00100000
00010000
00000000
,
20000000
00000000
00000000
00000000
31000000
10000000
02000000
00000000
00000000
00000000
03100000
00010000
00200000
00000000
00000000
00000000
,
00302000
00000000
00000000
00000000
00013000
00001000
00020000
00000000
00000000
00000000
00000000
00000000
00030000
00000000
00000010
00001000
,
00000010
00000000
00000100
00000001
00000100
00000000
00000010
00001000
00000100
00000000
00010000
00001000
00100000
00000000
00010000
10000000
,
00100000
01000000
00100000
10000000
01000000
00010000
00001000
00000010
,
00000002
00000000
00000000
00000000
,
00000203
00000000
00000000
00000000
,
00002300
00000000
00000000
00003000
,
00010000
00001000
00010000
00001000
00010000
00001000
00100000
00000000
01000000
10000000
01000000
10000000
01000000
10000000
00010000
00000000
,
20000000
00000000
00000000
00000000
,
32000000
00000000
00000000
00000000
,
03020000
00000000
00000000
00030000
,
00011000
00000000
00000000
00000000
00000000
00000000
00000000
00000000
00010000
00001000
00010000
00001000
01000000
00010000
01000000
00100000
,
10000000
00100000
00010000
00002000
00000000
00013000
01000000
00100000
,
00010000
00001000
00000100
00000020
00000000
00000031
00000100
00000010
,
00001000
00000000
00000000
00000000
00001000
00000100
00000020
00000000
00000000
00000000
00000000
00000000
00000030
00000000
00000000
00000000
,
00000001
00000010
00000001
00000000
00001000
00000000
00000010
00000000
00010000
00001000
00010000
00000000
00001000
00000000
00000100
00000000
,
00000001
00000010
00001000
00020000
00000000
00031000
00000100
00000010
,
00001000
00010000
01000000
00200000
00000000
10300000
01000000
00100000
,
00010000
00000000
00000000
00000000
00010000
01000000
00200000
00000000
00000000
00000000
00000000
00000000
00300000
00000000
00000000
00000000
,
10000000
01000000
10000000
01000000
00100000
01000000
00100000
00000000
00010000
01000000
00010000
01000000
00001000
00010000
00001000
00000000
,
00011000
00000000
00000000
00000000
00010100
00000000
00000000
00000000
00000010
00000001
00000200
00000000
00000000
00000000
00001300
00000000
,
00011000
00000000
00000000
00000000
01001000
00000000
00000000
00000000
00100000
10000000
02000000
00000000
00000000
00000000
03010000
00000000
,
00011000
00000000
00001100
00000000
00000101
00000000
00000011
00000000
00000110
00000000
00001100
00000000
,
00001001
00000000
00000000
00000000
00000001
00000100
00000001
00000000
00000100
00001000
00000100
00000000
00001000
00010000
00001000
00000000
,
00011000
00000000
00000000
00000000
00101000
00000000
00000000
00000000
01000000
10000000
00200000
00000000
00000000
00000000
00310000
00000000
,
00011000
00000000
00000000
00000000
00010010
00000000
00000000
00000000
00000100
00000001
00000020
00000000
00000000
00000000
00001030
00000000
,
00010000
00000000
00011000
00000000
00011000
00000000
00100000
00000000
01100000
00000000
01100000
00000000
,
11000000
00000000
01100000
00000000
00110000
00000000
00020000
00000000
00000000
00000000
00000000
00000000
,
00031000
00000000
00001100
00000000
00000110
00000000
00001002
00000000
00000000
00000000
00000000
00000000
,
00001003
00000010
00000200
00000000
00001300
00020000
00000000
00130000
,
00020000
00000000
00031000
00000200
00000000
00001300
00010000
00001000
,
00000000
00100000
02000000
00000000
03010000
00002000
00000000
00003010
,
00002000
00000000
00013000
02000000
00000000
03010000
00001000
00010000
,
00000000
00000100
00000001
00000000
00000100
00001000
00000000
00010000
,
00100000
00000000
01000000
10000000
00000000
00100000
00010000
00001000
,
00000000
01000000
10000000
00000000
01000000
00010000
00000000
00001000
,
00000010
00000000
00000100
00000001
00000000
00000010
00001000
00010000
;

//---------------dance-double - NewbStepper-DDP----------------
#NOTES:
     dance-double:
     NewbStepper:
     Medium:
     12:
     0.561054,0.663690,0.207698,0.273784,0.113290,416,394,22,29,0,0,0.561054,0.663690,0.207698,0.273784,0.113290,416,394,22,29,0,0:
00000000
00000000
00000000
00000000
,
00000000
00000000
00000000
00000000
,
00000000
00000000
00000000
00000000
,
00000000
00000000
00000000
00000000
,
00000000
00000000
00000000
00000000
,
00000000
00000000
00000000
00000000
,
00000000
00000000
00000000
00000000
,
00001001
00000000
00000000
00000000
,
00000010
00001000
00000100
00010000
00001000
00100000
00010000
00000000
,
10000000
00000000
10000000
01000000
00000000
01000000
00010000
00000000
,
00001000
00000000
00001000
00000010
00000000
00000010
00000001
00000000
,
00001000
00000000
00000001
00000100
00000000
00000010
00001000
00000000
,
00000001
00000100
00000000
00001000
00000000
00010000
00000000
01000000
,
20000000
00000000
30000000
00000000
00010000
01000000
00100000
10000000
,
00010000
00100000
01000000
10000000
00000000
10000000
01000000
00000000
,
10000000
00100000
00010000
00001000
00000000
00100000
00010000
00000000
,
00001000
00000000
00000100
00000020
00000000
00000000
00000030
00000000
,
00000001
00000100
00000010
00010000
00001000
00000100
00000001
00000000
,
00001000
00000010
00000100
00000001
00000000
00000001
00000100
00000000
,
00000001
00000010
00001000
00010000
00000000
00000010
00001000
00000000
,
00010000
00000000
01000000
00200000
00000000
00000000
00300000
00000000
,
10000000
00100000
01000000
00010000
00100000
00001000
00010000
00000100
,
00001000
00000000
00000001
00000000
00000100
00002000
00000000
00013000
,
00100000
00000000
00010000
00000000
00001000
00020000
00000000
00130000
,
10000000
00000000
01000000
00000000
00010000
00000000
00001000
00000000
00000100
00000000
00000001
00000000
,
00000010
00001100
00011000
01010000
,
00010000
00000000
10000000
00000000
01000000
00020000
00000000
00031000
,
00000010
00000000
00001000
00000000
00010000
00002000
00000000
00003010
,
00000001
00000000
00000100
00000000
00001000
00000000
00010000
00000000
01000000
00000000
10000000
00000000
,
00100000
00000000
01000000
00000000
00100000
00000000
20000000
00000000
00000000
30000000
00000000
00000000
,
00010000
00000000
01000000
00000000
00001000
00000000
00020000
00000000
00000000
00030000
00000000
00000000
,
00001000
00000010
00000001
00000000
00000100
00000010
00000000
00001000
,
00000100
00000000
00010000
00001000
00000000
00010000
01000000
10000000
,
00000000
00100000
10000000
00000000
01000000
00100000
00000000
00010000
,
01000000
00000000
00001000
00010000
00000000
00001000
00000010
00000001
,
00000000
00000100
00000001
00000000
00000010
00000100
00000000
00001000
,
00000010
00000000
00010000
00001000
00000000
00010000
00100000
10000000
,
00000000
01000000
10000000
00000000
00100000
01000000
00000000
00010000
,
00100000
00000000
00001000
00010000
00000000
00001000
00000100
00000001
,
00000010
00000000
00002000
00000000
00010000
00010000
00000000
00000010
,
00000010
00000000
00010000
00013000
00000000
00001000
00010000
01000000
,
10000000
01000000
00020000
00000000
00001000
00001000
00000000
00100000
,
00100000
00000000
00001000
00031000
00000000
00010000
00001000
00000100
,
00000001
00000100
00000010
00000000
00001000
00000100
00000000
00000100
,
00000010
00000000
00000010
00001000
00000000
00001000
00010000
00100000
,
10000000
01000000
00100000
00000000
00010000
01000000
00000000
01000000
,
00100000
00000000
00100000
00010000
00000000
00010000
00001000
00000010
,
00000002
00000100
00000100
00000103
,
00002000
00000100
00000100
00003100
,
00021000
00000100
00001000
00000100
,
00032000
01000000
00010000
01000000
,
00013000
00000000
01000000
10000000
00000000
00100000
00010000
00000000
,
00001000
00000000
00000100
00000001
00000000
00000010
00001000
00000000
,
00010000
00001000
00010000
00001000
00010000
00001000
00010000
00000000
,
00100000
01000000
00100000
01000000
00100000
10000000
00100000
10000000
,
02000000
00000000
00000000
00000000
,
03020000
00000000
00000000
00000000
,
00032000
00000000
00000000
00003000
,
00000010
00000001
00000010
00000100
00001000
00000100
00010000
00001000
,
00000200
00000000
00000000
00000000
,
00002300
00000000
00000000
00000000
,
00023000
00000000
00000000
00030000
,
00100000
10000000
01000000
00100000
00001000
00010000
00000010
00000000
,
00001000
00000010
00000100
00000001
00000000
00000001
00000100
00000000
,
00000001
00000010
00001000
00010000
00000000
00000010
00001000
00000000
,
00010000
00000000
01000000
00200000
00000000
00000000
00300000
00000000
,
10000000
01000000
00100000
00001000
00010000
01000000
10000000
00000000
,
00010000
00100000
01000000
10000000
00000000
10000000
01000000
00000000
,
10000000
00100000
00010000
00001000
00000000
00100000
00010000
00000000
,
00001000
00000000
00000100
00000020
00000000
00000000
00000030
00000000
,
00000001
00000010
00000100
00001000
00000010
00010000
00001000
01000000
,
00010000
00000000
10000000
00000000
01000000
00020000
00000000
00031000
,
00000010
00000000
00001000
00000000
00010000
00002000
00000000
00003010
,
00000001
00000000
00000100
00000000
00001000
00000000
00010000
00000000
01000000
00000000
10000000
00000000
,
00100000
01010000
00011000
00001100
,
00001000
00000000
00000001
00000000
00000100
00002000
00000000
00013000
,
00100000
00000000
00010000
00000000
00001000
00020000
00000000
00130000
,
10000000
00000000
01000000
00000000
00010000
00000000
00001000
00000000
00000100
00000000
00000001
00000000
,
00000010
00000000
00000100
00000000
00000010
00000000
00000002
00000000
00000000
00000003
00000000
00000000
,
00001000
00000000
00000100
00000000
00010000
00000000
00002000
00000000
00000000
00003000
00000000
00000000
,
00010000
00000000
01000000
00000000
01100000
00000000
00000000
10010000
,
00000000
00000000
11000000
00000000
00000000
10000000
01000000
00010000
,
00000000
00000000
00000100
00000000
00000110
00000000
00000000
00001001
,
00000000
00000000
00000101
00000000
00000000
00000001
00000100
00001000
,
00000000
00011000
00000000
00000000
01010000
00000000
00000000
00011000
,
00000000
00000000
00110000
00000000
00000000
00100000
00010000
00001000
,
00000000
00011000
00000000
00000000
00001100
00000000
00000000
00011000
,
00000000
00000000
00001010
00000000
00000000
00000010
00001000
00010000
;

//---------------dance-double - NewbStepper-BDP----------------
#NOTES:
     dance-double:
     NewbStepper:
     Easy:
     7:
     0.366843,0.456287,0.188816,0.236021,0,272,252,20,25,0,0,0.366843,0.456287,0.188816,0.236021,0,272,252,20,25,0,0:
00000000
00000000
00000000
00000000
,
00000000
00000000
00000000
00000000
,
00000000
00000000
00000000
00000000
,
00000000
00000000
00000000
00000000
,
00000000
00000000
00000000
00000000
,
00000000
00000000
00000000
00000000
,
00000000
00000000
00000000
00000000
,
00001001
00000000
00000000
00000000
,
00000220
00000000
00000000
00000330
,
00000001
00000020
00000031
00000000
,
00001000
00000020
00001030
00000000
,
00000100
00010000
00001000
00010000
,
00200000
00000000
00000000
00000000
,
02000000
00000000
00000000
03300000
,
00010000
00000000
10000000
00100000
,
00010000
00000000
00001000
00000010
,
00000001
00000000
00000000
00000202
00000000
00000000
00000303
00000000
,
00001000
00000010
00000100
00000001
,
00001000
00000000
00000001
00000010
,
00001000
00000000
00010000
00100000
,
10000000
00000000
00000000
22000000
00000000
00000000
33000000
00000000
,
00010000
00100000
01000000
10000000
,
00010000
00100000
00110000
00000000
,
10000000
00100000
10100000
00000000
,
10000000
01000000
00010000
00001000
,
00000100
00000010
00000110
00000000
,
00001000
00000010
00001010
00000000
,
00000001
00000010
00000011
00000000
,
00000001
00000100
00001000
00010000
,
01000000
00100000
01100000
00000000
,
10000000
00010000
20020000
30030000
,
10000000
01000000
00100000
01000000
,
00010000
00001000
00000010
00000000
,
00000001
00000100
00000010
00000100
,
00001000
00010000
00100000
00000000
,
10000000
00100000
01000000
00100000
,
00010000
00001000
00000100
00000000
,
00000001
00000010
00000100
00000010
,
00001000
00010000
01000000
10000000
,
00000000
00010000
00000000
00000000
10000000
00000000
00000000
00100000
,
00000000
00000000
00010000
00000000
00000000
00001000
00000000
00001000
,
00000000
00000100
00000000
00000000
00000001
00000000
00000000
00000010
,
00000000
00000000
00000100
00000000
00000000
00001000
00000000
00001000
,
00000000
00000100
00000100
00000000
00010000
00010000
00000000
00001000
,
00001000
00000000
00100000
00100000
00000000
00010000
00000000
00010000
,
00000000
01000000
01000000
00000000
00001000
00001000
00000000
00010000
,
00010000
00000000
00000010
00000010
00000000
00001000
00000000
00001000
,
00000001
00000100
00000001
00000000
,
00000100
00001000
00000100
00000000
,
00001000
00010000
00001000
00000000
,
00010000
00100000
00010000
00000000
,
00100000
10000000
00100000
10000000
,
01000000
00010000
01000000
00010000
,
00002000
00000000
00000000
00003000
,
00010000
00001000
00000100
00000001
,
00000020
00000000
00000000
00000030
,
00000200
00000000
00000000
00000300
,
00002000
00000000
00000000
00003000
,
00010000
01000000
00100000
10000000
,
00200000
00000000
00000000
00300000
,
02000000
00000000
00000000
03000000
,
00020000
00000000
00000000
00030000
,
00001000
00000100
00000010
00000001
,
00001000
00000000
00000001
00000010
,
00001000
00000000
00010000
00100000
,
10000000
00000000
00000000
02020000
00000000
00000000
03030000
00000000
,
00010000
00100000
01000000
10000000
,
00010000
00000000
10000000
00100000
,
00010000
00000000
00001000
00000010
,
00000001
00000000
00000000
00000202
00000000
00000000
00000303
00000000
,
00001000
00000010
00000100
00000001
,
00001000
00000010
00001010
00000000
,
00000001
00000010
00000011
00000000
,
00000001
00000100
00001000
00010000
,
01000000
00100000
01100000
00000000
,
00010000
00100000
00110000
00000000
,
10000000
00100000
10100000
00000000
,
10000000
01000000
00010000
00001000
,
00000100
00000010
00000110
00000000
,
00000001
00001000
00002002
00003003
,
00000000
00000001
00000001
00000000
00000100
00000100
00000000
00000010
,
00000010
00000000
00001000
00001000
00000000
00010000
00000000
00010000
,
00000000
10000000
10000000
00000000
01000000
01000000
00000000
00100000
,
00100000
00000000
00010000
00010000
00000000
00001000
00000000
00001000
,
00000000
00000001
00000000
00000000
00000010
00000000
00000000
00000100
,
00000000
00000000
00001000
00000000
00000000
00010000
00000000
00010000
,
00000000
10000000
00000000
00000000
00100000
00000000
00000000
01000000
,
00000000
00000000
00010000
00000000
00000000
00001000
00000000
00001000
;
