#VERSION:0.83;
#TITLE:Small Steps;
#ARTIST:かめりあ;
#ARTISTTRANSLIT:Camellia;
#BANNER:Small Steps.png;
#BACKGROUND:Small Steps-bg.png;
#JACKET:Small Steps-jacket.png;
#MUSIC:Small Steps.ogg;
#OFFSET:0.86;
#SAMPLESTART:28.5;
#SAMPLELENGTH:15;
#BPMS:0=106;

//---------------dance-single - NewbStepper-bSP----------------
#NOTEDATA:;
#CHARTNAME:NewbStepper-bSP;
#STEPSTYPE:dance-single;
#DESCRIPTION:NewbStepper-bSP;
#DIFFICULTY:Beginner;
#METER:1;
#RADARVALUES:0.066615,0.100309,0.010844,0,0,43,42,1,0,0,0,0,0,0,0.066615,0.100309,0.010844,0,0,43,42,1,0,0,0,0,0,0;
#CREDIT:NewbStepper;
#NOTES:
// measure 0
0000
0000
0000
0000
,  // measure 1
0000
0000
0000
0000
,  // measure 2
0000
0000
0000
0000
,  // measure 3
1000
0000
0000
0000
,  // measure 4
0000
0000
0000
0000
,  // measure 5
0001
0000
0000
0000
,  // measure 6
1000
0000
0000
0000
,  // measure 7
0001
0000
0000
0000
,  // measure 8
1000
0000
0000
0000
,  // measure 9
0010
0000
0000
0000
,  // measure 10
0010
0000
0000
0000
,  // measure 11
0100
0000
0000
0000
,  // measure 12
0100
0000
0000
0000
,  // measure 13
0001
0000
0001
0000
,  // measure 14
1000
0000
1000
0000
,  // measure 15
0010
0000
0010
0000
,  // measure 16
0100
0000
0000
0000
,  // measure 17
0001
0000
0000
0000
,  // measure 18
0001
0000
0000
0000
,  // measure 19
0001
0000
0000
0000
,  // measure 20
0100
0000
0000
0000
,  // measure 21
1000
0000
0000
0000
,  // measure 22
1000
0000
0000
0000
,  // measure 23
1000
0000
0000
0000
,  // measure 24
0100
0000
0000
0000
,  // measure 25
0001
0000
1000
0000
,  // measure 26
0001
0000
1000
0000
,  // measure 27
0001
0000
0000
0000
,  // measure 28
0100
0000
0000
0000
,  // measure 29
0010
0000
0010
0000
,  // measure 30
1000
0000
1000
0000
,  // measure 31
0001
0000
0001
0000
,  // measure 32
0100
0000
0000
0000
,  // measure 33
0001
0000
0000
0000
,  // measure 34
1000
0000
0000
0000
,  // measure 35
0001
0000
0000
0000
,  // measure 36
1000
0000
0000
0000
,  // measure 37
1001
0000
0000
0000
;

//---------------dance-single - NewbStepper-BSP----------------
#NOTEDATA:;
#CHARTNAME:NewbStepper-BSP;
#STEPSTYPE:dance-single;
#DESCRIPTION:NewbStepper-BSP;
#DIFFICULTY:Easy;
#METER:3;
#RADARVALUES:0.159565,0.195196,0.010844,0.119286,0,103,102,1,11,0,0,0,0,0,0.159565,0.195196,0.010844,0.119286,0,103,102,1,11,0,0,0,0,0;
#CREDIT:NewbStepper;
#NOTES:
// measure 0
0000
0000
0000
0000
,  // measure 1
0000
0000
0000
0000
,  // measure 2
0000
0000
0000
0000
,  // measure 3
0100
0000
0010
0000
,  // measure 4
0100
0100
0001
0000
,  // measure 5
2000
0000
3000
0001
,  // measure 6
0020
0000
0000
0030
,  // measure 7
0002
0000
0000
1003
,  // measure 8
0020
0000
0000
0030
,  // measure 9
1000
0100
1000
0000
,  // measure 10
0001
0100
0001
0000
,  // measure 11
1000
0100
0010
0001
,  // measure 12
0200
0000
0000
0300
,  // measure 13
0001
0100
0001
0000
,  // measure 14
1000
0100
1000
0000
,  // measure 15
0001
0100
0010
1000
,  // measure 16
0200
0000
0000
0300
,  // measure 17
0010
0000
0001
0100
,  // measure 18
0001
0000
1000
0100
,  // measure 19
1000
0000
0001
0100
,  // measure 20
0010
1000
0001
0100
,  // measure 21
0010
0000
1000
0100
,  // measure 22
1000
0000
0001
0100
,  // measure 23
0001
0000
1000
0100
,  // measure 24
0010
0001
1000
0100
,  // measure 25
0010
0001
0100
0000
,  // measure 26
0010
1000
0100
0000
,  // measure 27
1000
0100
0010
0001
,  // measure 28
0100
0010
1000
0000
,  // measure 29
0001
0100
0010
0100
,  // measure 30
1000
0100
0001
0001
,  // measure 31
1000
0100
0010
0100
,  // measure 32
0001
0100
1000
1000
,  // measure 33
0002
0100
0000
0103
,  // measure 34
2000
0100
0000
3100
,  // measure 35
0020
0100
0000
0130
,  // measure 36
2002
0000
0000
3003
,  // measure 37
1000
0000
0000
0000
,  // measure 38
0100
0000
0000
0000
,  // measure 39
0010
0000
0000
0000
,  // measure 40
0001
0000
0000
0000
;

//---------------dance-single - NewbStepper-DSP----------------
#NOTEDATA:;
#CHARTNAME:NewbStepper-DSP;
#STEPSTYPE:dance-single;
#DESCRIPTION:NewbStepper-DSP;
#DIFFICULTY:Medium;
#METER:8;
#RADARVALUES:0.272655,0.309331,0.043377,0.119286,0.113864,176,172,4,11,0,0,0,0,0,0.272655,0.309331,0.043377,0.119286,0.113864,176,172,4,11,0,0,0,0,0;
#CREDIT:NewbStepper;
#NOTES:
// measure 0
0000
0000
0000
0000
,  // measure 1
0000
0000
0000
0000
,  // measure 2
0000
0000
0000
0000
,  // measure 3
0010
0000
1000
0100
0001
0000
0100
0000
,  // measure 4
1000
0000
0010
1000
0001
0000
0100
0000
,  // measure 5
0020
0000
0030
1000
,  // measure 6
0002
0000
0000
0000
0103
0000
0010
0100
,  // measure 7
0002
1000
0100
1003
,  // measure 8
0200
0000
0000
0310
,  // measure 9
1001
0000
0100
0001
0010
0000
0100
0000
,  // measure 10
1000
0000
0100
1000
0010
0000
0100
0000
,  // measure 11
0001
0000
0100
0001
0100
0001
1000
0000
,  // measure 12
0010
0000
0100
0001
1000
0001
0100
0000
,  // measure 13
0010
1000
0100
0000
0010
0000
0001
0000
,  // measure 14
0010
0001
0100
0000
0010
0000
1000
0000
,  // measure 15
0001
0100
0010
0000
1000
0000
1001
0000
,  // measure 16
0220
0000
0000
0330
,  // measure 17
1000
0000
0000
0001
0000
0000
0100
0000
0000
0001
0000
0000
1000
0000
0000
0000
,  // measure 18
0001
0000
0000
1000
0000
0000
0100
0000
0000
1000
0000
0000
0001
0000
0000
0000
,  // measure 19
0100
0000
0000
0010
0000
0000
1000
0000
0000
0001
0000
0000
0010
0000
0000
0000
,  // measure 20
0100
0000
0000
0010
0000
0000
0001
0000
0000
1000
0000
0000
0010
0000
0000
0100
,  // measure 21
0000
0000
0000
0001
0000
0000
0010
0000
0000
0001
0000
0000
1000
0000
0000
0000
,  // measure 22
0001
0000
0000
1000
0000
0000
0010
0000
0000
1000
0000
0000
0001
0000
0000
0000
,  // measure 23
0010
0000
0000
0100
0000
0000
1000
0000
0000
0001
0000
0000
0100
0000
0000
0000
,  // measure 24
0010
0000
0000
0100
0000
0000
0001
0000
0000
1000
0000
0000
0100
0000
0000
0010
,  // measure 25
0000
0000
0001
0100
0010
0000
1000
0000
,  // measure 26
0001
0000
0100
1000
0100
0010
1000
0000
,  // measure 27
0001
0000
0100
0010
0001
0010
1000
0000
,  // measure 28
0100
0000
0001
0100
0010
0001
1000
0000
,  // measure 29
0001
0000
1000
0100
0010
0000
0001
0000
,  // measure 30
1000
0000
0100
0001
0100
0010
0001
0000
,  // measure 31
1000
0000
0100
0010
1000
0010
0001
0000
,  // measure 32
0100
0000
1000
0100
0010
1000
0001
0000
,  // measure 33
2000
0100
0001
3100
,  // measure 34
0002
0100
1000
0103
,  // measure 35
0020
0001
1000
0031
,  // measure 36
0200
1000
0001
1300
,  // measure 37
0110
0000
0000
0000
0000
0000
0000
0000
0000
0001
0000
0000
0001
0000
0000
0000
,  // measure 38
0100
0000
0000
0000
0000
0000
0000
0000
0000
1000
0000
0000
1000
0000
0000
0000
,  // measure 39
0100
0000
0000
0000
0000
0000
0000
0000
0000
0001
0000
0000
0001
0000
0000
0000
,  // measure 40
0020
0000
0000
0030
;

//---------------dance-single - Marten-ESP----------------
#NOTEDATA:;
#CHARTNAME:Marten-ESP;
#STEPSTYPE:dance-single;
#DESCRIPTION:Marten-ESP;
#DIFFICULTY:Hard;
#METER:11;
#RADARVALUES:0.412080,0.486092,0.238573,0.737407,0.352437,266,244,22,68,0,0,0,0,0,0.412080,0.486092,0.238573,0.737407,0.352437,266,244,22,68,0,0,0,0,0;
#CREDIT:Marten;
#NOTES:
// measure 0
0000
0000
0000
0000
,  // measure 1
0000
0000
0000
0000
,  // measure 2
0000
0000
0000
0000
,  // measure 3
0001
0000
0100
0000
0001
0000
0010
0000
0100
1000
0000
0000
1000
0000
0001
0000
,  // measure 4
0200
0000
0000
0320
0000
0000
2030
0000
0000
3002
0000
0000
1003
0000
0100
0000
,  // measure 5
2000
0000
0000
3100
0010
0100
0000
2000
0000
0000
0000
0000
3002
0000
0000
0023
,  // measure 6
0000
0000
0100
0000
0130
1000
0001
0100
,  // measure 7
0002
0000
0000
0103
0010
0100
0000
0002
0000
0000
0000
0000
2003
0000
0000
3020
,  // measure 8
0000
0000
0030
0110
,  // measure 9
2000
0000
0000
3200
0000
0000
0302
0000
0000
0203
0000
0000
2300
0000
0000
0000
,  // measure 10
3002
0000
0000
0203
0000
0000
1300
0000
1100
0000
0000
0000
0101
0000
0000
0000
,  // measure 11
0002
0000
0000
0023
0000
0000
2030
0000
0000
3020
0000
0000
0032
0000
0000
0000
,  // measure 12
2003
0000
0000
3020
0000
0000
0031
0000
0010
1000
0000
0001
0010
0000
0100
0000
,  // measure 13
1100
0000
1000
0000
0001
0000
0100
0001
0100
0000
0010
0000
0120
0000
0000
0000
,  // measure 14
1030
0000
0100
0000
1000
0001
0000
0100
0002
0000
0000
0000
0013
0000
0000
0000
,  // measure 15
0110
0000
0100
0000
1000
0100
0000
0001
0100
0000
1000
0000
1001
0000
0000
0000
,  // measure 16
0220
0000
0000
0330
,  // measure 17
0102
0000
0000
0013
0100
0000
0001
0000
0100
0020
0000
0000
0230
0000
0300
0000
,  // measure 18
2100
0000
0000
3010
0100
0000
1000
0000
0100
0020
0000
0000
0230
0000
0300
0000
,  // measure 19
1020
0000
0000
0130
0001
0000
0010
0000
0100
0002
0000
0000
0203
0000
0300
0000
,  // measure 20
0021
0000
0000
0130
1000
0000
0010
0000
0100
2000
0000
3001
0020
0000
1030
0000
,  // measure 21
1002
0000
0000
0013
0100
0000
0001
0000
0100
2000
0000
3001
0200
0000
0310
0000
,  // measure 22
0120
0000
0000
1030
0001
0000
0100
0000
1000
0200
0000
0301
0020
0000
0130
0000
,  // measure 23
0120
0000
0000
0130
1000
0000
0001
0000
0010
2000
0000
3001
0200
0000
1300
0000
,  // measure 24
2001
0000
0000
3020
0000
0000
0032
0000
0000
2003
0000
0000
3200
0000
0000
0301
,  // measure 25
1000
0000
0100
0000
0001
0100
0000
0100
1000
0000
0010
0000
0002
0000
0000
0000
,  // measure 26
1003
0000
0100
0000
0010
1000
0000
1000
0100
0000
0001
0000
0200
0000
0000
0000
,  // measure 27
0310
0000
0001
0000
0100
0000
0010
0001
0000
0001
0010
0000
2000
0000
0000
0000
,  // measure 28
3001
0000
0100
0000
0001
0000
0010
0100
0000
0010
0100
0000
1000
0000
1000
0000
,  // measure 29
0001
0000
0010
0000
1000
0010
0000
0010
0100
0000
1000
0000
0020
0000
0000
0000
,  // measure 30
0130
0000
1000
0000
0100
0001
0000
0001
1000
0000
0010
0000
0200
0000
0000
0000
,  // measure 31
0301
0000
0010
0000
0100
0000
0001
0100
0000
0100
1000
0000
0020
0000
0000
0000
,  // measure 32
1030
0000
0010
0000
0100
0000
1000
0001
0000
1000
0001
0000
0020
0000
1000
0000
,  // measure 33
1030
0000
1100
0000
0101
0000
0001
0100
,  // measure 34
0010
0000
1010
0000
0110
0000
0100
0001
,  // measure 35
0010
0000
0011
0000
1100
0000
1000
0001
,  // measure 36
0100
0010
1000
0100
0001
0100
2000
0000
,  // measure 37
3002
0000
0000
0000
0000
0000
0000
0000
0000
0100
0000
0000
0103
0000
0000
0000
,  // measure 38
2000
0000
0000
0000
0000
0000
0000
0000
0000
0100
0000
0000
3100
0000
0000
0000
,  // measure 39
0020
0000
0000
0000
0000
0000
0000
0000
0000
1000
0000
0000
0031
0000
0000
0000
,  // measure 40
0200
0000
0000
0000
0000
0000
0000
0000
0000
0001
0000
0000
1300
0000
0000
0000
;

//---------------dance-single - Talkion-CSP----------------
#NOTEDATA:;
#CHARTNAME:Talkion-CSP;
#STEPSTYPE:dance-single;
#DESCRIPTION:Talkion-CSP;
#DIFFICULTY:Challenge;
#METER:12;
#RADARVALUES:0.480244,0.552378,0.314482,0.628965,0.417503,310,281,29,58,68,0,0,0,0,0.480244,0.552378,0.314482,0.628965,0.417503,310,281,29,58,68,0,0,0,0;
#CREDIT:Talkion;
#NOTES:
0000
0000
0000
0000
,
0010
0001
0100
0000
0100
0001
0010
0000
,
0100
1000
0100
0001
0100
0010
1001
0000
,
0100
1000
0010
0000
0010
1000
0100
0000
,
0010
0001
0010
1000
0010
0100
1001
0000
,
2000
0000
0000
3000
0000
1000
0020
0000
0000
0030
0000
0010
0200
0000
0000
0300
0000
0100
0002
0000
0000
1003
0000
0000
,
0002
0000
0000
0003
0000
0001
0020
0000
0000
0030
0000
0010
0200
0000
0000
0300
0000
0100
2000
0000
0000
3001
0000
0000
,
0200
0000
0000
0300
0000
0100
2000
0000
0000
3000
0000
1000
0200
0000
0000
0300
0000
0100
0002
0000
0000
1003
0000
0000
,
0200
0000
0000
0000
0000
0000
0010
0000
0000
0000
0000
0010
0000
0000
0000
0310
0000
0000
1001
0000
0000
0000
0000
0000
,
0002
0000
0000
0000
0000
0203
0000
0000
0000
2300
0000
0000
0000
0000
3020
0000
0000
0000
2030
0000
0000
3200
0000
0000
,
0302
0000
0000
0000
0000
0023
0000
0000
0000
2030
0000
0000
0000
0000
3200
0000
0000
0000
2300
0000
0000
3020
0000
0000
,
0032
0000
0000
0000
0000
0203
0000
0000
0000
2300
0000
0000
0000
0000
3002
0000
0000
0000
0203
0000
0000
0302
0000
0000
,
2003
0000
0000
0000
0000
3200
0000
0000
0000
0302
0000
0000
0000
0000
2003
0000
0000
0000
3200
0000
0000
0320
0000
0000
,
0031
0000
0000
0000
0000
0001
0100
0000
0000
0010
0000
0000
1000
0000
0001
1000
0000
0000
0100
0000
0000
0010
0000
0000
,
0001
0000
0000
0000
0000
0001
0010
0000
0000
0100
0000
0000
1000
0000
0001
1000
0000
0000
0010
0000
0000
0100
0000
0000
,
0010
0000
0000
0000
0000
0010
1000
0000
0000
0100
0000
0000
0001
0000
0100
0001
0000
0000
0100
0000
0000
0010
0000
0000
,
0002
0000
0000
0000
1000
1003
MMMM
0000
,
0011
0000
0000
0000
0000
0010
0100
0000
0000
1000
0000
0000
0010
0000
0100
0000
0000
0010
1000
0000
0000
MMMM
0000
0000
,
1100
0000
0000
0000
0000
0100
0010
0000
0000
0001
0000
0000
0100
0000
0010
0000
0000
0100
0001
0000
0000
MMMM
0000
0000
,
0011
0000
0000
0000
0000
0010
0100
0000
0000
1000
0000
0000
0001
0000
0100
0000
0000
0010
1000
0000
0000
MMMM
0000
0000
,
1001
0000
0000
0000
0000
0001
0010
0000
0000
0100
0000
0000
0010
0000
0001
0000
0000
1000
0010
0000
0000
MMMM
0000
0000
,
1010
0000
0000
0000
0000
0010
0100
0000
0000
1000
0000
0000
0100
0000
0001
0000
0000
1000
0001
0000
0000
MMMM
0000
0000
,
0011
0000
0000
0000
0000
0010
0100
0000
0000
0001
0000
0000
0100
0000
1000
0000
0000
0001
1000
0000
0000
MMMM
0000
0000
,
1100
0000
0000
0000
0000
0100
1000
0000
0000
0010
0000
0000
0001
0000
0010
0000
0000
0100
0010
0000
0000
MMMM
0000
0000
,
0010
1000
0010
2000
0000
0000
3001
0000
0010
0000
0001
0000
0020
0000
0000
0130
1000
0100
1000
0000
0000
MMMM
0000
0000
,
1001
0000
0000
0001
0000
0000
0100
0000
0010
1000
0000
0010
1000
0000
0000
0100
0000
0000
0110
0000
0000
MMMM
0000
0000
,
0110
0000
0000
0010
0000
0000
0001
0000
1000
0010
0000
1000
0010
0000
0000
0100
0000
0000
0101
0000
0000
MMMM
0000
0000
,
0101
0000
0000
0100
0000
0000
0010
0000
1000
0001
0000
1000
0001
0000
0000
0010
0000
0000
0110
0000
0000
MMMM
0000
0000
,
0110
0000
0000
0100
0000
0000
1000
0000
0001
0100
0000
0001
0100
0000
0000
0010
0000
0000
1010
0000
0000
MMMM
0000
0000
,
1001
0000
0000
0001
0000
0000
0010
0000
1000
0010
0000
1000
0010
0000
0000
0100
0000
0000
0110
0000
0000
MMMM
0000
0000
,
0110
0000
0000
0100
0000
0000
1000
0000
0001
0100
0000
0001
0100
0000
0000
0010
0000
0000
1010
0000
0000
MMMM
0000
0000
,
1010
0000
0000
1000
0000
0000
0100
0000
0001
0100
0000
0001
0100
0000
0000
0010
0000
0000
0011
0000
0000
MMMM
0000
0000
,
2002
0000
0000
0000
0000
3003
MMMM
0000
,
0002
0000
0000
0003
0000
0001
0100
0000
0000
1000
0000
0000
0200
0000
0010
0000
0000
0000
0020
0000
0000
0330
0000
0000
,
2000
0000
0000
3000
0000
1000
0100
0000
0000
0001
0000
0000
0200
0000
0010
0000
0000
0000
0020
0000
0000
0330
0000
0000
,
0200
0000
0000
0300
0000
0100
1000
0000
0000
0010
0000
0000
0002
0000
0010
0000
0000
0000
0020
0000
0000
0033
0000
0000
,
0200
0000
0000
0300
0000
0100
0001
0000
0000
0010
0000
0000
2000
0000
0010
0000
0000
0000
0020
0000
0000
3030
0000
0000
,
0210
0000
0000
0000
0000
0000
0000
0010
0000
0310
0000
0000
,
1002
0000
0000
0000
0000
0000
0000
0100
0000
0103
0000
0000
,
2001
0000
0000
0000
0000
0000
0000
0100
0000
3100
0000
0000
,
0210
0000
0000
0000
0000
0000
0000
0001
0000
1300
0000
0000
;

//---------------dance-double - NewbStepper-BDP----------------
#NOTEDATA:;
#CHARTNAME:NewbStepper-BDP;
#STEPSTYPE:dance-double;
#DESCRIPTION:NewbStepper-BDP;
#DIFFICULTY:Easy;
#METER:3;
#RADARVALUES:0.159565,0.195196,0.010844,0.119286,0,103,102,1,11,0,0,0,0,0,0.159565,0.195196,0.010844,0.119286,0,103,102,1,11,0,0,0,0,0;
#CREDIT:NewbStepper;
#NOTES:
00000000
00000000
00000000
00000000
,
00000000
00000000
00000000
00000000
,
00000000
00000000
00000000
00000000
,
00010000
00000000
00001000
00000000
,
01000000
01000000
00010000
00000000
,
20000000
00000000
30000000
00010000
,
00200000
00000000
00000000
00300000
,
00002000
00000000
00000000
00013000
,
00000020
00000000
00000000
00000030
,
00001000
00000100
00001000
00000000
,
00000001
00000100
00000001
00000000
,
00001000
00000100
00010000
00001000
,
00200000
00000000
00000000
00300000
,
00010000
01000000
00010000
00000000
,
10000000
01000000
10000000
00000000
,
00010000
01000000
00001000
00010000
,
00000020
00000000
00000000
00000030
,
00000100
00000000
00000001
00000010
,
00000001
00000000
00001000
00000010
,
00001000
00000000
00000001
00000010
,
00000100
00010000
00001000
00100000
,
01000000
00000000
10000000
00100000
,
10000000
00000000
00010000
00100000
,
00010000
00000000
10000000
00100000
,
01000000
00001000
00010000
00000010
,
00000100
00000001
00001000
00000000
,
00000100
00001000
00000001
00000000
,
00000100
00000010
00010000
00001000
,
01000000
00100000
10000000
00000000
,
00010000
01000000
00100000
00010000
,
00001000
00000100
00000010
00000010
,
00001000
00000100
00000010
00001000
,
00010000
01000000
00100000
00100000
,
00020000
01000000
00000000
01030000
,
20000000
01000000
00000000
31000000
,
00020000
01000000
00000000
01030000
,
00022000
00000000
00000000
00033000
,
00010000
00000000
00000000
00000000
,
00001000
00000000
00000000
00000000
,
00000100
00000000
00000000
00000000
,
00000010
00000000
00000000
00000000
;

//---------------dance-double - NewbStepper-DDP----------------
#NOTEDATA:;
#CHARTNAME:NewbStepper-DDP;
#STEPSTYPE:dance-double;
#DESCRIPTION:NewbStepper-DDP;
#DIFFICULTY:Medium;
#METER:9;
#RADARVALUES:0.269556,0.287236,0.032533,0.119286,0.113864,174,171,3,11,0,0,0,0,0,0.269556,0.287236,0.032533,0.119286,0.113864,174,171,3,11,0,0,0,0,0;
#CREDIT:NewbStepper;
#NOTES:
00000000
00000000
00000000
00000000
,
00000000
00000000
00000000
00000000
,
00000000
00000000
00000000
00000000
,
00010000
00000000
00001000
00000100
00000001
00000000
00000100
00000000
,
00000010
00000000
00010000
00001000
00100000
00000000
01000000
00000000
,
20000000
00000000
30000000
01000000
,
00020000
00000000
00000000
00031000
,
00000010
00000001
00002000
00000000
00000010
00000000
00000001
00000000
,
00000100
00023000
00000000
01030000
,
10010000
00000000
01000000
10000000
00100000
00000000
00010000
00000000
,
00001000
00000000
00000100
00000001
00000010
00000000
00001000
00000000
,
00010000
00000000
00100000
10000000
00010000
00000000
01000000
00000000
,
00001000
00000100
00000001
00000000
00000010
00000000
00001000
00000000
,
00010000
00100000
10000000
00000000
01000000
00000000
00010000
00000000
,
00001000
00000010
00000001
00000000
00000100
00000000
00001000
00000000
,
00010000
00000100
00001000
00000000
00010000
00000000
01000000
00000000
,
02200000
00000000
00000000
03300000
,
10000000
00000000
00000000
01000000
00000000
00000000
00100000
00000000
00000000
00010000
00000000
00000000
00001000
00000000
00000000
00000000
,
00000001
00000000
00000000
00000100
00000000
00000000
00000010
00000000
00000000
00001000
00000000
00000000
00010000
00000000
00000000
00000000
,
10000000
00000000
00000000
01000000
00000000
00000000
00010000
00000000
00000000
00001000
00000000
00000000
00000100
00000000
00000000
00000000
,
00000001
00000000
00000000
00000010
00000000
00000000
00001000
00000000
00000000
00010000
00000000
00000000
00100000
00000000
00000000
10000000
,
00000000
00000000
00000000
00010000
00000000
00000000
01000000
00000000
00000000
00010000
00000000
00000000
00001000
00000000
00000000
00000000
,
00000001
00000000
00000000
00001000
00000000
00000000
00000100
00000000
00000000
00001000
00000000
00000000
00010000
00000000
00000000
00000000
,
10000000
00000000
00000000
00100000
00000000
00000000
00010000
00000000
00000000
00001000
00000000
00000000
00000010
00000000
00000000
00000000
,
00000001
00000000
00000000
00000100
00000000
00000000
00000010
00000000
00000000
00001000
00000000
00000000
00010000
00000000
00000000
01000000
,
00000000
00100000
10000000
01000000
00010000
00000000
00001000
00000000
,
00000010
00000000
00000001
00000100
00001000
00000000
00010000
00000000
,
00100000
10000000
01000000
00000000
00100000
00010000
01000000
00000000
,
00001000
00000000
00010000
00001000
00000100
00000001
00001000
00000000
,
00000001
00000000
00000100
00001000
00000100
00000010
00001000
00000000
,
00000100
00000000
00010000
00001000
00000010
00001000
00010000
00000000
,
00001000
00000000
00010000
00001000
00010000
00100000
10000000
00000000
,
01000000
00000000
00010000
00001000
00000100
00000010
00001000
00000000
,
00000002
00000100
00001000
00000103
,
00000200
00001000
00000010
00001300
,
00002000
00010000
00000010
00013000
,
00020000
01000000
00001000
01030000
,
01100000
00000000
00000000
00000000
00000000
00000000
00000000
00000000
00000000
10000000
00000000
00000000
10000000
00000000
00000000
00000000
,
01000000
00000000
00000000
00000000
00000000
00000000
00000000
00000000
00000000
00010000
00000000
00000000
00010000
00000000
00000000
00000000
,
00001000
00000000
00000000
00000000
00000000
00000000
00000000
00000000
00000000
00000100
00000000
00000000
00000100
00000000
00000000
00000000
,
00000020
00000000
00000000
00000030
;

//---------------dance-double - NewbStepper-EDP----------------
#NOTEDATA:;
#CHARTNAME:NewbStepper-EDP;
#STEPSTYPE:dance-double;
#DESCRIPTION:NewbStepper-EDP;
#DIFFICULTY:Hard;
#METER:11;
#RADARVALUES:0.419826,0.486092,0.130131,0.086754,0.249417,271,259,12,8,0,0,0,0,0,0.419826,0.486092,0.130131,0.086754,0.249417,271,259,12,8,0,0,0,0,0;
#CREDIT:NewbStepper;
#NOTES:
00000000
00000000
00000000
00000000
,
00000000
00000000
00000000
00000000
,
00000000
00000000
00000000
00000000
,
10000000
01000000
00010000
00001000
00000100
00000001
00000010
00000001
,
00000100
00000000
00001000
00000000
00010000
00000000
01000000
00000000
00000000
10000000
01000000
00000000
00010000
00000000
00001000
00000000
,
00000010
00000000
00000000
00000001
00000100
00000000
00000000
00000010
00001000
00000000
00010000
00000000
01000000
00000000
00001000
00000000
,
00010000
00100000
10000000
00010000
00100000
00000000
00010000
01000000
,
00100000
00000000
00000000
10000000
01000000
00000000
00000000
00100000
00010000
00000000
00001000
00000000
00000100
00000000
00010000
00000000
,
00001000
00000010
00000001
00000100
00000010
00000000
00001001
00000000
,
00000010
00000000
00000001
00000100
00000010
00001000
00010000
00000000
,
10000000
01000000
00010000
00000100
00000010
00000001
00001000
00000000
,
00000100
00001000
00010000
00000010
00001000
00010000
00100000
00000000
,
10000000
00000000
01000000
00000000
00010000
00000000
00000100
00001000
00000000
00000000
00000001
00000000
00000100
00000000
00000000
00000000
,
00000010
00000000
00001000
00000000
00000001
00000000
00000100
00001000
00000000
00001000
00010000
00000000
00100000
00000000
10000000
00010000
,
00100000
00000000
00010000
00000000
10000000
00000000
01000000
00010000
00000000
00010000
00001000
00000000
00000010
00000000
00000001
00001000
,
00000010
00001000
00000001
00000100
00001000
00010000
00001000
00000010
,
00002000
00000000
00000000
00003000
,
00011000
00000000
00000000
00010000
01000000
00000000
00100000
00000000
00010000
20000000
00000000
00000000
31000000
00000000
00000000
00000000
,
00011000
00000000
00000000
00001000
00000100
00000000
00000010
00000000
00001000
00000002
00000000
00000000
00000103
00000000
00000000
00000000
,
00011000
00000000
00000000
00010000
00100000
00000000
01000000
00000000
00010000
20000000
00000000
00000000
30100000
00000000
00000000
00000000
,
00011000
00000000
00000000
00000100
00000001
00000000
00000010
00000000
00000100
00001000
00000000
00000001
00000010
00000000
00000000
00001000
,
00010000
00000000
00000000
01000000
10000000
00000000
00100000
00000000
00010000
00100000
00000000
10000000
01000000
00000000
00010000
00000000
,
00011000
00000000
00000000
00000100
00000001
00000000
00000010
00000000
00001000
00000010
00000000
00000001
00000100
00000000
00001000
00000000
,
00011000
00000000
00000000
00100000
10000000
00000000
01000000
00000000
00010000
01000000
00000000
10000000
00100000
00000000
00010000
00000000
,
00011000
00000000
00000000
00001010
00000000
00000000
00000011
00000000
00000000
00000101
00000000
00000000
00001100
00000000
00000000
00001000
,
00010000
00000000
00100000
10000000
01000000
00010000
00000100
00000000
,
00000010
00000001
00000100
00010000
00001000
00000010
00001000
00000000
,
00010000
10000000
00100000
00001000
00010000
01000000
00010000
00000000
,
00001000
00000001
00000100
00001000
00000100
00000001
00000010
00000000
,
00000010
00000001
00001000
00000001
00000100
00001000
01000000
00000000
,
00100000
10000000
01000000
00001000
00010000
00100000
00010000
00000000
,
00001000
00000001
00000010
00010000
00001000
00000100
00001000
00000000
,
00010000
00100000
01000000
10000000
01000000
00010000
00001000
00000000
,
00000010
00000000
00000000
00000001
00000010
00000000
00001000
00000000
00010000
00100000
00000000
00000000
10000000
00000000
00000000
00000000
,
00100000
00000000
00000000
10000000
00100000
00000000
00010000
00000000
00001000
00000010
00000000
00000000
00000001
00000000
00000000
00000000
,
00000100
00000000
00000000
00000001
00000100
00000000
00001000
00000000
00010000
01000000
00000000
00000000
10000000
00000000
00000000
00000000
,
01000000
00000000
00000000
10000000
01000000
00000000
00010000
00000000
00001000
00000100
00000000
00000000
00000001
00000000
00000000
00000000
,
00002000
00000000
00000000
00000000
00000000
00000000
00000000
00000000
00000000
00000100
00000000
00000000
00003100
00000000
00000000
00000000
,
00020000
00000000
00000000
00000000
00000000
00000000
00000000
00000000
00000000
01000000
00000000
00000000
01030000
00000000
00000000
00000000
,
00002000
00000000
00000000
00000000
00000000
00000000
00000000
00000000
00000000
00000010
00000000
00000000
00003010
00000000
00000000
00000000
,
00020000
00000000
00000000
00000000
00000000
00000000
00000000
00000000
00000000
00100000
00000000
00000000
00130000
00000000
00000000
00000000
;

//---------------dance-double - Talkion-CDP----------------
#NOTEDATA:;
#CHARTNAME:Talkion-CDP;
#STEPSTYPE:dance-double;
#DESCRIPTION:Talkion-CDP;
#DIFFICULTY:Challenge;
#METER:12;
#RADARVALUES:0.460105,0.552378,0.292794,0.585588,0.379548,297,270,27,54,96,0,0,0,0,0.460105,0.552378,0.292794,0.585588,0.379548,297,270,27,54,96,0,0,0,0;
#CREDIT:Talkion;
#NOTES:
00000000
00000000
00000000
00000000
,
00010000
00001000
00000100
00000000
00001000
00010000
00100000
00000000
,
00010000
00001000
00010000
01000000
10000000
00100000
00010000
00000000
,
00100000
00010000
00001000
00000000
00010000
00001000
00000100
00000000
,
00001000
00000100
00000001
00000010
00001000
00010000
00001000
00000000
,
00200000
00000000
00000000
00300000
00000000
00100000
02000000
00000000
00000000
03000000
00000000
01000000
20000000
00000000
00000000
30000000
00000000
10000000
00200000
00000000
00000000
00300000
00000000
00100000
,
00020000
00000000
00000000
00030000
00000000
00010000
00002000
00000000
00000000
00003000
00000000
00001000
00000020
00000000
00000000
00000030
00000000
00000010
00000002
00000000
00000000
00000003
00000000
00000001
,
00000020
00000000
00000000
00000030
00000000
00000010
00000200
00000000
00000000
00000300
00000000
00000100
00002000
00000000
00000000
00003000
00000000
00001000
00020000
00000000
00000000
00030000
00000000
00010000
,
00200000
00000000
00000000
00000000
00000000
00000000
01000000
00000000
00000000
00000000
00000000
01000000
00000000
00000000
00000000
01300000
00000000
00000000
10010000
00000000
00000000
00000000
00000000
00000000
,
20000000
00000000
00000000
00000000
00000000
30200000
00000000
00000000
00000000
00320000
00000000
00000000
00000000
00000000
00032000
00000000
00000000
00000000
00023000
00000000
00000000
00000000
00000000
00000000
,
00230000
00000000
00000000
00000000
00000000
02300000
00000000
00000000
00000000
03002000
00000000
00000000
00000000
00000000
00023000
00000000
00000000
00000000
00030200
00000000
00000000
00000000
00000000
00000000
,
00000302
00000000
00000000
00000000
00000000
00000203
00000000
00000000
00000000
00002300
00000000
00000000
00000000
00000000
00023000
00000000
00000000
00000000
00032000
00000000
00000000
00000000
00000000
00000000
,
00003020
00000000
00000000
00000000
00000000
00002030
00000000
00000000
00000000
00003200
00000000
00000000
00020300
00000000
00002000
00033000
00000000
00000000
00011000
00000000
00000000
00000000
00000000
00000000
,
00110000
00000000
00000000
00000000
00000000
00100000
10000000
00000000
00000000
01000000
00000000
00000000
00100000
00000000
00000000
00010000
00000000
00000000
00001000
00000000
00000000
00000100
00000000
00000000
,
00000110
00000000
00000000
00000000
00000000
00000010
00000001
00000000
00000000
00000100
00000000
00000000
00000010
00000000
00000000
00001000
00000000
00000000
00010000
00000000
00000000
01000000
00000000
00000000
,
01100000
00000000
00000000
00000000
00000000
00100000
10000000
00000000
00000000
01000000
00000000
00000000
00010000
00000000
00000000
00001000
00000000
00000000
00000100
00000000
00000000
00000001
00000000
00000000
,
00000020
00000000
00000000
00000000
00000100
00000130
MMMMMMMM
00000000
,
00011000
00000000
00000000
00000000
00000000
00010000
00100000
00000000
00000000
01000000
00000000
00000000
00100000
00000000
10000000
00000000
00000000
00010000
00100000
00000000
00000000
MMMM0000
00000000
00000000
,
00001100
00000000
00000000
00000000
00000000
00000100
00000010
00000000
00000000
00000001
00000000
00000000
00000100
00000000
00000010
00000000
00000000
00001000
00000010
00000000
00000000
0000MMMM
00000000
00000000
,
01010000
00000000
00000000
00000000
00000000
01000000
00100000
00000000
00000000
10000000
00000000
00000000
01000000
00000000
00100000
00000000
00000000
00010000
00100000
00000000
00000000
MMMM0000
00000000
00000000
,
00001100
00000000
00000000
00000000
00000000
00001000
00000100
00000000
00000000
00000001
00000000
00000000
00000100
00000000
00001000
00000000
00000000
00000100
00010000
00000000
00000000
00001000
00000000
00000000
,
01001000
00000000
00000000
00000000
00000000
01000000
00100000
00000000
00000000
10000000
00000000
00000000
00100000
00000000
01000000
00000000
00000000
00010000
01000000
00000000
00000000
MMMM0000
00000000
00000000
,
00001010
00000000
00000000
00000000
00000000
00000010
00000100
00000000
00000000
00000001
00000000
00000000
00001000
00000000
00000100
00000000
00000000
00001000
00000010
00000000
00000000
0000MMMM
00000000
00000000
,
01010000
00000000
00000000
00000000
00000000
01000000
00100000
00000000
00000000
10000000
00000000
00000000
01000000
00000000
00100000
00000000
00000000
00010000
00100000
00000000
00000000
MMMM0000
00000000
00000000
,
00001000
00010000
00001000
00020000
00000000
00000000
00031000
00000000
00000100
00000000
00000010
00000000
00002000
00000000
00000000
00003100
00010000
00000100
00010000
00000000
00000000
00001000
00000000
00000000
,
00011000
00000000
00000000
00010000
00000000
00000000
01000000
00000000
00000000
00100000
00000000
00010000
10000000
00000000
00000000
00100000
00000000
00000000
01100000
00000000
00000000
MMMMMMMM
00000000
00000000
,
00011000
00000000
00000000
00001000
00000000
00000000
00000010
00000000
00000000
00000100
00000000
00001000
00000001
00000000
00000000
00000100
00000000
00000000
00000110
00000000
00000000
MMMMMMMM
00000000
00000000
,
00001100
00000000
00000000
00001000
00000000
00000000
00010000
00000000
00000000
01000000
00000000
00100000
01000000
00000000
00000000
10000000
00000000
00000000
10100000
00000000
00000000
MMMMMMMM
00000000
00000000
,
00110000
00000000
00000000
00010000
00000000
00000000
00001000
00000000
00000000
00000010
00000000
00000100
00000010
00000000
00000000
00000001
00000000
00000000
00001001
00000000
00000000
MMMMMMMM
00000000
00000000
,
00001100
00000000
00000000
00000100
00000000
00000000
00010000
00000000
00000000
00001000
00000000
01000000
00100000
00000000
00000000
01000000
00000000
00000000
11000000
00000000
00000000
MMMMMMMM
00000000
00000000
,
01010000
00000000
00000000
01000000
00000000
00000000
00001000
00000000
00000000
00010000
00000000
00000100
00000010
00000000
00000000
00000001
00000000
00000000
00000101
00000000
00000000
MMMMMMMM
00000000
00000000
,
00000110
00000000
00000000
00000100
00000000
00000000
00001000
00000000
00000000
00010000
00000000
00100000
01000000
00000000
00000000
00010000
00000000
00000000
10010000
00000000
00000000
MMMMMMMM
00000000
00000000
,
22000000
00000000
00000000
00000000
00000000
33000000
MMMMMMMM
00000000
,
02000000
00000000
00000000
03000000
00000000
01000000
00100000
00000000
00000000
00010000
00000000
00000000
00002000
00000000
00000010
00000000
00000000
00000000
00000020
00000000
00000000
00003030
00000000
00000000
,
00000020
00000000
00000000
00000030
00000000
00000010
00000100
00000000
00000000
00001000
00000000
00000000
00020000
00000000
01000000
00000000
00000000
00000000
02000000
00000000
00000000
03030000
00000000
00000000
,
02000000
00000000
00000000
03000000
00000000
01000000
10000000
00000000
00000000
00100000
00000000
00000000
00020000
00000000
00001000
00000000
00000000
00000000
00002000
00000000
00000000
00033000
00000000
00000000
,
00002000
00000000
00000000
00003000
00000000
00001000
00000100
00000000
00000000
00000001
00000000
00000000
00002000
00000000
00000100
00000000
00000000
00000000
00000200
00000000
00000000
00003300
00000000
00000000
,
00000020
00000000
00000000
00000000
00000000
00000000
00000000
00000001
00000000
00000031
00000000
00000000
,
00000200
00000000
00000000
00000000
00000000
00000000
00000000
00001000
00000000
00001300
00000000
00000000
,
00020000
00000000
00000000
00000000
00000000
00000000
00000000
01000000
00000000
01030000
00000000
00000000
,
20000000
00000000
00000000
00000000
00000000
00000000
00000000
00100000
00000000
30100000
00000000
00000000
;
