#VERSION:0.83;
#TITLE:Singularity;
#ARTIST:xi;
#BANNER:Singularity.png;
#BACKGROUND:Singularity-bg.png;
#JACKET:Singularity-jacket.png;
#MUSIC:Singularity.ogg;
#OFFSET:1.087;
#SAMPLESTART:72.618;
#SAMPLELENGTH:15;
#BPMS:0=197,65=98.5,69=197,226=98.5,232=197;
#TIMESIGNATURES:0=4=4,4=7=4,25=4=4,165=7=4,186=4=4,230=2=4,232=4=4,364=7=4,385=4=4;

//---------------dance-single - NewbStepper-ESP----------------
#NOTEDATA:;
#CHARTNAME:NewbStepper-ESP;
#STEPSTYPE:dance-single;
#DESCRIPTION:NewbStepper-ESP;
#DIFFICULTY:Hard;
#METER:17;
#RADARVALUES:0.845131,1.154904,0.709286,0.459867,0.985986,759,668,91,59,0,0,0,0,0,0.845131,1.154904,0.709286,0.459867,0.985986,759,668,91,59,0,0,0,0,0;
#CREDIT:NewbStepper;
#NOTES:
0000
0000
0000
0000
,
0000
0000
0000
0000
,
0000
0000
0000
0000
,
0000
0000
0000
0000
,
0000
0000
0000
0000
,
0000
0000
0000
0000
,
0000
0000
0000
0000
,
0000
0000
0110
0000
1000
0010
0100
0000
,
1001
0000
0000
0000
0001
0000
0100
0000
0010
1000
0010
0000
0100
0000
0010
1000
,
0010
0000
0220
0000
0000
0000
0000
0000
0330
0000
1000
0000
0001
0000
1000
0100
,
0010
0000
0000
0000
0001
0000
1000
0000
0100
0010
0100
0000
1000
0000
0001
1000
,
0001
0000
0202
0000
0000
0000
0303
0000
0010
1000
0010
1000
0100
0000
0010
0001
,
1000
0000
0000
0000
0001
0100
0000
0000
1010
0000
0000
0000
0001
0100
0000
0000
,
1010
0000
1000
0000
0100
0000
0001
0000
0100
0000
0010
0001
1000
0000
0010
1000
,
0010
0000
0000
1000
0000
0000
0010
0000
0000
0100
0000
0000
0001
0000
0000
0000
0000
0000
0000
0000
0101
0000
0000
0000
0000
0000
0000
0000
1010
0000
0000
0000
0000
0000
0000
0000
1001
0000
0000
0000
0000
0000
0000
0000
1100
0000
0000
0000
,
0000
0011
0000
0110
0000
0110
0000
0110
0000
1001
0000
1001
,
0000
0000
0000
0000
0000
0000
0000
0000
0000
0000
0000
0000
0000
0000
0000
0000
1001
0000
0000
0000
0000
0000
0000
0000
0000
0000
0000
0000
0000
0000
0000
0000
0000
0000
0000
0000
0000
0000
0000
0000
0000
0000
0000
0000
0000
0000
0000
0000
0020
0000
0000
0000
0000
0000
0000
0000
0000
0000
0000
0000
0000
0000
0000
0000
0000
0000
0000
0000
0000
0000
0000
0000
0000
0000
0000
0000
0000
0000
0000
0000
0000
0000
0000
0000
0000
0000
0000
0000
0000
0000
0000
0000
0000
0000
0000
0000
0000
0000
0000
0000
0000
0000
0000
0000
0000
0000
0000
0000
0000
0000
0000
0000
0000
0000
0000
0000
0000
0000
0000
0000
0030
0000
0000
0000
0000
0000
0000
0000
0000
0000
0000
0000
0000
0000
0000
0000
0000
0000
0000
0000
0000
0000
0000
0000
1000
0000
0000
0000
0000
0000
0100
0000
0000
0000
0000
0000
2000
0000
0000
0000
0000
0000
0000
0000
0000
0000
0000
0000
0000
0000
0000
0000
0000
0000
3000
0000
0000
0000
0000
0000
0001
0000
0000
0000
0000
0000
0100
0000
0000
0000
0000
0000
,
0001
0100
0010
0100
0010
1000
0010
1000
0002
0000
0000
0000
0000
0000
0000
0000
1003
0000
0000
0000
0100
0000
0000
0000
0001
0000
0000
0000
0100
0000
0010
0000
,
0000
0001
0000
1000
0010
0000
0100
0001
0000
0100
1000
0000
0100
0001
0100
0001
,
0100
0001
0100
0010
2000
0000
0000
0000
3001
0000
1000
0100
1000
0100
1000
0100
,
0010
0000
0001
0000
0101
0000
0000
1010
0000
0000
1001
0000
1000
0000
0010
0000
,
1000
0001
0010
0100
2000
0000
0000
0000
3001
0000
0100
0000
0010
1000
0001
0010
,
0100
1000
0001
0000
0100
0010
0000
0100
1000
0000
0100
0010
0000
2000
0000
3000
,
0001
1000
0100
0010
0002
0000
0000
0000
1003
0100
0000
0001
0000
0100
0000
0010
,
0000
0001
0000
1000
0001
0100
0001
0100
0001
0100
0010
1000
0010
1000
0002
0000
,
0000
0000
1003
0000
0200
0000
0000
0300
0010
0001
0010
0001
0010
0100
0000
1000
,
0000
0010
0000
0100
0000
0001
0000
1000
0000
0100
0000
0010
0001
0010
0001
0010
,
0001
0010
0100
1000
0002
0000
0003
0000
1000
0010
1000
0010
0000
0100
0000
0100
,
0000
0100
0001
0100
0010
1000
0000
1000
0100
0000
0010
0001
1000
0001
2000
0000
,
0000
0000
3001
0000
0200
0000
0300
0000
0010
1000
0010
1000
0010
0000
0200
0000
,
0000
0000
0301
0000
0000
0000
1000
0000
0001
0010
0001
0010
0001
1000
0001
1000
,
0001
0100
0010
0000
1010
0000
0000
0110
0000
0000
0101
0000
0011
0000
0000
0110
,
0000
0000
1100
0000
2000
0000
0000
0010
0000
0000
0001
0000
3100
0000
0120
0000
,
0000
0130
2000
0000
3001
0100
0000
1000
,
0100
0010
1000
0100
0001
0100
1000
0100
,
0020
0000
0032
0000
1003
0100
0000
0001
,
0100
0010
0001
0100
1000
0100
0001
0100
,
0010
0000
0000
1010
0000
1010
0000
1010
0000
1100
0000
1100
,
0000
1100
0000
0101
0000
0101
0000
0101
0000
0011
0000
0011
,
0000
0011
0000
1000
0100
1000
0001
0100
0001
1000
0010
0100
,
0001
0000
0000
0000
0010
0000
0000
0000
0100
0000
0000
0000
1000
0000
0000
0000
0010
0000
0000
0000
0100
0000
0000
0000
0001
0000
0000
0000
1000
0000
0000
0000
0010
0000
0000
0000
0100
0000
0000
0000
0000
0000
0001
0000
0000
0100
0000
0000
,
0010
1000
0100
0010
0002
0000
0000
0000
0000
0000
0000
0000
0000
0000
0000
0000
,
0000
0000
0000
0000
,
0003
0000
0000
0000
,
0000
0000
0000
0000
,
0000
0000
0000
0000
,
0000
0000
0000
0000
1000
0000
1000
0001
,
0100
0000
0010
0000
1000
0000
0000
0000
0001
0000
0100
0010
0100
0000
0001
0000
,
1000
0000
0100
0000
0010
0000
0002
0000
0000
0000
0000
0000
,
0100
0000
0100
0000
,
0103
0000
2000
0000
,
0100
0000
0100
0000
,
3100
0000
0001
0100
,
1000
0100
0001
0010
,
1000
0000
0000
0010
0000
0000
0101
0000
1001
0000
0101
0000
,
1100
0000
1001
0000
1100
0000
0001
0100
0010
1000
0010
0100
,
0001
0000
0010
0000
0100
0000
1000
0000
0010
0000
0100
0000
0220
0000
0000
0000
0000
0000
0000
0000
0000
0330
0000
0000
,
2002
0000
0000
0000
0000
0000
0000
0000
0000
0000
0000
0000
3003
0000
0000
0000
0001
0100
0001
0100
0001
0000
0000
0000
1000
0100
1000
0100
1000
0000
0000
0000
,
0001
0000
1001
0000
1000
0100
0001
0000
,
0100
0010
0000
0011
0000
1100
0000
0220
,
0000
0000
0000
0000
0330
0000
0001
0010
0200
0000
0000
0000
0000
0000
0000
0000
,
0310
0000
0110
0000
1000
0100
0010
0001
,
0100
0000
0110
0000
0001
0100
1000
0000
,
0100
0010
0000
1010
0000
0101
0000
0220
,
0000
0000
0330
0000
0000
0000
1000
0010
0200
0000
0000
0000
0000
0000
0000
0000
,
0301
0000
1000
0000
0010
0010
0110
0000
,
2000
0000
0000
3000
0001
0100
0002
0000
0000
0003
1000
0100
2000
0000
0000
0000
,
3002
0000
0000
0003
1000
0010
0200
0000
0000
0300
0001
0010
0100
0010
0001
0000
,
2000
0000
0000
3000
0001
0010
0002
0000
0003
0000
1000
0010
2000
0000
0000
3000
,
0001
0100
0000
0000
0100
0010
0000
0000
0010
1000
0000
0000
1001
0000
0000
0000
,
0010
0000
0001
0000
1000
0010
1000
0000
0001
0000
0010
0000
0100
0000
1000
0000
,
1001
0000
0000
0000
0000
0000
0000
0000
0000
0000
0000
0000
0001
0000
0000
0000
1000
0000
0000
0000
0100
0000
0000
0000
0010
0000
0000
0000
0001
0000
0000
0000
0100
0000
0000
0000
0010
0000
0000
1000
0000
0000
0010
0000
0000
1000
0000
0000
,
0100
0110
1000
1001
0000
0011
0000
2200
,
0000
3300
0000
0100
0010
0001
0100
0010
1000
0000
0000
0000
0100
0000
0000
0000
,
0010
0000
0000
0001
0100
0010
0100
1000
0100
0001
0000
0000
,
0100
0010
0000
1010
0000
0101
0000
0220
,
0000
0000
0330
0000
1000
0100
0010
0100
2000
0000
0000
0000
0000
0000
0000
0000
,
3010
0000
0110
0000
0001
0100
0010
1000
,
0100
0000
0110
0000
1000
0100
0001
0000
,
0100
0000
0000
0010
0000
0000
0000
0000
0000
0001
0000
0000
0101
0000
0000
0000
0110
0000
0000
0000
1010
0000
0000
0000
,
2000
0000
0000
0000
3000
0000
0100
0010
0100
0000
1000
0000
0001
0100
0010
1000
,
0001
0000
0000
0100
0000
0000
1010
0000
0110
0000
0101
0000
,
0002
0000
0000
0003
1000
0100
2000
0000
0000
3000
0001
0100
0002
0000
0000
0000
,
2003
0000
0000
3000
0001
0010
0200
0000
0000
0300
1000
0010
0100
0010
1000
0000
,
0002
0000
0000
0003
1000
0010
2000
0000
0000
3000
0001
0010
0002
0000
0000
0003
,
1000
0100
0000
0000
0100
0010
0000
0000
0010
0001
0000
0000
1001
0000
0000
0000
,
0010
0000
1000
0000
0001
0010
0001
0000
1000
0000
0010
0000
0100
0000
0001
0000
,
1001
0000
0000
0000
0000
0000
0000
0000
0000
0000
0000
0000
1000
0000
0000
0000
0001
0000
0000
0000
0100
0000
0000
0000
0010
0000
0000
0000
1000
0000
0000
0000
0100
0000
0000
0000
0010
0000
0000
0001
0000
0000
0010
0000
0000
0001
0000
0000
,
0100
0000
0000
0000
0110
0000
0000
0000
0000
0000
0000
0000
1001
0000
0000
0000
1000
0000
0000
0000
0000
0010
0000
0000
0000
0000
0100
0000
0001
0000
0000
0000
,
1000
0010
0100
0001
0010
0100
1000
0100
0001
1000
0010
0001
,
0000
0000
0000
0000
,
0110
0000
0000
0000
0000
0000
0000
0000
0110
0000
0000
0000
0000
0000
0000
0000
0110
0000
0000
0000
0000
0000
0000
0000
1000
0000
0000
0100
0000
0000
0000
0000
0000
1000
0000
0000
0000
0000
0000
0001
0000
0000
1000
0000
0000
0001
0000
0000
,
0010
0000
0000
0001
0000
0000
0010
0000
0000
0001
0000
0000
0010
0000
0000
0100
0000
0000
1000
0000
0000
0100
0000
0000
1000
0000
0000
0001
0000
0000
0100
0000
0000
0010
0000
0000
1000
0000
0000
0000
0000
0000
0000
0000
1001
0000
0000
0000
,
0000
0000
0000
0000
1001
0000
0000
0000
0000
0000
0000
0000
0000
0000
0000
0000
0000
0000
0110
0000
0000
0000
0000
0000
0000
0000
1001
0000
0000
0000
0000
0000
0000
0000
0110
0000
0000
0000
0000
0000
0000
0000
0001
0000
0000
0100
0000
0000
,
0010
0000
0000
1000
0000
0000
0100
0000
0000
0010
0000
0000
0001
0000
0000
0100
0000
0000
0010
0000
0000
1000
0000
0000
0010
0000
0000
0000
0000
0000
0000
0000
0110
0000
0000
0000
0000
0000
0000
0000
0110
0000
0000
0000
0000
0000
0000
0000
,
0001
0100
0000
0001
0000
1000
0001
1000
0010
1000
0010
1000
0010
0100
0001
0100
,
0001
0000
0000
1000
0000
0000
0100
0000
0000
0010
0000
0000
0001
0000
0000
0000
0000
0000
0000
0000
1001
0000
0000
0000
0000
0000
0000
0000
1001
0000
0000
0000
0000
0000
0000
0000
1000
0000
0000
0100
0000
0000
0010
0000
0000
0001
0000
0000
,
1000
0100
0010
0001
1000
0000
1000
0000
0001
0100
0010
1000
0100
0010
0001
0100
,
0010
1000
0000
0000
2002
0000
0000
0000
,
0000
0000
0000
0000
,
0000
0000
0000
0000
,
0000
0000
0000
0000
0000
0000
0000
0000
0000
0000
3003
0000
0000
0000
1000
0100
,
0010
0001
0100
0010
0000
0000
0000
0000
0000
0000
0000
0000
0000
0000
0000
0000
;

//---------------dance-single - NewbStepper-DSP----------------
#NOTEDATA:;
#CHARTNAME:NewbStepper-DSP;
#STEPSTYPE:dance-single;
#DESCRIPTION:NewbStepper-DSP;
#DIFFICULTY:Medium;
#METER:14;
#RADARVALUES:0.694811,0.955783,0.795024,0.389718,0.327363,624,522,102,50,0,0,0,0,0,0.694811,0.955783,0.795024,0.389718,0.327363,624,522,102,50,0,0,0,0,0;
#CREDIT:NewbStepper;
#NOTES:
0000
0000
0000
0000
,
0000
0000
0000
0000
,
0000
0000
0000
0000
,
0000
0000
0000
0000
,
0000
0000
0000
0000
,
0000
0000
0000
0000
,
0000
0000
0000
0000
,
0000
0000
0001
0000
1000
0000
0010
0100
,
0110
0000
1000
0010
0100
1000
0001
0010
,
0100
0202
0000
0000
0000
0303
0010
1000
,
1001
0000
0001
0010
0100
0001
1000
0010
,
0100
2200
0000
3300
0010
0001
0100
0010
,
1000
0001
0101
1000
,
1100
0000
0010
0001
0100
1000
0001
0010
,
1000
0000
0000
0001
0000
0000
1000
0000
0000
0000
0100
0000
0000
0000
1000
0000
0000
0000
0001
0000
0000
0000
0100
0000
,
0000
0001
0000
0101
0000
0101
0000
0101
0000
1100
0000
1100
,
0000
0000
0000
0000
1100
0000
0000
0000
0000
0000
0000
0000
2002
0000
0000
0000
0000
0000
0000
0000
0000
0000
0000
0000
3003
0000
0000
0000
0000
0000
0000
0000
0000
0000
0000
0000
0002
0000
0000
0000
0000
0000
0003
0000
0000
1000
0000
0000
,
0001
0100
1000
0100
0002
0000
0000
0000
0103
0000
0100
0000
1000
0000
0100
0000
,
0010
1000
0100
0001
1000
0010
0001
0100
,
0010
0000
1000
0001
2000
0000
0000
0000
3100
0000
0100
0000
0010
0000
0001
0000
,
0100
0000
0010
0000
1010
0000
0000
1001
0000
0000
0101
0000
0010
0000
1000
0000
,
0001
0000
1000
0100
2000
0000
0000
0000
3100
0000
0100
0000
0001
0000
0100
0000
,
0010
0001
0100
1000
0001
0010
1000
0100
,
0010
0000
0001
1000
0002
0000
0000
0000
0103
0000
0010
0000
0100
0000
0001
0000
,
0100
1000
0001
0010
0100
0001
1000
0100
,
0001
0100
0020
0000
0031
0100
0100
0010
,
1000
1000
0100
0001
0100
1000
0010
0001
,
0010
0100
0002
0000
1003
0100
0001
0001
,
1000
0010
0001
0100
0001
0010
1000
0010
,
0010
0001
0200
0000
1300
0100
0010
0002
,
0000
0000
0013
0000
1000
0000
0100
0000
0010
0001
0010
0001
0010
0000
0001
0000
,
0100
0000
0000
0000
0110
0000
0000
0110
0000
0000
0110
0000
1001
0000
0000
1001
,
0000
0000
1001
0000
0001
0000
0000
0100
0000
0000
0101
0000
0010
0000
2010
0000
,
0000
0001
3001
0000
1000
0100
0000
1100
,
0000
0001
0000
0100
0000
1000
0000
0100
,
0010
0010
1000
0000
0001
0100
0000
0101
,
0000
1000
0000
0100
0000
0001
0000
0100
,
0010
0000
0000
0010
0000
0000
0001
0000
0000
0000
0001
0000
0000
0000
0101
0000
0000
0000
0100
0000
0000
0000
0100
0000
,
0000
0110
0000
0010
0000
0010
0000
1010
0000
1000
0000
1000
,
0000
1001
0000
0101
0000
1100
0000
0101
0000
0011
0000
1010
,
0000
0000
0011
0000
0000
0000
0110
0000
0000
0000
1001
0000
0000
0000
0110
0000
0000
0000
0001
0000
0000
0100
0000
0000
,
0010
1000
2002
0000
0000
0000
0000
0000
,
0000
0000
0000
0000
,
3003
0000
0000
0000
,
0000
0000
0000
0000
,
0000
0000
0000
0000
,
0000
0000
0000
0000
0001
0000
1000
0100
,
0010
0001
1000
0000
0001
0100
0010
1000
,
0001
0000
0000
0000
0001
0000
0000
0000
0001
0000
0000
0000
2000
0000
0000
0000
0000
0000
0000
0000
0000
3200
0000
0000
,
0000
1000
0001
0010
,
1000
0000
0320
0000
0032
0000
0000
0203
,
0000
0001
1000
0010
,
0001
0310
1000
0100
,
1000
1000
0001
0100
,
0001
0000
0000
0001
0000
0000
1000
0000
0010
0000
0100
0000
,
0001
0000
0010
0000
0100
0000
1000
0000
1100
0000
1100
0000
,
0001
0000
0101
0000
0101
0000
0220
0000
0000
0330
0000
0000
,
2002
0000
0000
0000
3003
0000
0000
0000
1000
0100
1100
0000
0001
0100
0101
0000
,
0010
1002
0103
0010
,
1000
0001
0100
1000
0000
1100
0000
0201
,
0000
0000
0000
0000
0300
0000
0010
0100
0010
0000
0000
0000
1001
0000
0000
0000
,
0001
0100
0101
0000
1000
0100
0010
0001
,
0010
2001
3100
0010
,
0001
1000
0100
0001
0000
0101
0000
1200
,
0000
0000
0000
0000
0300
0000
0010
0100
0010
0000
0000
0000
1001
0000
0000
0000
,
1100
0101
0011
1010
,
2100
0000
0001
3002
0000
0100
0103
0000
,
0102
0000
1000
2003
0000
0100
3100
0010
,
0210
0000
0001
0001
0000
1000
1300
0000
,
1100
0101
0110
1001
,
0011
0000
0001
0100
1000
0001
0010
1000
,
1010
0000
0000
0001
0100
0001
0100
0001
0100
0001
0100
0001
,
1000
1100
0000
0101
0000
0110
0000
2002
,
0000
3003
1000
0100
0110
0000
1001
0000
,
0101
0000
1000
0010
0100
0001
0010
0000
,
0001
1000
0100
0001
0000
0101
0000
1200
,
0000
0000
0300
0000
0010
0100
0010
0100
0010
0000
0000
0000
1001
0000
0000
0000
,
1000
0100
1100
0000
0001
0100
0010
1000
,
0010
1002
0103
0010
,
1000
0000
0000
0001
0000
0000
0100
0000
0000
0010
0000
0000
1000
0000
0000
0000
0001
0000
0000
0000
0100
0000
0000
0000
,
0200
0000
0000
0000
0300
0000
0010
0100
0010
0000
0000
0000
1001
0000
0000
0000
,
0101
0000
0000
1100
0000
0000
1010
0000
0110
0000
1001
0000
,
0102
0000
1000
2003
0000
0100
3100
0000
,
2100
0000
0001
3002
0000
0100
0103
0010
,
0210
0000
1000
1000
0000
0001
0301
0000
,
0101
1100
0110
1001
,
1010
0000
1000
0100
0001
1000
0010
0001
,
0011
0000
0000
1000
0100
1000
0100
1000
0100
1000
0100
1000
,
0001
0101
0000
1100
0000
0110
0000
2002
,
0000
3003
0001
0100
0010
1000
0001
0100
,
0000
0000
0000
0000
,
0001
0000
0000
0000
0001
0000
0000
0000
0001
0000
0000
0000
1000
0000
0000
0100
0000
0000
0010
0000
0000
0100
0000
0000
,
0001
0000
0000
1000
0000
0000
0010
0000
0000
0001
0000
0000
0100
0000
0000
0010
0000
0000
1000
0000
0000
0000
1000
0000
,
0000
0000
0000
0000
1000
0000
0000
0000
0000
0000
0000
0000
0000
0000
0000
0000
0000
0000
0001
0000
0000
0000
0000
0000
0000
0000
0001
0000
0000
0000
0000
0000
0000
0000
0001
0000
0000
0000
0000
0000
0000
0000
1000
0000
0000
0100
0000
0000
,
1000
0000
0000
0010
0000
0000
0100
0000
0000
0001
0000
0000
1000
0000
0000
0000
1000
0000
0000
0000
1000
0000
0000
0000
,
0001
0100
0010
0100
1000
0001
0010
1000
,
0100
0000
0000
0000
0000
0000
0010
0000
0000
0000
0000
0000
0001
0000
0000
0000
0000
0000
0000
0000
0001
0000
0000
0000
0000
0000
0000
0000
0001
0000
0000
0000
0000
0000
0000
0000
1000
0000
0000
0100
0000
0000
1000
0000
0000
0000
0000
0000
,
0001
0000
0100
0000
1000
0000
0100
0000
0001
0010
0001
0010
0001
0000
0100
0000
,
0010
1000
0000
0000
2002
0000
0000
0000
,
0000
0000
0000
0000
,
0000
0000
0000
0000
,
0000
0000
0000
0000
0000
0000
0000
0000
0000
0000
3003
0000
0000
0000
0010
0100
,
0010
0100
0010
0100
0000
0000
0000
0000
0000
0000
0000
0000
0000
0000
0000
0000
;

//---------------dance-single - NewbStepper-BSP----------------
#NOTEDATA:;
#CHARTNAME:NewbStepper-BSP;
#STEPSTYPE:dance-single;
#DESCRIPTION:NewbStepper-BSP;
#DIFFICULTY:Easy;
#METER:11;
#RADARVALUES:0.434257,0.557199,0.163681,0.342952,0.144196,390,369,21,44,0,0,0,0,0,0.434257,0.557199,0.163681,0.342952,0.144196,390,369,21,44,0,0,0,0,0;
#CREDIT:NewbStepper;
#NOTES:
0000
0000
0000
0000
,
0000
0000
0000
0000
,
0000
0000
0000
0000
,
0000
0000
0000
0000
,
0000
0000
0000
0000
,
0000
0000
0000
0000
,
0000
0000
0000
0000
,
0000
1001
0000
0000
,
0000
0001
0100
0010
,
1000
2002
0000
0000
3003
0000
0010
0000
,
0010
1000
0100
0010
,
0001
2002
0000
0000
3003
0000
0010
0100
,
0010
1000
1100
0001
,
0101
0000
0000
0000
0010
0000
0000
0000
0110
0000
0000
0000
1000
0000
0000
0001
,
0000
0000
0000
1000
0000
0000
0001
0000
0000
0000
0001
0000
0000
0000
0001
0000
0000
0000
1000
0000
0000
0000
1000
0000
,
0000
1000
0000
0010
0000
0010
0000
0010
0000
0100
0000
0100
,
0000
0100
0000
2002
0000
0000
3003
0000
0000
0020
0000
0000
,
1030
0001
0010
0000
0001
0100
0000
0001
,
0010
0000
0001
0000
1001
0000
1000
0001
,
0010
0100
1000
0000
0010
1000
0000
0001
,
1000
0000
0010
0100
0000
0100
0001
1000
,
0001
0000
1000
0000
0010
1000
0000
0100
,
1000
0000
0001
0100
0000
0100
0010
0000
,
1000
0001
0010
0000
0001
0000
1000
0000
,
0010
0000
0001
0000
0100
0000
1000
0001
,
0000
0100
0010
0000
1000
0100
0010
0000
,
0001
0100
0010
0000
1000
0001
0010
0100
,
1000
0000
1001
0000
0001
0100
0010
0000
,
1000
0100
0010
0000
0001
1000
0010
0100
,
0001
0000
1000
0000
0001
0010
0100
1000
,
0000
1000
0000
0001
0100
0001
0100
0010
,
1000
0000
0000
0000
0001
0000
0000
0001
0000
0000
0001
0000
1000
0000
0000
1000
,
0000
1000
0020
0000
0030
0000
1000
0001
,
0000
0100
0020
0000
0000
0000
0000
0000
,
0030
2000
0000
0000
,
3000
0002
0000
0000
,
0003
0200
0000
0000
,
0300
0000
0000
0010
0000
0010
0000
0010
0000
0100
0000
0100
,
0000
0100
0000
0001
0000
0001
0000
0001
0000
1000
0000
1000
,
0000
1000
0000
0001
0000
0010
0000
0100
0000
1000
0000
0010
,
0000
0100
0000
0001
0000
1000
0000
0100
0000
0010
0000
0000
,
0000
2002
0000
0000
,
0000
0000
0000
0000
,
3003
0000
0000
0000
,
0000
0000
0000
0000
,
0000
0000
0000
0000
,
0000
0000
1000
0000
,
0001
0000
0000
0000
1000
0100
0001
0100
,
1000
0001
0010
0000
,
0100
0000
0100
0000
,
0100
0000
1000
0000
,
0001
0000
0001
0000
,
0001
0000
2000
0000
,
3002
0000
0203
0000
,
0320
0000
0000
0000
0000
0000
1030
0000
1000
0000
1000
0000
,
0010
0000
0010
0000
0010
0000
0100
0000
0100
0000
0100
0000
,
0001
0000
0001
0000
0001
0000
2000
0000
0000
0000
0000
0000
,
0002
0000
3003
0000
,
0000
1001
0010
0001
,
0100
1000
0000
0100
0000
0001
0000
0002
,
0000
0000
0000
1000
1003
0000
0000
0000
,
1001
0000
0000
0000
0001
0100
1000
0000
,
0100
0110
0010
1000
,
0100
0001
0000
0100
0000
1000
0000
2000
,
0000
0000
0000
0001
3001
0000
0000
0000
,
1001
0000
0110
0000
,
0001
0000
0100
0010
0000
0100
0010
0000
,
1000
0000
0100
0010
0000
0100
0010
0000
,
0001
0000
1000
0001
0000
1000
0001
0000
,
1000
0100
0010
0001
,
2000
0000
3002
0000
0013
0001
0100
0010
,
2000
0000
3002
0000
0013
0100
1000
0100
,
0010
0010
0000
0001
0000
0100
0000
0020
,
0000
1000
1000
1030
,
0001
1001
0010
1000
,
0100
0001
0000
0100
0000
1000
0000
2000
,
0000
0000
0000
0001
3001
0000
0000
0000
,
1001
0000
0000
0000
1000
0100
0001
0000
,
0100
0110
0010
0001
,
0100
0000
0000
1000
0000
0000
0000
0000
0000
0100
0000
0000
0010
0000
0000
0000
0100
0000
0000
0000
0010
0000
0000
0000
,
0020
0000
2030
0000
,
3001
0000
0000
0010
0000
0000
0100
0000
1000
0000
0001
0000
,
1000
0000
0100
0010
0000
0100
0010
0000
,
0001
0000
0100
0010
0000
0100
0010
0000
,
1000
0000
0001
1000
0000
0001
1000
0000
,
0001
0100
0010
1000
,
0002
0000
2003
0000
3010
1000
0100
0010
,
0002
0000
2003
0000
3010
0100
0001
0100
,
0010
0010
0000
1000
0000
0100
0000
0020
,
0000
0001
0001
0031
,
0000
0000
0000
0000
,
2002
3003
0010
0001
,
1000
0100
0010
0001
0100
0010
2000
0000
,
0000
0000
0000
3002
0000
0000
0003
1000
,
0100
0010
0001
1000
2002
0000
3003
0000
,
0010
0000
1000
0000
0001
0100
0010
1000
,
0100
0010
0002
0000
0000
0000
1003
0010
,
0100
0001
0100
1000
0100
0001
0010
0100
,
1000
0001
0000
0000
2002
0000
0000
0000
,
0000
0000
0000
0000
,
0000
0000
0000
0000
,
0000
0000
0000
0000
0000
3003
0000
0100
,
0010
0100
0000
0000
0000
0000
0000
0000
;

//---------------dance-single - NewbStepper-bSP----------------
#NOTEDATA:;
#CHARTNAME:NewbStepper-bSP;
#STEPSTYPE:dance-single;
#DESCRIPTION:NewbStepper-bSP;
#DIFFICULTY:Beginner;
#METER:5;
#RADARVALUES:0.198199,0.358199,0.148093,0.116915,0,178,159,19,15,0,0,0,0,0,0.198199,0.358199,0.148093,0.116915,0,178,159,19,15,0,0,0,0,0;
#CREDIT:NewbStepper;
#NOTES:
0000
0000
0000
0000
,
0000
0000
0000
0000
,
0000
0000
0000
0000
,
0000
0000
0000
0000
,
0000
0000
0000
0000
,
0000
0000
0000
0000
,
0000
0000
0000
0000
,
0000
1001
0000
0000
,
0000
1000
0001
1000
,
0000
1001
0000
0000
,
0000
0001
1000
0001
,
0000
1001
0000
0110
,
0000
0001
0000
1000
,
0000
0001
0000
0010
,
0000
0001
0000
1000
,
0000
0010
0000
0100
,
0000
0002
0000
0003
,
0000
0000
1000
0000
,
1000
0001
0001
0001
,
0000
0100
0000
1000
,
0000
0100
0100
0100
,
0000
0001
0000
0001
,
0000
1000
1000
1000
,
0000
0100
0000
0001
,
0000
0100
0100
0100
,
0000
1000
0000
0001
,
0000
0010
0010
0010
,
0000
0001
0000
1000
,
0000
0010
0010
0010
,
0000
1000
0000
0001
,
0000
0100
0100
0100
,
0000
0110
0000
1001
,
0000
1001
0000
0000
,
0000
0020
0000
0000
,
0000
0000
0030
0000
,
0000
0020
0000
0000
,
0000
0000
0030
0000
,
0000
1000
0000
0000
,
0000
0001
0000
0000
,
0000
0100
0000
0000
,
0000
0010
0000
0000
,
0000
1001
0000
0000
,
0000
0000
0000
0000
,
0000
0000
0000
0000
,
0000
0000
0000
0000
,
0000
0000
0000
0000
,
0000
0000
0000
0000
,
0000
0000
0000
0000
,
0000
0000
1000
0000
,
0000
0000
1000
0000
,
0000
0000
0001
0000
,
0000
0000
0001
0000
,
0000
0000
0100
0000
,
0100
0000
0010
0000
,
0010
0000
0110
0000
,
0000
0000
0110
0000
,
0000
0000
0001
0000
,
1000
0000
0000
0000
,
0000
0001
0000
1000
,
0000
1000
0000
1000
,
0000
0010
0000
0100
,
0000
0100
0000
0100
,
0000
1000
0000
0001
,
0000
0001
0000
0001
,
0000
0010
0000
0100
,
0000
0100
0000
0100
,
0002
0000
0003
0000
,
2000
0000
3000
0000
,
0020
0000
0030
0000
,
0200
0000
0300
0000
,
1001
0000
0010
0010
,
0100
0000
0010
0010
,
0110
0000
0000
0001
0000
1000
0000
0001
,
0000
0000
1000
0100
,
1000
1000
0000
0001
,
0000
0001
0000
0001
,
0000
0010
0000
0100
,
0000
0100
0000
0100
,
0000
0001
0000
1000
,
0000
1000
0000
1000
,
0000
0010
0000
0100
,
0000
0100
0000
0100
,
2000
0000
3000
0000
,
0002
0000
0003
0000
,
0020
0000
0030
0000
,
0200
0000
0300
0000
,
1001
0000
0010
0010
,
0100
0000
0010
0010
,
0110
0000
0000
2002
0000
0000
3003
0000
,
0000
0010
0010
0010
,
0000
0000
0000
0000
,
1001
0000
1000
0100
,
1000
0000
0001
0000
,
0000
0000
0000
0000
,
1000
0001
1001
0000
,
0001
0100
0001
0000
,
1000
1001
0000
0010
,
0000
1000
0100
0010
,
0001
0000
2002
0000
,
0000
0000
0000
0000
,
0000
0000
0000
0000
,
0000
0000
0000
0000
,
0000
3003
0000
0000
0000
0000
0000
0000
;

//---------------dance-double - NewbStepper-EDP----------------
#NOTEDATA:;
#CHARTNAME:NewbStepper-EDP;
#STEPSTYPE:dance-double;
#DESCRIPTION:NewbStepper-EDP;
#DIFFICULTY:Hard;
#METER:17;
#RADARVALUES:0.793911,1.115080,0.553399,0.444278,0.892453,713,642,71,57,0,0,0,0,0,0.793911,1.115080,0.553399,0.444278,0.892453,713,642,71,57,0,0,0,0,0;
#CREDIT:NewbStepper;
#NOTES:
// measure 0
00000000
00000000
00000000
00000000
,  // measure 1
00000000
00000000
00000000
00000000
,  // measure 2
00000000
00000000
00000000
00000000
,  // measure 3
00000000
00000000
00000000
00000000
,  // measure 4
00000000
00000000
00000000
00000000
,  // measure 5
00000000
00000000
00000000
00000000
,  // measure 6
00000000
00000000
00000000
00000000
,  // measure 7
00000000
00000000
01100000
00000000
10000000
01000000
00010000
00000000
,  // measure 8
00011000
00000000
00100000
00001000
00010000
00001000
00000010
00000001
,  // measure 9
00000100
00000000
00000220
00000000
00000000
00000000
00000000
00000000
00000330
00000000
00001000
00000000
00000001
00000000
00001000
00000010
,  // measure 10
00000100
00000000
00000010
00010000
00001000
00010000
00100000
10000000
,  // measure 11
01000000
00000000
02200000
00000000
00000000
00000000
03300000
00000000
00010000
01000000
00010000
01000000
00100000
00000000
10000000
01000000
,  // measure 12
00010000
00000000
00000000
00000000
00001000
00100000
00000000
00000000
00011000
00000000
00000000
00000000
00010000
00000010
00000000
00000000
,  // measure 13
00011000
00000000
00000000
00000000
00001000
00000000
00000100
00000000
00000001
00000000
00000010
00000001
00001000
00000000
00000010
00010000
,  // measure 14
00000010
00000000
00000000
00010000
00000000
00000000
00000010
00000000
00000000
00010000
00000000
00000000
00001000
00000000
00000000
00000000
00000000
00000000
00000000
00000000
00101000
00000000
00000000
00000000
00000000
00000000
00000000
00000000
01010000
00000000
00000000
00000000
00000000
00000000
00000000
00000000
10010000
00000000
00000000
00000000
00000000
00000000
00000000
00000000
11000000
00000000
00000000
00000000
,  // measure 15
00000000
01100000
00000000
00101000
00000000
00101000
00000000
00101000
00000000
00010010
00000000
00010010
,  // measure 16
00000000
00000000
00000000
00000000
00000000
00000000
00000000
00000000
00000000
00000000
00000000
00000000
00000000
00000000
00000000
00000000
00010010
00000000
00000000
00000000
00000000
00000000
00000000
00000000
00000000
00000000
00000000
00000000
00000000
00000000
00000000
00000000
00000000
00000000
00000000
00000000
00000000
00000000
00000000
00000000
00000000
00000000
00000000
00000000
00000000
00000000
00000000
00000000
00022000
00000000
00000000
00000000
00000000
00000000
00000000
00000000
00000000
00000000
00000000
00000000
00000000
00000000
00000000
00000000
00000000
00000000
00000000
00000000
00000000
00000000
00000000
00000000
00000000
00000000
00000000
00000000
00000000
00000000
00000000
00000000
00000000
00000000
00000000
00000000
00000000
00000000
00000000
00000000
00000000
00000000
00000000
00000000
00000000
00000000
00000000
00000000
00033000
00000000
00000000
00000000
00000000
00000000
00000000
00000000
00000000
00000000
00000000
00000000
00000000
00000000
00000000
00000000
00000000
00000000
00000000
00000000
00000000
00000000
00000000
00000000
00000000
00000000
00000000
00000000
00000000
00000000
00000000
00000000
00000000
00000000
00000000
00000000
00000000
00000000
00000000
00000000
00000000
00000000
00000000
00000000
00000000
00000000
00000000
00000000
00000010
00000000
00000000
00000000
00000000
00000000
00001000
00000000
00000000
00000000
00000000
00000000
00000020
00000000
00000000
00000000
00000000
00000000
00000000
00000000
00000000
00000000
00000000
00000000
00000000
00000000
00000000
00000000
00000000
00000000
00000030
00000000
00000000
00000000
00000000
00000000
00010000
00000000
00000000
00000000
00000000
00000000
00001000
00000000
00000000
00000000
00000000
00000000
,  // measure 17
00010000
00001000
00010000
00001000
00010000
00001000
00100000
00001000
00020000
00000000
00000000
00000000
00000000
00000000
00000000
00000000
01030000
00000000
00000000
00000000
10000000
00000000
00000000
00000000
00100000
00000000
00000000
00000000
00010000
00000000
00001000
00000000
,  // measure 18
00000000
00000010
00000000
00001000
00010000
00000000
00001000
00000100
00000000
00000001
00000100
00000000
00000010
00001000
00000010
00001000
,  // measure 19
00000010
00001000
00000010
00010000
00002000
00000000
00000000
00000000
00103000
00000000
00010000
01000000
00010000
01000000
00010000
01000000
,  // measure 20
00100000
00000000
10000000
00000000
11000000
00000000
00000000
01010000
00000000
00000000
00011000
00000000
00001000
00000000
00000010
00000000
,  // measure 21
00000001
00000100
00000001
00000100
00000020
00000000
00000000
00000000
00001030
00000000
00000100
00000000
00000010
00000001
00000010
00000001
,  // measure 22
00001000
00000000
00000100
00000000
00000010
00000000
00001000
00010000
00000000
00000100
00001000
00000000
00000020
00000000
00000000
00000000
,  // measure 23
00010030
00001000
00100000
00001000
00020000
00000000
00000000
00000000
00031000
00100000
00000000
00001000
00000000
00010000
00000000
01000000
,  // measure 24
00000000
10000000
00000000
00100000
01000000
00010000
01000000
00010000
01000000
00001000
00010000
00001000
00010000
00000100
00000020
00000000
,  // measure 25
00000000
00000000
00000031
00000000
00000200
00000000
00000000
00000300
00000010
00001000
00000010
00001000
00000010
00000100
00000000
00000001
,  // measure 26
00000000
00000010
00000000
00001000
00000000
00010000
00000000
00100000
00000000
10000000
00000000
00010000
01000000
00010000
01000000
00010000
,  // measure 27
01000000
00010000
10000000
01000000
00200000
00000000
00000000
00000000
00301000
00010000
00001000
00010000
00000000
00000100
00000000
00000100
,  // measure 28
00000000
00000100
00000010
00000100
00001000
00000001
00000000
00000001
00000100
00000000
00000010
00010000
00000010
00010000
00002000
00000000
,  // measure 29
00000000
00000000
00013000
00000000
02000000
00000000
00000000
00000000
03100000
00010000
00100000
00010000
00100000
00000000
02000000
00000000
,  // measure 30
00000000
00000000
13000000
00000000
00000000
00000000
00010000
00000000
00100000
00001000
00100000
00001000
00010000
00000000
00001000
00000000
,  // measure 31
00000100
00000000
00000001
00000000
00000101
00000000
00000000
00000101
00000000
00000000
00001100
00000000
00011000
00000000
00000000
00011000
,  // measure 32
00000000
00000000
01010000
00000000
11000000
00000000
00000000
00100000
00000000
00000000
00010000
00000000
01000000
00000000
01200000
00000000
,  // measure 33
00000000
10300000
02000000
00000000
03010000
00001000
00000000
00010000
,  // measure 34
01000000
00010000
00001000
00000100
00001000
00010000
00001000
00000010
,  // measure 35
00000002
00000000
00000203
00000000
00001300
00010000
00000000
00001000
,  // measure 36
00000100
00001000
00010000
01000000
00010000
00001000
00010000
00100000
,  // measure 37
10000000
00000000
00000000
10100000
00000000
10100000
00000000
10100000
00000000
00110000
00000000
00110000
,  // measure 38
00000000
00110000
00000000
00011000
00000000
00011000
00000000
00011000
00000000
00001010
00000000
00001010
,  // measure 39
00000000
00001010
00000000
00000001
00000100
00000001
00001000
00000100
00001000
00000010
00000100
00001000
,  // measure 40
00010000
00000000
00000000
00000000
00000100
00000000
00000000
00000000
00001000
00000000
00000000
00000000
00000100
00000000
00000000
00000000
00010000
00000000
00000000
00000000
00001000
00000000
00000000
00000000
00100000
00000000
00000000
00000000
00010000
00000000
00000000
00000000
10000000
00000000
00000000
00000000
00100000
00000000
00000000
00000000
00000000
00000000
10000000
00000000
00000000
00010000
00000000
00000000
,  // measure 41
10000000
00010000
00100000
00001000
00020000
00000000
00000000
00000000
00000000
00000000
00000000
00000000
00000000
00000000
00000000
00000000
,  // measure 42
00000000
00000000
00000000
00000000
,  // measure 43
00030000
00000000
00000000
00000000
,  // measure 44
00000000
00000000
00000000
00000000
,  // measure 45
00000000
00000000
00000000
00000000
,  // measure 46
00000000
00000000
00000000
00000000
00001000
00000000
00010000
00001000
,  // measure 47
00000010
00000000
00000001
00000000
00001000
00000000
00000000
00000000
00000001
00000000
00000100
00000010
00000100
00000000
00000001
00000000
,  // measure 48
00001000
00000000
00000100
00000000
00000010
00000000
00002000
00000000
00000000
00000000
00000000
00000000
,  // measure 49
01000000
00000000
01000000
00000000
,  // measure 50
01003000
00000000
00020000
00000000
,  // measure 51
00000100
00000000
00000100
00000000
,  // measure 52
00030100
00000000
00000010
00001000
,  // measure 53
00000100
00010000
00001000
00100000
,  // measure 54
00010000
00000000
00000000
10000000
00000000
00000000
10100000
00000000
01100000
00000000
01001000
00000000
,  // measure 55
00011000
00000000
00010010
00000000
00001010
00000000
00000001
00000100
00000010
00001000
00000100
00010000
,  // measure 56
00001000
00100000
00010000
01000000
00100000
10000000
00020000
00000000
00000000
00000000
00000000
00000000
,  // measure 57
20030000
00000000
00000000
00000000
00000000
00000000
00000000
00000000
00000000
00000000
00000000
00000000
00000000
00000000
30000000
00000000
00010000
01000000
00010000
01000000
00010000
00000000
00000000
00000000
10000000
01000000
10000000
01000000
10000000
00000000
00000000
00000000
,  // measure 58
00010000
00000000
10010000
00000000
10000000
01000000
00010000
00000000
,  // measure 59
00001000
00100000
00001000
00000010
00000001
00000100
00000000
00000220
,  // measure 60
00000000
00000000
00000000
00000000
00000330
00000000
00000001
00001000
00000020
00000000
00000000
00000000
00000000
00000000
00000000
00000000
,  // measure 61
00000130
00000000
00000110
00000000
00000001
00000100
00000010
00001000
,  // measure 62
00010000
00000000
00110000
00000000
01000000
10000000
00100000
00000000
,  // measure 63
00010000
00001000
00000000
00001010
00000000
00011000
00000000
00220000
,  // measure 64
00000000
00000000
00330000
00000000
00000000
00000000
10000000
00010000
00200000
00000000
00000000
00000000
00000000
00000000
00000000
00000000
,  // measure 65
01300000
00000000
10000000
00100000
,  // measure 66
00020000
00000000
00000000
00030000
00001000
00100000
00002000
00000000
00000000
00003000
00010000
00000010
00020000
00000000
00000000
00000000
,  // measure 67
00032000
00000000
00000000
00003000
00100000
00010000
00200000
00000000
00000000
00300000
00001000
00010000
00000010
00010000
00001000
00000000
,  // measure 68
00000020
00000000
00000000
00000030
00000001
00000100
00000002
00000000
00000000
00000003
00001000
00000100
00002000
00000000
00000000
00000000
,  // measure 69
00003001
00001000
00010000
10000000
,  // measure 70
00100000
00000000
00000000
00000000
10000000
00010000
10000000
00000000
01000000
00000000
00010000
00000000
00001000
00000000
00000100
00000000
,  // measure 71
00000010
00000000
00000000
00000000
00000000
00000000
00001000
00000000
00000001
00000000
00000010
00000000
00000100
00000000
00001000
00000000
00000001
00000000
00000100
00000000
00000000
00001000
00000000
00000000
,  // measure 72
00010000
01000000
00000000
11000000
00000000
00101000
00000000
00022000
,  // measure 73
00000000
00033000
00000000
00001000
00010000
00001000
00010000
00000100
00001000
00000000
00000000
00000000
00000100
00000000
00000000
00000000
,  // measure 74
00000010
00000000
00000000
00000001
00000100
00000010
00000100
00001000
00010000
00001000
00000000
00000000
,  // measure 75
00010000
00000010
00010000
00100000
10000000
01000000
00000000
02200000
,  // measure 76
00000000
00000000
03300000
00000000
10000000
01000000
00100000
01000000
20000000
00000000
00000000
00000000
00000000
00000000
00000000
00000000
,  // measure 77
31000000
00000000
01100000
00000000
10000000
01000000
00100000
00010000
,  // measure 78
00001000
00000000
00001010
00000000
00000100
00000001
00000010
00000000
,  // measure 79
00001000
00000000
00000000
00010000
00000000
00000000
00000000
00000000
00000000
00100000
00000000
00000000
01100000
00000000
00000000
00000000
01010000
00000000
00000000
00000000
10010000
00000000
00000000
00000000
,  // measure 80
20000000
00000000
00000000
00000000
30000000
00000000
01000000
00100000
01000000
00000000
00000000
00000000
10000000
01000000
00100000
00010000
,  // measure 81
00100000
00000000
00000000
00001000
00000000
00000000
00010000
00000000
00001000
00000000
00000100
00000000
,  // measure 82
00002000
00000000
00000000
00003000
00010000
00000010
00020000
00000000
00000000
00030000
00001000
00100000
00002000
00000000
00000000
00000000
,  // measure 83
00023000
00000000
00000000
00030000
00000010
00001000
00000020
00000000
00000000
00000030
00010000
00001000
00100000
00001000
00010000
00000000
,  // measure 84
00200000
00000000
00000000
00300000
10000000
01000000
20000000
00000000
00000000
30000000
00010000
01000000
00020000
00000000
00000000
00000000
,  // measure 85
10030000
00010000
00001000
00000001
,  // measure 86
00000010
00000000
00000000
00000000
00000001
00001000
00000001
00000000
00000100
00000000
00001000
00000000
00010000
00000000
01000000
00000000
,  // measure 87
00100000
00000000
00000000
00000000
00000000
00000000
00010000
00000000
10000000
00000000
00100000
00000000
01000000
00000000
00010000
00000000
10000000
00000000
01000000
00000000
00000000
00010000
00000000
00000000
,  // measure 88
00001000
00000000
00000000
00000000
00000100
00000000
00000000
00000000
00000000
00000000
00000000
00000000
00000001
00000000
00000000
00000000
00001000
00000000
00000000
00000000
00000000
00000010
00000000
00000000
00000000
00000000
00000100
00000000
00000001
00000000
00000000
00000000
,  // measure 89
00001000
00000001
00001000
00000100
00010000
00001000
00100000
00010000
01000000
00100000
10000000
00010000
,  // measure 90
00000000
00000000
00000000
00000000
,  // measure 91
01100000
00000000
00000000
00000000
00000000
00000000
00000000
00000000
01100000
00000000
00000000
00000000
00000000
00000000
00000000
00000000
01100000
00000000
00000000
00000000
00000000
00000000
00000000
00000000
10000000
00000000
00000000
00010000
00000000
00000000
00000000
00000000
00000000
01000000
00000000
00000000
00000000
00000000
00000000
00100000
00000000
00000000
10000000
00000000
00000000
00010000
00000000
00000000
,  // measure 92
10000000
00000000
00000000
00010000
00000000
00000000
00100000
00000000
00000000
00001000
00000000
00000000
00100000
00000000
00000000
00001000
00000000
00000000
00010000
00000000
00000000
00001000
00000000
00000000
00010000
00000000
00000000
00000100
00000000
00000000
00010000
00000000
00000000
00000100
00000000
00000000
00001000
00000000
00000000
00000000
00000000
00000000
00000000
00000000
00000001
00000000
00000000
00000000
,  // measure 93
00000000
00000000
00000000
00000000
00000010
00000000
00000000
00000000
00000000
00000000
00000000
00000000
00000000
00000000
00000000
00000000
00000000
00000000
00000001
00000000
00000000
00000000
00000000
00000000
00000000
00000000
00001000
00000000
00000000
00000000
00000000
00000000
00000000
00000000
00000010
00000000
00000000
00000000
00000000
00000000
00000000
00000000
00001000
00000000
00000000
00000100
00000000
00000000
,  // measure 94
00001000
00000000
00000000
00000100
00000000
00000000
00000010
00000000
00000000
00000001
00000000
00000000
00000010
00000000
00000000
00000001
00000000
00000000
00001000
00000000
00000000
00000010
00000000
00000000
00000100
00000000
00000000
00000000
00000000
00000000
00000000
00000000
00000110
00000000
00000000
00000000
00000000
00000000
00000000
00000000
00000110
00000000
00000000
00000000
00000000
00000000
00000000
00000000
,  // measure 95
00000001
00001000
00000000
00000100
00000000
00000010
00000001
00001000
00000001
00001000
00000010
00010000
00000010
00010000
00001000
00010000
,  // measure 96
00001000
00000000
00000000
01000000
00000000
00000000
00001000
00000000
00000000
01000000
00000000
00000000
00010000
00000000
00000000
00000000
00000000
00000000
00000000
00000000
10010000
00000000
00000000
00000000
00000000
00000000
00000000
00000000
10010000
00000000
00000000
00000000
00000000
00000000
00000000
00000000
10000000
00000000
00000000
00000000
00000000
00000000
01000000
00000000
00000000
00000000
00000000
00000000
,  // measure 97
00100000
00000000
00010000
00000000
00001000
00000000
00000100
00000000
00000010
00000001
00000010
00000001
00000010
00000001
00001000
00000010
,  // measure 98
00000100
00001000
00000000
00000000
00022000
00000000
00000000
00000000
,  // measure 99
00000000
00000000
00000000
00000000
,  // measure 100
00000000
00000000
00000000
00000000
,  // measure 101
00000000
00000000
00000000
00000000
00000000
00000000
00000000
00000000
00000000
00000000
00033000
00000000
00000000
00000000
00001000
00010000
,  // measure 102
00001000
00100000
00010000
01000000
00000000
00000000
00000000
00000000
00000000
00000000
00000000
00000000
00000000
00000000
00000000
00000000
;

//---------------dance-double - NewbStepper-DDP----------------
#NOTEDATA:;
#CHARTNAME:NewbStepper-DDP;
#STEPSTYPE:dance-double;
#DESCRIPTION:NewbStepper-DDP;
#DIFFICULTY:Medium;
#METER:15;
#RADARVALUES:0.666974,0.955783,0.662520,0.335157,0.327363,599,514,85,43,0,0,0,0,0,0.666974,0.955783,0.662520,0.335157,0.327363,599,514,85,43,0,0,0,0,0;
#CREDIT:NewbStepper;
#NOTES:
// measure 0
00000000
00000000
00000000
00000000
,  // measure 1
00000000
00000000
00000000
00000000
,  // measure 2
00000000
00000000
00000000
00000000
,  // measure 3
00000000
00000000
00000000
00000000
,  // measure 4
00000000
00000000
00000000
00000000
,  // measure 5
00000000
00000000
00000000
00000000
,  // measure 6
00000000
00000000
00000000
00000000
,  // measure 7
00000000
00000000
10000000
00000000
00010000
00000000
00100000
01000000
,  // measure 8
01100000
00000000
00010000
10000000
00100000
00010000
00001000
00000010
,  // measure 9
00000100
00002200
00000000
00000000
00000000
00003300
00000010
00000001
,  // measure 10
00001001
00000000
00001000
00000001
00000010
00001000
00010000
00100000
,  // measure 11
01000000
02020000
00000000
03030000
00100000
10000000
01000000
00100000
,  // measure 12
00010000
10000000
11000000
00010000
,  // measure 13
01010000
00000000
00000000
00000000
00100000
00000000
00001000
00000000
00010000
00000000
00100000
00000000
00010000
00000000
00000000
00001000
,  // measure 14
00000000
00000000
00000000
00000010
00000000
00000000
00000001
00000000
00000000
00000000
00000100
00000000
00000000
00000000
00001000
00000000
00000000
00000000
00010000
00000000
00000000
00000000
00000100
00000000
,  // measure 15
00000000
00001000
00000000
00010000
00000000
00100000
00000000
01000000
00000000
10000000
00000000
01000000
,  // measure 16
00000000
00000000
00000000
00000000
00010000
00000000
00000000
00000000
00000000
00000000
00000000
00000000
00022000
00000000
00000000
00000000
00000000
00000000
00000000
00000000
00000000
00000000
00000000
00000000
00033000
00000000
00000000
00000000
00000000
00000000
00000000
00000000
00000000
00000000
00000000
00000000
00200000
00000000
00000000
00000000
00000000
00000000
00000000
00000000
00000000
00301000
00000000
00000000
,  // measure 17
00010000
00001000
00000010
00000001
00002000
00000000
00000000
00000000
00003001
00000000
00000100
00000000
00001000
00000000
00000100
00000000
,  // measure 18
00000010
00001000
00010000
01000000
00001000
00010000
01000000
00100000
,  // measure 19
00001000
01000000
00020000
00000000
10030000
01000000
00010000
00001000
,  // measure 20
00000100
00000000
00000001
00000000
00000011
00000000
00000000
00001001
00000000
00000000
00001100
00000000
00000010
00000000
00000001
00000000
,  // measure 21
00000100
00001000
00020000
00000000
00130000
10000000
01000000
00010000
,  // measure 22
00001000
00100000
00010000
00100000
10000000
00010000
01000000
00100000
,  // measure 23
00010000
00001000
00000200
00000000
00000301
00000100
00001000
00000010
,  // measure 24
00001000
00010000
01000000
00100000
00010000
00001000
00100000
01000000
,  // measure 25
10000000
00100000
00020000
00000000
00031000
00100000
00100000
00010000
,  // measure 26
00001000
00000010
00000010
00000100
00001000
00000001
00000010
00001000
,  // measure 27
00000100
00000010
00002000
00000000
00013000
00100000
10000000
01000000
,  // measure 28
00010000
00001000
00000010
00000100
00010000
00001000
00000010
00001000
,  // measure 29
00010000
00000100
00000020
00000000
00000031
00000100
00000010
00002000
,  // measure 30
00000000
00000000
00003001
00000000
00000100
00000000
00001000
00000000
00010000
00001000
00010000
00001000
00010000
00000000
00100000
00000000
,  // measure 31
10000000
00000000
01000000
00000000
01100000
00000000
00000000
00010000
00000000
00000000
00001000
00000000
00000110
00000000
00000000
00001000
,  // measure 32
00000000
00000000
00010000
00000000
00100000
00000000
00000000
00001000
00000000
00000000
00000010
00000000
00000100
00000000
00002000
00000000
,  // measure 33
00000000
00003100
00000110
00000000
00000001
00000100
00000000
00001000
,  // measure 34
00000000
00000000
00010000
00000000
00000000
00000000
01000000
00000000
00000000
00000000
00010000
00000000
00000000
00000000
00001000
00010000
,  // measure 35
00001000
00010000
00100000
00000000
10000000
01000000
00000000
00010000
,  // measure 36
00000000
00001000
00000000
00000100
00000000
00000001
00001000
00000010
,  // measure 37
00000100
00000000
00000000
00001000
00000000
00000000
00010000
00000000
00000000
00000000
00001000
00000000
00000000
00000000
00011000
00000000
00000000
00000000
00100000
00000000
00000000
00000000
01000000
00000000
,  // measure 38
00000000
01100000
00000000
00010000
00000000
10000000
00000000
10010000
00000000
01000000
00000000
00100000
,  // measure 39
00000000
01100000
00000000
10100000
00000000
01010000
00000000
00110000
00000000
00101000
00000000
00011000
,  // measure 40
00000000
00000000
00010010
00000000
00000000
00000000
00001010
00000000
00000000
00000000
00001001
00000000
00000000
00000000
00000101
00000000
00000000
00000000
00000010
00000000
00000000
00001000
00000000
00000000
,  // measure 41
00000100
00010000
00022000
00000000
00000000
00000000
00000000
00000000
,  // measure 42
00000000
00000000
00000000
00000000
,  // measure 43
00033000
00000000
00000000
00000000
,  // measure 44
00000000
00000000
00000000
00000000
,  // measure 45
00000000
00000000
00000000
00000000
,  // measure 46
00000000
00000000
00000000
00000000
00100000
00000000
00001000
00010000
,  // measure 47
01000000
00000000
10000000
00000000
00010000
00000000
00000000
00000000
10000000
00000000
01000000
00100000
01000000
00000000
00010000
00000000
,  // measure 48
00001000
00000000
00000100
00000000
00000001
00000000
00002000
00000000
00000000
00000000
00000000
00000000
,  // measure 49
00000100
00000000
00000001
00000000
,  // measure 50
00000010
00000000
00023000
00000000
,  // measure 51
01000000
00000000
10000000
00000000
,  // measure 52
00100000
00000000
00031000
00000010
,  // measure 53
00000100
00000001
00000010
00001000
,  // measure 54
00010000
00000000
00000000
00100000
00000000
00000000
10000000
00000000
01000000
00000000
00010000
00000000
,  // measure 55
00001000
00000000
00000100
00000000
00000001
00000000
00001000
00000000
00001010
00000000
00001010
00000000
,  // measure 56
00000001
00000000
00000011
00000000
00000011
00000000
00000220
00000000
00000000
00000330
00000000
00000000
,  // measure 57
00002002
00000000
00000000
00000000
00003003
00000000
00000000
00000000
00000010
00001000
00011000
00000000
00100000
00010000
00011000
00000000
,  // measure 58
00100000
20010000
31000000
00100000
,  // measure 59
00010000
10000000
01000000
00010000
00000000
00011000
00000000
00201000
,  // measure 60
00000000
00000000
00000000
00000000
00300000
00000000
01000000
00100000
01000000
00000000
00000000
00000000
01010000
00000000
00000000
00000000
,  // measure 61
00001000
00010000
00011000
00000000
00100000
00010000
00001000
00000100
,  // measure 62
00000010
00001002
00000103
00000010
,  // measure 63
00001000
00000001
00000100
00001000
00000000
00011000
00000000
00010020
,  // measure 64
00000000
00000000
00000000
00000000
00000030
00000000
00000100
00000010
00000100
00000000
00000000
00000000
00001100
00000000
00000000
00000000
,  // measure 65
00010100
01001000
00010010
00101000
,  // measure 66
01200000
00000000
10000000
10000000
00000000
00010000
00310000
00000000
,  // measure 67
00000210
00000000
00000001
00000001
00000000
00001000
00001300
00000000
,  // measure 68
00021000
00000000
00000100
00000100
00000000
01000000
01030000
00000000
,  // measure 69
00011000
00000110
00011000
01100000
,  // measure 70
10010000
00000000
10000000
00100000
00010000
00001000
00000010
00000001
,  // measure 71
00001001
00000000
00000000
00001000
00000100
00001000
00000100
00001000
00000100
00001000
00000100
00001000
,  // measure 72
00000001
00000101
00000000
00001100
00000000
00011000
00000000
02200000
,  // measure 73
00000000
03300000
10000000
01000000
00010000
00000000
00001000
00000000
,  // measure 74
00000010
00000000
00000001
00000100
00000010
00001000
00000001
00000000
,  // measure 75
00001000
00000001
00000100
00001000
00000000
00011000
00000000
00010020
,  // measure 76
00000000
00000000
00000030
00000000
00010000
00001000
00010000
00001000
00010000
00000000
00000000
00000000
00001100
00000000
00000000
00000000
,  // measure 77
00010000
00001000
00011000
00000000
00000010
00001000
00010000
01000000
,  // measure 78
00100000
20010000
31000000
00100000
,  // measure 79
00010000
00000000
00000000
10000000
00000000
00000000
01000000
00000000
00000000
00010000
00000000
00000000
00001000
00000000
00000000
00000000
00011000
00000000
00000000
00000000
00011000
00000000
00000000
00000000
,  // measure 80
00020000
00000000
00000000
00000000
00030000
00000000
01000000
00100000
01000000
00000000
00000000
00000000
01100000
00000000
00000000
00000000
,  // measure 81
00010000
00000000
00000000
00001000
00000000
00000000
00000010
00000000
00000011
00000000
00000101
00000000
,  // measure 82
00000120
00000000
00000001
00000001
00000000
00001000
00001030
00000000
,  // measure 83
02100000
00000000
10000000
10000000
00000000
00010000
03010000
00000000
,  // measure 84
00012000
00000000
01000000
01000000
00000000
00000100
00003100
00000000
,  // measure 85
00011000
01100000
00011000
00000110
,  // measure 86
00001001
00000000
00000001
00000010
00001000
00010000
00100000
10000000
,  // measure 87
10010000
00000000
00000000
00010000
01000000
00010000
01000000
00010000
01000000
00010000
01000000
00010000
,  // measure 88
10000000
11000000
00000000
01010000
00000000
01100000
00000000
20020000
,  // measure 89
00000000
30030000
10000000
01000000
00010000
00001000
00000100
00000001
,  // measure 90
00000000
00000000
00000000
00000000
,  // measure 91
00001000
00000000
00000000
00000000
00001000
00000000
00000000
00000000
00001000
00000000
00000000
00000000
00000001
00000000
00000000
00000100
00000000
00000000
00001000
00000000
00000000
00010000
00000000
00000000
,  // measure 92
00000100
00000000
00000000
00000010
00000000
00000000
00000100
00000000
00000000
00010000
00000000
00000000
01000000
00000000
00000000
10000000
00000000
00000000
00010000
00000000
00000000
00000000
00010000
00000000
,  // measure 93
00000000
00000000
00000000
00000000
00010000
00000000
00000000
00000000
00000000
00000000
00000000
00000000
00000000
00000000
00000000
00000000
00000000
00000000
10000000
00000000
00000000
00000000
00000000
00000000
00000000
00000000
10000000
00000000
00000000
00000000
00000000
00000000
00000000
00000000
10000000
00000000
00000000
00000000
00000000
00000000
00000000
00000000
00010000
00000000
00000000
01000000
00000000
00000000
,  // measure 94
00010000
00000000
00000000
00100000
00000000
00000000
01000000
00000000
00000000
10000000
00000000
00000000
00010000
00000000
00000000
00000000
00010000
00000000
00000000
00000000
00010000
00000000
00000000
00000000
,  // measure 95
10000000
01000000
00010000
00001000
01000000
00100000
01000000
00001000
,  // measure 96
00000100
00000000
00000000
00000000
00000000
00000000
00000001
00000000
00000000
00000000
00000000
00000000
00001000
00000000
00000000
00000000
00000000
00000000
00000000
00000000
00001000
00000000
00000000
00000000
00000000
00000000
00000000
00000000
00001000
00000000
00000000
00000000
00000000
00000000
00000000
00000000
00000001
00000000
00000000
00000100
00000000
00000000
00000001
00000000
00000000
00000000
00000000
00000000
,  // measure 97
00000010
00000000
00001000
00000000
00010000
00000000
00100000
00000000
10000000
00010000
10000000
00010000
10000000
00000000
01000000
00000000
,  // measure 98
00010000
00001000
00000000
00000000
00000220
00000000
00000000
00000000
,  // measure 99
00000000
00000000
00000000
00000000
,  // measure 100
00000000
00000000
00000000
00000000
,  // measure 101
00000000
00000000
00000000
00000000
00000000
00000000
00000000
00000000
00000000
00000000
00000330
00000000
00000000
00000000
00000001
00001000
,  // measure 102
00000001
00001000
00000001
00001000
00000000
00000000
00000000
00000000
00000000
00000000
00000000
00000000
00000000
00000000
00000000
00000000
;

//---------------dance-double - NewbStepper-BDP----------------
#NOTEDATA:;
#CHARTNAME:NewbStepper-BDP;
#STEPSTYPE:dance-double;
#DESCRIPTION:NewbStepper-BDP;
#DIFFICULTY:Easy;
#METER:11;
#RADARVALUES:0.418668,0.557199,0.155887,0.342952,0.144196,376,356,20,44,0,0,0,0,0,0.418668,0.557199,0.155887,0.342952,0.144196,376,356,20,44,0,0,0,0,0;
#CREDIT:NewbStepper;
#NOTES:
// measure 0
00000000
00000000
00000000
00000000
,  // measure 1
00000000
00000000
00000000
00000000
,  // measure 2
00000000
00000000
00000000
00000000
,  // measure 3
00000000
00000000
00000000
00000000
,  // measure 4
00000000
00000000
00000000
00000000
,  // measure 5
00000000
00000000
00000000
00000000
,  // measure 6
00000000
00000000
00000000
00000000
,  // measure 7
00000000
10010000
00000000
00000000
,  // measure 8
00000000
00010000
00100000
01000000
,  // measure 9
10000000
20020000
00000000
00000000
30030000
00000000
00000000
00000000
,  // measure 10
00000000
00001000
00000010
00000100
,  // measure 11
00000001
00002002
00000000
00000000
00003003
00000000
00000000
00000000
,  // measure 12
00000000
00010000
00001100
00010000
,  // measure 13
00001100
00000000
00000000
00000000
00010000
00000000
00000000
00000000
01100000
00000000
00000000
00000000
10000000
00000000
00000000
01000000
,  // measure 14
00000000
00000000
00000000
00010000
00000000
00000000
00001000
00000000
00000000
00000000
00010000
00000000
00000000
00000000
00001000
00000000
00000000
00000000
00000010
00000000
00000000
00000000
00000100
00000000
,  // measure 15
00000000
00000010
00000000
00000001
00000000
00001000
00000000
00000001
00000000
00000100
00000000
00000010
,  // measure 16
00000000
00000100
00000000
00000220
00000000
00000000
00000330
00000000
00000000
00000020
00000000
00000000
,  // measure 17
00001030
00000001
00000010
00000000
00000001
00000100
00000000
00000001
,  // measure 18
00000010
00000000
00001000
00000000
00011000
00000000
00100000
00010000
,  // measure 19
00100000
01000000
10000000
00000000
00100000
10000000
00000000
00010000
,  // measure 20
00100000
00000000
00001000
00010000
00000000
00010000
00000100
00000010
,  // measure 21
00000100
00000000
00001000
00000000
00000001
00000100
00000000
00000001
,  // measure 22
00000010
00000000
00001000
00010000
00000000
00010000
00000100
00000000
,  // measure 23
00010000
00001000
00100000
00000000
00010000
00000000
10000000
00000000
,  // measure 24
01000000
00000000
00010000
00000000
00001000
00000000
00000100
00000001
,  // measure 25
00000000
00000010
00000100
00000000
00010000
00001000
00000100
00000000
,  // measure 26
00001000
00010000
01000000
00000000
00100000
00000000
00010000
10000000
,  // measure 27
00100000
00000000
01000000
00000000
00001000
00010000
01000000
00000000
,  // measure 28
00010000
00001000
00000100
00000000
00000010
00000000
00001000
00000001
,  // measure 29
00000010
00000000
00001000
00000000
00010000
00001000
00010000
00001000
,  // measure 30
00000000
01000000
00000000
00010000
00100000
00010000
10000000
00100000
,  // measure 31
01000000
00000000
00000000
00000000
00001000
00000000
00000000
00001000
00000000
00000000
00001000
00000000
00010000
00000000
00000000
00010000
,  // measure 32
00000000
00010000
00000020
00000000
00000030
00000000
00001000
00000001
,  // measure 33
00000000
00000100
00000020
00000000
00000000
00000000
00000000
00000000
,  // measure 34
00000030
00002000
00000000
00000000
,  // measure 35
00003000
00020000
00000000
00000000
,  // measure 36
00030000
02000000
00000000
00000000
,  // measure 37
03000000
00000000
00000000
00100000
00000000
00100000
00000000
00100000
00000000
10000000
00000000
10000000
,  // measure 38
00000000
10000000
00000000
00010000
00000000
00010000
00000000
00010000
00000000
01000000
00000000
01000000
,  // measure 39
00000000
01000000
00000000
00001000
00000000
00001000
00000000
00001000
00000000
00010000
00000000
00010000
,  // measure 40
00000000
00010000
00000000
00000100
00000000
00000100
00000000
00000100
00000000
00000010
00000000
00000000
,  // measure 41
00000000
00002002
00000000
00000000
,  // measure 42
00000000
00000000
00000000
00000000
,  // measure 43
00003003
00000000
00000000
00000000
,  // measure 44
00000000
00000000
00000000
00000000
,  // measure 45
00000000
00000000
00000000
00000000
,  // measure 46
00000000
00000000
00001000
00000000
,  // measure 47
00000001
00000000
00000000
00000000
00001000
00000100
00000001
00000100
,  // measure 48
00001000
00010000
00100000
00000000
,  // measure 49
01000000
00000000
01000000
00000000
,  // measure 50
01000000
00000000
10000000
00000000
,  // measure 51
00010000
00000000
00010000
00000000
,  // measure 52
00010000
00000000
00200000
00000000
,  // measure 53
00302000
00000000
00023000
00000000
,  // measure 54
00030200
00000000
00000000
00000000
00000000
00000000
00001300
00000000
00001000
00000000
00001000
00000000
,  // measure 55
00000001
00000000
00000001
00000000
00000001
00000000
00000100
00000000
00000100
00000000
00000100
00000000
,  // measure 56
00000010
00000000
00000010
00000000
00000010
00000000
00020000
00000000
00000000
00000000
00000000
00000000
,  // measure 57
00002000
00000000
00033000
00000000
,  // measure 58
00000000
00011000
00100000
10000000
,  // measure 59
01000000
00010000
00000000
00001000
00000000
00000100
00000000
00000002
,  // measure 60
00000000
00000000
00000000
00001000
00001003
00000000
00000000
00000000
,  // measure 61
00001001
00000000
00000000
00000000
00001000
00000100
00000001
00000000
,  // measure 62
00000100
00000110
00000010
00000001
,  // measure 63
00000100
00001000
00000000
00010000
00000000
01000000
00000000
20000000
,  // measure 64
00000000
00000000
00000000
00010000
30010000
00000000
00000000
00000000
,  // measure 65
10010000
00000000
01100000
00000000
,  // measure 66
10000000
00000000
00010000
01000000
00000000
00010000
01000000
00000000
,  // measure 67
00001000
00000000
00010000
00000100
00000000
00010000
00000100
00000000
,  // measure 68
00000010
00000000
00000001
00000100
00000000
00000001
00000100
00000000
,  // measure 69
00001000
00010000
01000000
10000000
,  // measure 70
00200000
00000000
20300000
00000000
31000000
00010000
00001000
00000000
,  // measure 71
00000020
00000000
00000032
00000000
00000103
00001000
00010000
00000000
,  // measure 72
00100000
00100000
00000000
10000000
00000000
00010000
00000000
00200000
,  // measure 73
00000000
00001000
00001000
00301000
,  // measure 74
00010000
00011000
00000010
00000001
,  // measure 75
00000100
00001000
00000000
00010000
00000000
01000000
00000000
20000000
,  // measure 76
00000000
00000000
00000000
00010000
30010000
00000000
00000000
00000000
,  // measure 77
10010000
00000000
00000000
00000000
00010000
01000000
10000000
00000000
,  // measure 78
01000000
01100000
00100000
10000000
,  // measure 79
01000000
00000000
00000000
00010000
00000000
00000000
00000000
00000000
00000000
00001000
00000000
00000000
00000100
00000000
00000000
00000000
00000010
00000000
00000000
00000000
00000100
00000000
00000000
00000000
,  // measure 80
00000200
00000000
00000302
00000000
,  // measure 81
00001003
00000000
00000000
00000001
00000000
00000000
00001000
00000000
00000100
00000000
00000010
00000000
,  // measure 82
00000001
00000000
00001000
00000100
00000000
00001000
00000100
00000000
,  // measure 83
00010000
00000000
00001000
01000000
00000000
00001000
01000000
00000000
,  // measure 84
00100000
00000000
10000000
01000000
00000000
10000000
01000000
00000000
,  // measure 85
00010000
00001000
00000100
00000001
,  // measure 86
00000020
00000000
00000032
00000000
00000103
00001000
00010000
00000000
,  // measure 87
00200000
00000000
20300000
00000000
31000000
00010000
00001000
00000000
,  // measure 88
00000010
00000010
00000000
00000001
00000000
00001000
00000000
00000020
,  // measure 89
00000000
00010000
00010000
00010030
,  // measure 90
00000000
00000000
00000000
00000000
,  // measure 91
00022000
00033000
00001000
00100000
,  // measure 92
00010000
01000000
00100000
00000000
00010000
00001000
00000020
00000000
,  // measure 93
00000000
00000000
00000000
00000230
00000000
00000000
00000300
00001000
,  // measure 94
00000001
00000010
00000100
00010000
00022000
00000000
00033000
00000000
,  // measure 95
00010000
00000000
00000010
00000000
00001000
00000100
00000010
00000000
,  // measure 96
00001000
00010000
00200000
00000000
00000000
00000000
10300000
00100000
,  // measure 97
01000000
00010000
00100000
00001000
00010000
00000100
00001000
00000010
,  // measure 98
00000100
00000001
00000000
00000000
00002002
00000000
00000000
00000000
,  // measure 99
00000000
00000000
00000000
00000000
,  // measure 100
00000000
00000000
00000000
00000000
,  // measure 101
00000000
00000000
00000000
00000000
00000000
00003003
00000000
00000100
,  // measure 102
00000010
00000100
00000000
00000000
00000000
00000000
00000000
00000000
;
