#TITLE:Sincuvate;
#ARTIST:Endorfin and Feryquitous;
#BANNER:Sincuvate.png;
#BACKGROUND:Sincuvate-bg.png;
#MUSIC:Sincuvate.ogg;
#OFFSET:0.51;
#SAMPLESTART:47.867;
#SAMPLELENGTH:15;
#BPMS:0=191;

//---------------dance-single - Talkion-bSP----------------
#NOTES:
     dance-single:
     Talkion:
     Beginner:
     2:
     0.124565,0.237532,0.090202,0.120269,0,87,78,9,12,0,0,0.124565,0.237532,0.090202,0.120269,0,87,78,9,12,0,0:
0000
0000
0000
0000
,
0000
0000
0000
0000
,
0000
0000
0000
0000
,
0000
0000
0000
0000
,
0000
0000
0000
0000
,
2000
0000
0000
0000
,
0000
0000
3000
0000
,
0002
0000
0000
0000
,
0000
0000
0003
0000
,
0100
0000
0000
0100
,
0000
0010
0000
0000
,
0020
0000
0000
0000
,
0000
0000
0030
0000
,
0000
1000
0000
1000
,
0000
0000
0000
0000
,
0000
0001
0000
0001
,
0000
0000
0000
0000
,
0000
1000
0000
1000
,
0000
0000
0000
0000
,
0000
0001
0000
0001
,
0000
0000
0000
0000
,
0000
0100
0000
0100
,
0000
0000
0000
0000
,
0000
0010
0000
0010
,
0000
0000
0000
0000
,
0000
0100
0000
0100
,
0000
0000
0000
0000
,
0000
0010
0000
0010
,
0000
0000
0000
0000
,
2000
0000
0000
0000
,
3001
0000
0002
0000
,
0000
0000
1003
0000
,
2000
0000
0000
0000
,
3001
0000
0002
0000
,
0000
0000
0003
0000
,
0000
1000
0000
1000
,
0000
0001
0000
0002
,
0000
0000
0003
0000
,
1001
0000
0000
0000
0000
0000
0000
1001
,
0000
0000
0000
0000
0000
0000
0000
1001
,
0000
0000
0000
0000
,
0110
0000
0000
0000
0000
0000
0000
0110
,
0000
0000
0000
0000
,
1000
0000
0000
0000
0000
0000
0000
1000
,
0000
0000
0000
0000
,
0001
0000
0000
0000
0000
0000
0000
0001
,
0000
0000
0000
0000
,
0000
0100
0000
0100
,
0000
0010
0000
0010
,
0000
0100
0000
0100
,
0000
0010
0000
0010
,
0000
0100
0000
0100
,
0000
0010
0000
0010
,
0000
1000
0000
2000
,
0000
0000
3000
0000
0000
0000
0000
1001
,
0000
0000
0000
0000
,
0001
0000
0000
0000
,
1001
0000
0000
0000
,
1000
0000
0000
0000
,
1001
0000
0000
0000
,
0001
0000
0000
0000
,
1001
0000
0000
0000
,
1000
0000
0000
0000
,
0010
0000
0000
0000
,
0010
0000
0000
0000
,
0100
0000
0000
0000
,
0100
0000
0000
0000
,
0001
0000
0000
0000
,
0001
0000
0000
0000
,
1000
0000
0000
0000
,
1000
0000
0000
0000
,
0200
0000
0000
0000
,
0000
0000
0300
0000
,
0020
0000
0000
0000
,
0000
0000
0030
0000
,
0001
0000
0000
0000
,
0000
0001
0000
0000
,
1000
0000
0000
0000
,
0000
2000
0000
0000
,
3000
0000
0000
0000
;

//---------------dance-single - Talkion-BSP----------------
#NOTES:
     dance-single:
     Talkion:
     Easy:
     7:
     0.335036,0.395887,0.300674,0.330741,0,234,204,30,33,0,0,0.335036,0.395887,0.300674,0.330741,0,234,204,30,33,0,0:
0000
0000
0000
0000
,
0000
0000
0000
0000
,
0000
0000
0000
0000
,
0000
0000
0000
0000
,
0000
0000
0000
0000
,
2000
0000
0000
0100
0000
0000
3001
0000
,
0100
0000
0002
0000
0000
0103
0000
0000
,
0002
0000
0000
0010
0000
0000
1003
0000
,
0010
0000
2000
0000
0000
3010
0000
0000
,
0100
0000
0000
0100
0000
0000
0100
0000
,
0100
0000
0010
0000
0000
0010
0000
0000
,
0010
0020
0000
0000
,
0000
0000
0000
0030
,
1000
1100
0000
1000
,
0001
0101
0000
0001
,
1000
1100
0000
0100
,
0010
0001
1000
0001
,
0100
0101
0000
0100
,
0010
1010
0000
0010
,
0100
0101
0000
0100
,
0010
1000
0010
0100
,
0001
0011
0000
0001
,
1000
1010
0000
1000
,
0001
0011
0000
0001
,
0010
0100
1000
0100
,
0010
0110
0000
0010
,
0100
0110
0000
0100
,
0020
0000
0000
0001
,
0031
0000
0000
1000
0000
0000
1001
0000
,
0002
0000
0000
0100
0000
0000
0100
0000
,
0000
0000
0003
0000
2000
0000
0000
0100
,
0000
0100
0000
3000
,
0002
0000
0000
0010
0000
0000
0010
0000
,
0000
0003
2000
0000
,
0000
0000
0000
3000
,
0001
0011
0000
0010
,
0100
0110
0000
0010
,
0001
1001
0000
1000
,
0020
0000
0000
0000
0000
0000
0030
0110
,
0000
0000
0100
0000
0001
0010
0000
0010
,
0000
0010
0001
1000
,
0010
0000
1000
0000
0100
0010
0000
0010
,
0000
0010
0100
1000
,
0001
0000
0000
0101
0000
0000
0000
0000
,
1000
0100
1000
1000
,
0001
0000
0000
0101
0000
0000
0000
0000
,
1000
0100
0010
0001
,
1000
1010
0000
0010
,
0100
0110
0000
0010
,
0100
0101
0000
0001
,
0010
0011
0000
0001
,
1000
1001
0000
0001
,
0010
0100
1000
0100
,
0010
0001
1000
0001
,
0100
0000
0100
0010
0100
0000
0000
0220
,
0000
0000
0000
0000
0330
0000
1000
0200
,
0000
0000
0300
0100
,
0220
0000
0000
0000
0330
0000
0001
0200
,
0000
0000
0300
0000
0100
0000
0000
2002
,
0000
0000
3003
0000
1000
0000
0000
0200
,
0000
0300
0100
0000
,
0200
0000
0000
0000
0320
0000
0000
0032
,
0000
0000
0000
0003
,
1000
0000
0000
0000
1001
0000
0000
1000
,
0000
0100
0010
0000
,
0001
0000
0000
0000
1001
0000
0000
0001
,
0000
0100
0010
0000
,
1000
0000
0000
0000
1100
0000
0000
0100
,
0000
0010
0001
0000
,
0001
0000
0000
0000
0101
0000
0000
0100
,
0000
0010
1000
0000
,
0020
0000
0000
0100
0000
0000
1030
0000
,
0001
0000
0200
0000
0000
0310
0000
0000
,
0200
0000
0000
0001
0000
0000
0310
0000
,
1000
0000
0020
0000
0000
0130
0000
0000
,
0002
0000
0000
0010
0000
0000
0103
0000
,
0001
0000
2000
0000
0000
3010
0000
0000
,
2000
0000
0000
3200
0000
0000
0310
0000
,
0001
0000
2000
0000
0000
0002
0000
0000
,
3003
0000
0000
0000
;

//---------------dance-single - Talkion-DSP----------------
#NOTES:
     dance-single:
     Talkion:
     Medium:
     11:
     0.536917,0.633419,0.430965,0.420943,0.015034,375,332,43,42,0,0,0.536917,0.633419,0.430965,0.420943,0.015034,375,332,43,42,0,0:
0000
0000
0000
0000
,
0000
0000
0000
0000
,
0000
0000
0000
0000
,
0000
0000
0000
0000
,
0000
0000
0000
0000
,
2000
0000
0000
3200
0000
0000
0301
0000
,
0100
0000
2000
0000
0000
3002
0000
0000
,
2003
0000
0000
3020
0000
0000
0031
0000
,
0010
0000
2000
0000
0000
3200
0000
0000
,
0320
0000
0000
0032
0000
0000
1003
0000
,
0001
0000
2000
0000
0000
3020
0000
0000
,
0031
0010
0200
0000
,
0000
0000
0000
0300
,
0100
0010
0100
0000
0000
0100
0101
0000
,
0001
1000
0100
0000
1000
0001
0100
0000
,
0010
0100
0010
0000
0000
0010
1010
0000
,
1000
0001
0010
0000
0001
1000
0010
0000
,
0100
0001
0100
0000
0000
0100
0110
0000
,
0010
1000
0100
0000
0010
0001
0100
0000
,
0010
1000
0010
0000
0000
0010
0110
0000
,
0100
0001
0010
0000
0100
1000
0010
0000
,
1000
0100
1000
0000
0000
1000
1001
0000
,
0001
0100
0010
0000
0001
0010
0100
0000
,
0001
0010
0001
0000
0000
0001
1001
0000
,
1000
0010
0100
0000
1000
0100
0010
0000
,
1000
0001
0001
0000
0001
1000
1000
0000
,
0001
0100
1000
0000
1000
0100
0001
0000
,
1000
0100
1000
0100
0010
0001
0010
0001
,
1000
0000
0000
0100
0000
0000
0001
0000
0000
0010
0000
0000
1000
0000
0000
0000
,
1002
0100
0100
0010
,
0013
0001
1000
0000
2001
0000
0100
0000
,
0100
0000
0010
0000
3010
1000
0001
0000
,
0201
1000
1000
0001
,
0301
0100
0010
0000
2000
0000
0000
0002
,
0000
0000
0000
3003
,
1000
0100
1000
0000
0000
1000
1010
0000
,
0001
0100
0001
0000
0000
0001
0011
0000
,
1000
0100
0001
0000
1000
0010
0001
0000
,
1000
0001
2000
0000
0020
0000
3030
1010
,
0000
0010
0100
0000
0100
0001
0000
0011
,
0000
0010
0100
0000
0100
1000
0000
1000
,
0001
0100
0010
0000
0100
0010
0000
0110
,
0000
0010
0100
0000
1000
0100
0001
0000
,
1000
0100
0010
0000
0100
0001
0100
1000
,
0000
0001
0001
0000
0100
0010
0110
0000
,
0001
0010
0100
0000
0010
1000
0010
0001
,
0000
1000
1000
0000
0010
0100
0110
0000
,
0002
0000
0010
0010
0000
0100
0103
0000
,
2000
0000
0010
0010
0000
0100
3100
0000
,
0002
0000
1000
1000
0000
0100
0103
0000
,
0010
0100
0010
0000
0100
0010
0100
0000
,
0001
0010
0001
0100
0000
0100
0110
0000
,
1000
0010
1000
0100
0000
0100
0110
0000
,
0001
0010
0001
0010
0100
1000
0100
2000
,
0000
0000
0010
0000
0010
0000
3010
0000
0100
0000
0000
0010
0000
0000
0110
0000
,
0000
0000
0101
0000
0011
0000
0000
0010
,
0000
0010
0000
0010
0110
0000
0000
0000
,
1001
0000
1100
0000
1010
0000
0000
0010
,
0000
0010
0000
0010
0110
0000
0000
0000
,
0101
0000
1100
0000
0110
0000
0000
0001
,
0000
0001
0000
0001
1001
0000
0000
0000
,
0101
0000
1100
0000
0110
0000
0000
1000
,
0000
1000
0000
1000
1001
0000
0000
0000
,
0001
0000
0100
0001
0011
0000
0000
0010
,
0000
0010
0000
0010
1100
0000
0000
0000
,
1000
0000
0010
1000
1100
0000
0000
0100
,
0000
0100
0000
0100
0011
0000
0000
0000
,
0001
0000
1000
0010
0110
0000
0000
0100
,
0000
0100
0000
0100
1001
0000
0000
0000
,
1000
0100
1000
0100
0010
0010
0000
0110
,
0000
1001
0000
0220
0000
0000
0330
0000
,
0002
0000
0000
0023
0000
0000
1030
0000
,
0010
0000
0002
0000
0000
2003
0000
0000
,
3002
0000
0000
0203
0000
0000
1300
0000
,
0100
0000
0002
0000
0000
0023
0000
0000
,
0230
0000
0000
2300
0000
0000
3010
0000
,
0100
0000
0002
0000
0000
0023
0000
0000
,
0032
0000
0000
0203
0000
0000
1300
0000
,
0001
0000
0020
0000
0000
2000
0000
0000
,
3030
0000
0000
0000
;

//---------------dance-single - Talkion-ESP----------------
#NOTES:
     dance-single:
     Talkion:
     Hard:
     14:
     0.705867,0.831362,0.591325,0.521167,0.095213,493,434,59,52,0,0,0.705867,0.831362,0.591325,0.521167,0.095213,493,434,59,52,0,0:
0000
0000
0000
0000
,
0000
0000
0000
0000
,
0000
0000
0000
0000
,
0000
0000
0000
0000
,
0000
0000
0000
0000
,
1000
0200
0000
0301
0200
0000
0320
0000
,
0032
0000
1003
0010
1000
0200
0000
0000
,
0310
0002
0000
0013
2000
0000
3020
0000
,
0032
0000
0103
0010
1000
0020
0000
0000
,
0130
0001
0010
0001
0200
0000
0310
1000
,
0100
1000
0020
0000
0130
0002
0000
0103
,
2000
0000
3200
0000
0301
1000
0001
0020
,
0000
0000
0000
0000
0000
0000
0000
0000
0030
0000
0010
0001
0010
0000
0001
0000
,
0100
0100
0010
1000
0000
1000
0100
0000
,
0100
0000
1000
0100
1000
0000
0001
0000
0100
0000
0010
0000
0110
0000
0000
0000
,
0100
0100
0001
0010
0000
0010
0001
0000
,
0001
1000
0100
0000
0100
1000
0010
0000
,
0010
0010
0100
0001
0000
0001
0100
0000
,
0100
0000
0001
0100
0001
0000
1000
0000
0100
0000
0010
0000
0110
0000
0000
0000
,
0100
0100
1000
0010
0000
0010
1000
0000
,
0001
0001
0010
0100
1000
0001
1001
0000
,
1000
1000
0010
0100
0000
0100
0010
0000
,
0010
0000
1000
0010
1000
0000
0100
0000
0010
0000
0001
0000
0011
0000
0000
0000
,
0010
0010
0001
0100
0000
0100
0010
0000
,
0010
1000
0100
0000
0100
1000
0001
0000
,
0001
0001
0010
0100
0000
0100
0010
0000
,
0010
0000
0001
0010
0001
0000
0100
0000
0010
0000
1000
0000
1010
0000
0000
0000
,
1000
0100
0001
0100
1000
0100
0010
0001
,
1000
0000
0001
1000
0000
0000
1010
0000
0000
0011
0000
0000
1001
0000
0000
0000
,
0010
0010
0201
0310
,
1000
0001
1001
0000
0010
0000
0010
0000
,
1200
0000
0310
0000
0001
1000
1001
0000
,
0100
0100
1020
0031
,
0010
1000
1001
0000
0100
0000
0100
0000
,
0021
0200
0000
0330
,
0100
1000
0010
1000
0000
1000
0100
0000
,
0010
0001
0100
0001
0000
0001
0010
0000
,
0001
0100
0101
0000
1000
0100
1100
0000
,
0001
0000
0100
0001
0100
0000
0010
0000
2000
0000
0000
0000
3000
0000
1001
0000
,
0000
0001
0011
0001
0100
0010
1000
1010
,
0000
1000
1100
1000
0020
0100
0000
0130
,
0001
1000
1001
0000
0001
0010
0100
2000
,
0000
0000
3001
1000
0001
0000
0000
0000
0100
0000
0010
0000
1000
0000
1001
0000
,
0000
1000
1100
1000
0001
0100
0010
0110
,
0000
0100
0110
0010
1000
0100
0010
0001
,
0100
0100
0010
0100
0100
1000
0100
0002
,
0000
0000
1003
0001
1000
0000
0100
0000
1000
0000
1000
0000
0010
0000
0000
0000
,
0010
0001
0010
0100
0010
1000
0100
0000
,
0100
0001
0100
0010
0100
1000
0010
0000
,
0010
0001
0010
1000
0100
0010
0001
0000
,
0001
1000
0100
1000
0001
0100
0010
0000
,
0010
0010
1000
0100
0000
0100
1100
0000
,
0010
0000
0010
0000
0001
0000
0100
0000
0000
0000
0100
0000
0010
0000
1000
0001
,
1000
0100
0010
0001
0000
0001
1000
0010
,
0100
0000
0010
0100
0010
0100
0010
0100
0001
0000
1000
0100
0000
0000
0220
0000
,
0000
0330
0010
0001
0101
0000
0000
0110
,
0000
0110
0000
0010
1010
0000
0000
0000
,
1001
0001
0000
0001
0011
0000
0000
0110
,
0000
0000
0110
0000
0000
0000
0100
1000
0020
0000
0000
0000
0030
0000
0000
0000
,
0110
0000
0010
1000
1100
0000
0000
0110
,
0000
0110
0000
0010
0011
0000
0000
0000
,
1001
1000
0000
1000
1010
0000
0000
0110
,
0000
0000
0110
0000
0000
0000
0100
0001
0020
0000
0000
0000
0030
0000
0000
0000
,
0010
0001
0010
0001
0101
0010
0000
1010
,
0000
1010
0000
1000
1001
0000
0000
0000
,
0100
1000
0100
1000
1010
0100
0000
0110
,
0000
0000
0110
0000
0000
0000
0100
0001
0020
0000
0000
0000
0030
0000
0000
0000
,
0010
0100
0010
0100
1001
0010
0000
0110
,
0000
0110
0000
1000
1001
0000
0000
0000
,
0001
0010
0100
1000
1001
0010
0000
0110
,
0000
0000
0110
0000
0000
0000
0001
1000
0200
0000
0000
0000
0300
0000
0000
0000
,
0010
0002
0000
0013
2000
0000
3020
0000
,
0032
0000
0103
0010
0100
2000
0000
0000
,
3100
0002
0000
0103
2000
0000
3200
0000
,
0302
0000
0013
0100
1000
0200
0000
0010
,
0310
0002
0000
1003
0002
0000
0203
0000
,
0320
0000
1030
0100
0001
0200
0000
0000
,
1300
0020
0000
0130
0020
0000
0032
0000
,
2003
0000
3100
0001
0010
0100
2000
0002
,
3003
0000
0000
0000
;

//---------------dance-single - Talkion-CSP----------------
#NOTES:
     dance-single:
     Talkion:
     Challenge:
     16:
     0.889135,1.029306,0.661482,0.290651,0.355797,621,555,66,29,0,0,0.889135,1.029306,0.661482,0.290651,0.355797,621,555,66,29,0,0:
0000
0000
0000
0000
,
0000
0000
0000
0000
,
0000
0000
0000
0000
,
0000
0000
0000
0000
,
0000
0000
0000
0000
,
1000
0100
0010
1000
0100
0010
1000
0001
,
0100
0010
0001
0100
0010
0001
1000
0100
,
1000
0010
0100
1000
0010
0100
1000
0001
,
0100
0010
1000
0100
0010
0002
0000
0100
,
0103
0010
1000
0100
0010
1000
0100
0010
,
0100
0001
0010
0100
0001
0010
0100
0010
,
0100
0001
1000
0100
0010
0002
2000
0000
,
0000
0000
0000
0000
0000
0000
0000
0000
3003
0000
1000
0010
1000
0010
0100
0000
,
0001
1000
0100
1000
0000
1000
1010
0000
,
0010
0000
0100
0001
0100
0000
0010
0000
1000
0000
0001
0000
1001
0000
0000
0000
,
1000
0001
0010
0001
0000
0001
0101
0000
,
0100
1000
0100
0001
0100
0010
0110
0000
,
0001
0010
0100
0010
0000
0010
0011
0000
,
0001
0000
1000
0010
1000
0000
0001
0000
0100
0000
0010
0000
0110
0000
0000
0000
,
1000
0100
0010
0100
0000
0100
1100
0000
,
1000
0010
0001
0010
1000
0010
0110
0000
,
0001
0010
0001
0100
0000
0100
0110
0000
,
0010
0000
1000
0001
1000
0000
0100
0000
0010
0000
0001
0000
0101
0000
0000
0000
,
1000
0100
1000
0010
0000
0010
0110
0000
,
0100
0001
0010
0100
1000
0001
1001
0000
,
1000
0010
0100
0020
0000
0001
0031
0010
,
1000
0000
0100
0010
0100
0000
0010
0000
0001
0000
1000
0000
1001
0000
0000
0000
,
0001
0000
1000
0100
1000
0000
0001
0100
0001
0000
1000
0000
0100
0000
0010
0000
,
0001
0000
0100
1000
0100
0000
0010
0100
0000
0010
0100
0000
1001
0000
0000
0000
,
1100
1100
0101
1002
,
0013
0001
0101
0100
0110
0000
0110
0000
,
1001
0000
1200
0000
0310
0100
1100
1000
,
1010
1010
0011
1002
,
0103
0001
0011
0010
0110
0000
0100
1000
,
0001
0100
0020
0000
0000
0000
0030
0000
,
0010
1000
0100
1000
0000
1000
1010
0000
,
0010
0100
0001
0010
0100
0010
0001
1000
,
0100
1000
0001
0100
0000
0100
0101
0000
,
0001
0010
0100
1000
0001
0000
0200
0000
0020
0000
0000
0000
0330
0000
1001
0000
,
0000
0000
1000
0000
0100
0010
0100
0000
1000
0000
0010
0000
0100
0000
0101
0000
,
0000
0000
0001
0000
1000
0100
1000
0000
0002
0000
0100
0000
0000
0000
0103
0000
,
0010
0000
0001
0000
0010
0100
0010
0000
1000
0001
0010
0100
1000
0000
1001
0000
,
0000
0000
0001
0100
0001
0000
1000
0100
1000
0000
0001
0100
0001
0100
0020
0000
,
0000
0000
0130
0000
0001
1000
0001
0000
0010
0000
0100
0000
1000
0000
1010
0000
,
0000
0000
0010
0000
0100
0001
0100
0000
0020
0000
1000
0000
0000
0000
1030
0000
,
0100
0000
0001
0000
0100
0010
0100
0000
1000
0100
0010
0001
1000
0000
1001
0000
,
0000
0000
0001
0100
0001
0100
0010
0100
0001
1000
0100
0010
0001
0000
1000
0000
,
0001
0000
0100
0000
0001
0100
0002
0000
0000
0000
1000
0000
1003
0000
0100
0000
,
0010
0000
0100
1000
0100
0000
1000
0000
0001
0100
0010
0100
0001
0000
1000
0000
,
0001
0000
0010
0000
0001
0010
0002
0000
0000
0000
0100
0000
0103
0000
1000
0000
,
0100
0000
0001
1000
0001
0000
0010
0000
0100
1000
0100
1000
0001
0100
0001
0100
,
0010
0000
1000
0000
0010
1000
0020
0000
0000
0000
0100
0000
0130
0000
0001
0000
,
0010
0000
0001
1000
0001
0000
0100
0000
1000
0100
1000
0100
0010
0000
1000
0000
,
0001
0000
0010
0001
0100
0000
0010
0000
0100
0000
0010
1000
0100
0000
0010
0000
,
0001
1000
0001
0010
0100
1000
0010
0100
0001
0010
0100
1000
0001
0000
2002
0000
,
0000
3003
1000
0100
1100
0100
1000
1001
,
0000
0000
1001
0000
0000
0000
0001
0100
0020
0000
0030
0000
0000
0000
0000
0000
,
0110
0100
0000
0100
0101
0100
0010
1010
,
0000
0000
1010
0000
0000
0000
0010
1000
0200
0000
0300
0000
0000
0000
0000
0000
,
1001
0000
0001
0010
0011
0010
0001
1001
,
0000
0000
1001
0000
0000
0000
1000
0010
0200
0000
0300
0000
0000
0000
0000
0000
,
0110
0010
0000
0010
1010
0010
0100
0101
,
0000
0000
0100
0001
0010
0100
1000
0100
0010
0001
1000
0010
0200
0000
0000
0000
,
0310
0000
0100
0010
1010
0010
1000
1001
,
0000
0000
1001
0000
0000
0000
1000
0100
0002
0000
0003
0000
0000
0000
0000
0000
,
0101
0100
0000
0100
0110
0100
1000
1001
,
0000
0000
1001
0000
0000
0000
0001
0100
0020
0000
0030
0000
0000
0000
0000
0000
,
0110
0000
0010
0100
0101
0100
0001
1001
,
0000
0000
1001
0000
0000
0000
0001
0010
2000
0000
3000
0000
0000
0000
0000
0000
,
1010
0010
0000
0010
0110
0010
0001
1001
,
0000
0000
0001
0100
1000
0100
0010
1000
0001
0010
0100
1000
0002
0000
0000
0000
,
1003
0100
0010
1000
0100
0010
1000
0001
,
0010
1000
0001
0010
1000
0001
0010
0100
,
0010
0001
1000
0010
0100
1000
0010
0100
,
1000
0000
0001
0000
0010
0000
0100
0000
1000
0000
0001
0000
1000
0000
0010
0100
,
0020
0000
0130
0001
0010
0100
1000
0001
,
0100
1000
0001
0100
1000
0001
0100
0010
,
0100
0001
1000
0100
0010
1000
0100
0010
,
1000
0001
0010
0100
1000
0001
0200
0020
,
0330
0000
0000
0000
;

//---------------dance-double - Talkion-BDP----------------
#NOTES:
     dance-double:
     Talkion:
     Easy:
     7:
     0.325014,0.395887,0.200449,0.160359,0,227,207,20,16,0,0,0.325014,0.395887,0.200449,0.160359,0,227,207,20,16,0,0:
// measure 0
00000000
00000000
00000000
00000000
,  // measure 1
00000000
00000000
00000000
00000000
,  // measure 2
00000000
00000000
00000000
00000000
,  // measure 3
00000000
00000000
00000000
00000000
,  // measure 4
00000000
00000000
00000000
00000000
,  // measure 5
10000000
00000000
00000000
01000000
00000000
00000000
00010000
00000000
,  // measure 6
01000000
00000000
10000000
00000000
00000000
00100000
00000000
00000000
,  // measure 7
00010000
00000000
00000000
00001000
00000000
00000000
00000010
00000000
,  // measure 8
00000001
00000000
00001000
00000000
00000000
00000010
00000000
00000000
,  // measure 9
00001000
00000000
00000000
00001000
00000000
00000000
00000001
00000000
,  // measure 10
00000100
00000000
00001000
00000000
00000000
00001000
00000000
00000000
,  // measure 11
00010000
02000000
00000000
00000000
,  // measure 12
00000000
00000000
00000000
03000000
,  // measure 13
10000000
11000000
00000000
01000000
,  // measure 14
00000000
01000000
00010000
00001000
,  // measure 15
00000000
00001000
00000100
00000001
,  // measure 16
00000000
00000001
00001000
00000100
,  // measure 17
00001000
00001001
00000000
00000001
,  // measure 18
00000000
00000001
00000100
00001000
,  // measure 19
00000000
00001000
00010000
01000000
,  // measure 20
00000000
01000000
10000000
00010000
,  // measure 21
10000000
10100000
00000000
00100000
,  // measure 22
00000000
00100000
00010000
00001000
,  // measure 23
00000000
00001000
00000010
00000001
,  // measure 24
00000000
00001000
00000010
00001000
,  // measure 25
00000001
00000011
00000000
00000010
,  // measure 26
00000001
00000011
00000000
00000010
,  // measure 27
00002000
00000000
00010000
00013000
,  // measure 28
00100000
00000000
00000000
01000000
00000000
00000000
01100000
00000000
,  // measure 29
10000000
00000000
00000000
01000000
00000000
00000000
00010000
00000000
,  // measure 30
00000000
00000000
00000000
00000000
00001000
00000000
00000000
00000010
,  // measure 31
00000000
00000001
00000000
00000000
,  // measure 32
00000001
00000000
00000000
00000100
00000000
00000000
00001000
00000000
,  // measure 33
00000000
00000000
00020000
00000000
,  // measure 34
00000000
00000000
00000000
00030000
,  // measure 35
00001000
00011000
00000000
00010000
,  // measure 36
00000000
00010000
01000000
10000000
,  // measure 37
00010000
10010000
00000000
10000000
,  // measure 38
00200000
00000000
00000000
00000000
00000000
00000000
00300000
01100000
,  // measure 39
00000000
00000000
01000000
00000000
00010000
00100000
00000000
00100000
,  // measure 40
00000000
00001000
00010000
00001000
,  // measure 41
00000010
00000000
00000001
00000000
00000100
00000010
00000000
00000010
,  // measure 42
00000000
00000100
00001000
00010000
,  // measure 43
00001000
00000000
00000000
00011000
00000000
00000000
00000000
00000000
,  // measure 44
00010000
01000000
10000000
00010000
,  // measure 45
10000000
00000000
00000000
10100000
00000000
00000000
00000000
00000000
,  // measure 46
10000000
00100000
00010000
00001000
,  // measure 47
00010000
00011000
00000000
00001000
,  // measure 48
00000010
00000001
00000100
00001000
,  // measure 49
00010000
00011000
00000000
00010000
,  // measure 50
01000000
10000000
00100000
00010000
,  // measure 51
00001000
00011000
00000000
00001000
,  // measure 52
00000010
00000001
00001000
00000010
,  // measure 53
00000100
00000001
00000100
00000010
,  // measure 54
00001000
00000000
00001000
00000001
00001000
00000000
00000000
00002002
,  // measure 55
00000000
00000000
00000000
00000000
00003003
00000000
00000001
00000020
,  // measure 56
00000000
00000000
00000030
00001000
,  // measure 57
00022000
00000000
00000000
00000000
00033000
00000000
00001000
00200000
,  // measure 58
00000000
00000000
00300000
00000000
00010000
00000000
00000000
20020000
,  // measure 59
00000000
00000000
30030000
00000000
10000000
00000000
00000000
00200000
,  // measure 60
00000000
00300000
00010000
00000000
,  // measure 61
00011000
00000000
00000000
00000000
00001000
00000000
00000000
00000200
,  // measure 62
00000000
00000300
00000001
00000000
,  // measure 63
00000010
00000000
00001000
00000000
00010000
00000000
00000000
00100000
,  // measure 64
00000000
00010000
00001000
00000000
,  // measure 65
00010000
00000000
00001000
00000000
00000100
00000000
00000000
00000001
,  // measure 66
00000000
00000100
00001000
00000000
,  // measure 67
00010000
00000000
00000000
00000000
00011000
00000000
00000000
00100000
,  // measure 68
00000000
00010000
00100000
00000000
,  // measure 69
00010000
00000000
00000000
00000000
10010000
00000000
00000000
01000000
,  // measure 70
00000000
10000000
01000000
00000000
,  // measure 71
10000000
00000000
00000000
00100000
00000000
00000000
00010000
00000000
,  // measure 72
00100000
00000000
10000000
00000000
00000000
00010000
00000000
00000000
,  // measure 73
00100000
00000000
00000000
00001000
00000000
00000000
00010000
00000000
,  // measure 74
00100000
00000000
00010000
00000000
00000000
00001000
00000000
00000000
,  // measure 75
00000010
00000000
00000000
00000001
00000000
00000000
00000100
00000000
,  // measure 76
00000001
00000000
00000010
00000000
00000000
00001000
00000000
00000000
,  // measure 77
00010000
00000000
00000000
00001000
00000000
00000000
00000100
00000000
,  // measure 78
00001000
00000000
00020000
00000000
00000000
00002000
00000000
00000000
,  // measure 79
00033000
00000000
00000000
00000000
;

//---------------dance-double - Talkion-DDP----------------
#NOTES:
     dance-double:
     Talkion:
     Medium:
     11:
     0.511145,0.593830,0.280629,0.410920,0.015034,357,329,28,41,0,0,0.511145,0.593830,0.280629,0.410920,0.015034,357,329,28,41,0,0:
// measure 0
00000000
00000000
00000000
00000000
,  // measure 1
00000000
00000000
00000000
00000000
,  // measure 2
00000000
00000000
00000000
00000000
,  // measure 3
00000000
00000000
00000000
00000000
,  // measure 4
00000000
00000000
00000000
00000000
,  // measure 5
00020000
00000000
00000000
00032000
00000000
00000000
00013000
00000000
,  // measure 6
01000000
00000000
20000000
00000000
00000000
30020000
00000000
00000000
,  // measure 7
20030000
00000000
00000000
30200000
00000000
00000000
00310000
00000000
,  // measure 8
00001000
00000000
00020000
00000000
00000000
00032000
00000000
00000000
,  // measure 9
00003020
00000000
00000000
00000032
00000000
00000000
00000013
00000000
,  // measure 10
00000100
00000000
00002000
00000000
00000000
00003002
00000000
00000000
,  // measure 11
00000103
00001000
00020000
00000000
,  // measure 12
00000000
00000000
00000000
00030000
,  // measure 13
00010000
00001000
00010000
00000000
00000000
00010000
01010000
00000000
,  // measure 14
01000000
10000000
00010000
00000000
01000000
00010000
10000000
00000000
,  // measure 15
01000000
00100000
01000000
00000000
00000000
01000000
01010000
00000000
,  // measure 16
00010000
00001000
00100000
00000000
00010000
00100000
00001000
00000000
,  // measure 17
00010000
00000100
00010000
00000000
00000000
00010000
00010100
00000000
,  // measure 18
00000100
00001000
00000010
00000000
00000100
00000001
00000010
00000000
,  // measure 19
00000001
00001000
00000001
00000000
00000000
00000001
00000011
00000000
,  // measure 20
00000010
00000100
00001000
00000000
00000010
00000100
00001000
00000000
,  // measure 21
00010000
00001000
00010000
00000000
00000000
00010000
00110000
00000000
,  // measure 22
00100000
10000000
00010000
00000000
00100000
00010000
10000000
00000000
,  // measure 23
00100000
01000000
00100000
00000000
00000000
00100000
00110000
00000000
,  // measure 24
00010000
00001000
01000000
00000000
00001000
01000000
00010000
00000000
,  // measure 25
00100000
00001000
00001000
00000000
00001000
00010000
00010000
00000000
,  // measure 26
00001000
00000100
00000001
00000000
00000001
00000100
00001000
00000000
,  // measure 27
00010000
00000100
00010000
00000100
00001000
00000001
00001000
00000001
,  // measure 28
00000100
00000000
00000000
00001000
00000000
00000000
00010000
00000000
00000000
00100000
00000000
00000000
10000000
00000000
00000000
00000000
,  // measure 29
20010000
31000000
00010000
00001000
,  // measure 30
00000100
00000001
00001002
00000103
,  // measure 31
00001000
00010000
01000000
10000000
,  // measure 32
20010000
30100000
00010000
00001000
,  // measure 33
00000010
00000000
00000001
00000000
00001002
00000000
00000000
00000200
,  // measure 34
00000000
00000000
00000000
00000303
,  // measure 35
00000010
00001000
00000010
00000000
00000000
00000010
00010010
00000000
,  // measure 36
00010000
00001000
00010000
00000000
00000000
00010000
01010000
00000000
,  // measure 37
01000000
10000000
00100000
00000000
00010000
00001000
00100000
00000000
,  // measure 38
00010000
10000000
00020000
00000000
02000000
00000000
03030000
01010000
,  // measure 39
00000000
01000000
00100000
00000000
00100000
10000000
00000000
11000000
,  // measure 40
00000000
01000000
00010000
00000000
00010000
00001000
00000000
00001000
,  // measure 41
00010000
00000100
00001000
00000000
00000001
00001000
00000000
00001001
,  // measure 42
00000000
00001000
00000010
00000000
00000001
00000010
00001000
00000000
,  // measure 43
00000100
00010000
00001000
00000000
00000100
00001000
00010000
00001000
,  // measure 44
00000000
00010000
00010000
00000000
01000000
00100000
01100000
00000000
,  // measure 45
10000000
00100000
01000000
00000000
00100000
01000000
00010000
00100000
,  // measure 46
00000000
00001000
00001000
00000000
00010000
00001000
00011000
00000000
,  // measure 47
00002000
00000000
00000100
00000100
00000000
00010000
00013000
00000000
,  // measure 48
00020000
00000000
01000000
01000000
00000000
00001000
00031000
00000000
,  // measure 49
00002000
00000000
00000100
00000100
00000000
00000001
00003001
00000000
,  // measure 50
00000010
00000100
00000010
00000000
00000100
00000010
00000100
00000000
,  // measure 51
00000001
00000010
00000100
00010000
00000000
00001000
00001000
00000000
,  // measure 52
00001000
00100000
01000000
10000000
00000000
00010000
00010000
00000000
,  // measure 53
10000000
00100000
10000000
00100000
01000000
00010000
01000000
00010000
,  // measure 54
00000000
00000000
00000000
00000000
00010000
00000000
00010000
00000000
00100000
00000000
00001000
00000000
00000000
00010000
00000000
00000000
,  // measure 55
00011000
00000000
00000100
00000000
00000001
00000000
00000000
00001000
,  // measure 56
00000000
00001000
00000000
00001000
00001001
00000000
00000000
00000000
,  // measure 57
00001000
00000000
00000100
00000000
00010000
00000000
00000000
01000000
,  // measure 58
00000000
01000000
00000000
01000000
01100000
00000000
00000000
00000000
,  // measure 59
10000000
00000000
00100000
00000000
00010000
00000000
00000000
00001000
,  // measure 60
00000000
00001000
00000000
00001000
00011000
00000000
00000000
00000000
,  // measure 61
00001000
00000000
00000010
00000000
00000001
00000000
00000000
00001000
,  // measure 62
00000000
00001000
00000000
00001000
00001001
00000000
00000000
00000000
,  // measure 63
00000001
00000000
00000010
00000100
00010000
00000000
00000000
00001000
,  // measure 64
00000000
00001000
00000000
00001000
00011000
00000000
00000000
00000000
,  // measure 65
00001000
00000000
00100000
01000000
10000000
00000000
00000000
00010000
,  // measure 66
00000000
00010000
00000000
00010000
10010000
00000000
00000000
00000000
,  // measure 67
10000000
00000000
00100000
00010000
00001000
00000000
00000000
00010000
,  // measure 68
00000000
00010000
00000000
00010000
00011000
00000000
00000000
00000000
,  // measure 69
00010000
00000100
00010000
00000100
00001000
00000010
00000000
00000110
,  // measure 70
00000000
00001001
00000000
00000220
00000000
00000000
00000330
00000000
,  // measure 71
00000002
00000000
00000000
00000023
00000000
00000000
00001030
00000000
,  // measure 72
00010000
00000000
00002000
00000000
00000000
00003020
00000000
00000000
,  // measure 73
00000032
00000000
00000000
00000203
00000000
00000000
00001300
00000000
,  // measure 74
00010000
00000000
00200000
00000000
00000000
20300000
00000000
00000000
,  // measure 75
30020000
00000000
00000000
00230000
00000000
00000000
10300000
00000000
,  // measure 76
00100000
00000000
00020000
00000000
00000000
00032000
00000000
00000000
,  // measure 77
00003200
00000000
00000000
00000302
00000000
00000000
00000013
00000000
,  // measure 78
00000100
00000000
00002000
00000000
00000000
00020000
00000000
00000000
,  // measure 79
00033000
00000000
00000000
00000000
;

//---------------dance-double - Talkion-EDP----------------
#NOTES:
     dance-double:
     Talkion:
     Hard:
     14:
     0.701572,0.831362,0.591325,0.501123,0.095213,490,431,59,50,0,0,0.701572,0.831362,0.591325,0.501123,0.095213,490,431,59,50,0,0:
// measure 0
00000000
00000000
00000000
00000000
,  // measure 1
00000000
00000000
00000000
00000000
,  // measure 2
00000000
00000000
00000000
00000000
,  // measure 3
00000000
00000000
00000000
00000000
,  // measure 4
00000000
00000000
00000000
00000000
,  // measure 5
00010000
00002000
00000000
00003100
00002000
00000000
00023000
00000000
,  // measure 6
02030000
00000000
13000000
00100000
10000000
02000000
00000000
00000000
,  // measure 7
03010000
00002000
00000000
00003010
00002000
00000000
00023000
00000000
,  // measure 8
00032000
00000000
00003100
00000001
00000100
00000020
00000000
00000000
,  // measure 9
00001030
00000100
00000010
00000100
00020000
00000000
00031000
00100000
,  // measure 10
01000000
00100000
00020000
00000000
00031000
00000200
00000000
00001300
,  // measure 11
00020000
00000000
02030000
00000000
03100000
10000000
00100000
02000000
,  // measure 12
00000000
00000000
00000000
00000000
00000000
00000000
00000000
00000000
03000000
00000000
01000000
00010000
01000000
00000000
00010000
00000000
,  // measure 13
00100000
00100000
00001000
00010000
00000000
00010000
00001000
00000000
,  // measure 14
00000100
00000000
00000010
00000100
00000010
00000000
00001000
00000000
00000100
00000000
00010000
00000000
00010100
00000000
00000000
00000000
,  // measure 15
00000100
00000100
00010000
00001000
00000000
00001000
00010000
00000000
,  // measure 16
00100000
10000000
01000000
00000000
01000000
10000000
00100000
00000000
,  // measure 17
01000000
01000000
00001000
00010000
00000000
00010000
00001000
00000000
,  // measure 18
00000010
00000000
00000100
00000010
00000100
00000000
00001000
00000000
00000010
00000000
00010000
00000000
00010010
00000000
00000000
00000000
,  // measure 19
00000010
00000010
00010000
00001000
00000000
00001000
00010000
00000000
,  // measure 20
01000000
00010000
00001000
00000100
00000001
00001000
00001001
00000000
,  // measure 21
00000001
00000001
00000010
00000001
00000000
00000001
00000100
00000000
,  // measure 22
00001000
00000000
00010000
00001000
00010000
00000000
00000100
00000000
00001000
00000000
00000100
00000000
00010100
00000000
00000000
00000000
,  // measure 23
00010000
00010000
00001000
00100000
00000000
00100000
00010000
00000000
,  // measure 24
01000000
00100000
00010000
00000000
00010000
00001000
00000100
00000000
,  // measure 25
00000010
00000010
00001000
00000100
00000000
00000100
00001000
00000000
,  // measure 26
00010000
00000000
00100000
00010000
00100000
00000000
00010000
00000000
10000000
00000000
00100000
00000000
10100000
00000000
00000000
00000000
,  // measure 27
10000000
01000000
00010000
00001000
00000010
00000001
00001000
00000010
,  // measure 28
00001000
00000000
00000100
00001000
00000000
00000000
00011000
00000000
00000000
00110000
00000000
00000000
01100000
00000000
00000000
00000000
,  // measure 29
10000000
10000000
10100000
00110000
,  // measure 30
00010000
00100000
00101000
00000000
00001000
00000000
00001000
00000000
,  // measure 31
00001010
00000000
00000011
00000000
00000001
00001000
00001001
00000000
,  // measure 32
00000001
00000001
00000101
00001100
,  // measure 33
00000100
00010000
00010100
00000000
00010000
00000000
00010000
00000000
,  // measure 34
00102000
00020000
00000000
00033000
,  // measure 35
01000000
10000000
00100000
10000000
00000000
10000000
01000000
00000000
,  // measure 36
00010000
00001000
00100000
00010000
00000000
00010000
00100000
00000000
,  // measure 37
00001000
00000100
00000110
00000000
00000001
00000100
00000110
00000000
,  // measure 38
00001000
00000000
00000100
00010000
00001000
00000000
00010000
00000000
00200000
00000000
00000000
00000000
00300000
00000000
01100000
00000000
,  // measure 39
00000000
00100000
00010000
00001000
00100000
00010000
00001000
00000100
,  // measure 40
00000000
00000100
00000110
00000000
00000020
00000001
00000000
00000031
,  // measure 41
00000100
00000010
00001000
00000000
00000100
00000010
00001000
00020000
,  // measure 42
00000000
00000000
00031000
00010000
00001000
00000000
00000000
00000000
00100000
00000000
00010000
00000000
01000000
00000000
01100000
00000000
,  // measure 43
00000000
01000000
00010000
00001000
00100000
00010000
00001000
00000010
,  // measure 44
00000000
00000010
00000110
00000000
00000200
00001000
00000000
00001300
,  // measure 45
00000010
00010000
00001000
00000100
00001000
00010000
01000000
20000000
,  // measure 46
00000000
00000000
30010000
10000000
00010000
00000000
01000000
00000000
00100000
00000000
00100000
00000000
10000000
00000000
00000000
00000000
,  // measure 47
10000000
01000000
00001000
00000000
00010000
00001000
00000100
00000010
,  // measure 48
00000001
00001000
00000010
00001000
00000001
00000010
00000110
00000000
,  // measure 49
00000001
00000010
00010000
00000000
00001000
00010000
00100000
01000000
,  // measure 50
10000000
00010000
01000000
00010000
10000000
01000000
01100000
00000000
,  // measure 51
00100000
00100000
00001000
00010000
00000000
00010000
00011000
00000000
,  // measure 52
00000100
00000000
00000100
00000000
00010000
00000000
00001000
00000000
00000000
00000000
00001000
00000000
00000100
00000000
00000010
00000100
,  // measure 53
00000010
00010000
00001000
00000010
00000000
00000010
00001000
00010000
,  // measure 54
00001000
00000000
00010000
00001000
00010000
00001000
00010000
00001000
00100000
00000000
00010000
00100000
00000000
00000000
00220000
00000000
,  // measure 55
00000000
00330000
00100000
01000000
11000000
00000000
00000000
00110000
,  // measure 56
00000000
00011000
00000000
00000100
00001100
00000000
00000000
00000000
,  // measure 57
00001001
00000001
00000000
00000001
00000101
00000000
00000000
00001100
,  // measure 58
00000000
00000000
00011000
00000000
00000000
00000000
00001000
00010000
00000200
00000000
00000300
00000000
00000000
00000000
00000000
00000000
,  // measure 59
00001100
00000000
00000100
00000010
00000011
00000000
00000000
00001100
,  // measure 60
00000000
00011000
00000000
00100000
00110000
00000000
00000000
00000000
,  // measure 61
10010000
10000000
00000000
10000000
10100000
00000000
00000000
00110000
,  // measure 62
00000000
00000000
00011000
00000000
00000000
00000000
00001000
00100000
00020000
00000000
00030000
00000000
00000000
00000000
00000000
00000000
,  // measure 63
01000000
00100000
01000000
00100000
10100000
10000000
00000000
11000000
,  // measure 64
00000000
00110000
00000000
00001000
00011000
00000000
00000000
00000000
,  // measure 65
00000100
00001000
00000100
00001000
00001001
00000001
00000000
00000011
,  // measure 66
00000000
00000000
00000101
00000000
00000000
00000000
00000100
00000010
00002000
00000000
00003000
00000000
00000000
00000000
00000000
00000000
,  // measure 67
00000100
00000010
00000100
00000010
00000011
00000001
00000000
00000101
,  // measure 68
00000000
00001010
00000000
00010000
00011000
00000000
00000000
00000000
,  // measure 69
01000000
00010000
01000000
00010000
10010000
10000000
00000000
01010000
,  // measure 70
00000000
00000000
00011000
00000000
00000000
00000000
00001000
00000100
00000002
00000000
00000003
00000000
00000000
00000000
00000000
00000000
,  // measure 71
00000010
00002000
00000000
00013000
00002000
00000000
00003020
00000000
,  // measure 72
00000032
00000000
00000103
00001000
00000100
00000020
00000000
00000000
,  // measure 73
00001030
00020000
00000000
01030000
00020000
00000000
00032000
00000000
,  // measure 74
00003200
00000000
00010300
00001000
00010000
00200000
00000000
01000000
,  // measure 75
01300000
00020000
00000000
00031000
00020000
00000000
02030000
00000000
,  // measure 76
03200000
00000000
10300000
01000000
10000000
00200000
00000000
00000000
,  // measure 77
00310000
00002000
00000000
00003010
00002000
00000000
00023000
00000000
,  // measure 78
00030200
00000000
00001300
00000010
00000001
00000010
00002000
00000002
,  // measure 79
00003003
00000000
00000000
00000000
;

//---------------dance-double - Talkion-CDP----------------
#NOTES:
     dance-double:
     Talkion:
     Challenge:
     16:
     0.847613,0.950128,0.601347,0.220494,0.300674,592,532,60,22,0,0,0.847613,0.950128,0.601347,0.220494,0.300674,592,532,60,22,0,0:
// measure 0
00000000
00000000
00000000
00000000
,  // measure 1
00000000
00000000
00000000
00000000
,  // measure 2
00000000
00000000
00000000
00000000
,  // measure 3
00000000
00000000
00000000
00000000
,  // measure 4
00000000
00000000
00000000
00000000
,  // measure 5
10000000
01000000
00100000
10000000
01000000
00100000
10000000
01000000
,  // measure 6
00010000
00001000
00000100
00000001
00000010
00000100
00001000
00000001
,  // measure 7
00001000
00000010
00000100
00001000
00000010
00000100
00001000
00000001
,  // measure 8
00000010
00001000
00010000
00100000
10000000
00020000
00000000
01000000
,  // measure 9
01030000
00100000
10000000
01000000
00100000
00010000
00001000
00100000
,  // measure 10
00010000
00001000
00000010
00000100
00001000
00000010
00000100
00001000
,  // measure 11
00010000
00000100
00001000
00000001
00000100
00000020
00002000
00000000
,  // measure 12
00000000
00000000
00000000
00000000
00000000
00000000
00000000
00000000
00003030
00000000
00001000
00000010
00001000
00000010
00000100
00000000
,  // measure 13
00000001
00000010
00000001
00000100
00000000
00000100
00000101
00000000
,  // measure 14
00000100
00000000
00001000
00010000
00001000
00000000
00000010
00000000
00001000
00000000
00010000
00000000
00011000
00000000
00000000
00000000
,  // measure 15
00001000
00100000
00010000
00100000
00000000
00100000
00110000
00000000
,  // measure 16
00010000
01000000
10000000
01000000
00100000
00010000
00011000
00000000
,  // measure 17
00010000
00000010
00001000
00000010
00000000
00000010
00001010
00000000
,  // measure 18
00001000
00000000
00000001
00000010
00000001
00000000
00001000
00000000
00000010
00000000
00000100
00000000
00000110
00000000
00000000
00000000
,  // measure 19
00000001
00000100
00000001
00000010
00000000
00000010
00000011
00000000
,  // measure 20
00000010
00001000
00010000
00001000
00000010
00000001
00001001
00000000
,  // measure 21
00001000
00000100
00001000
00000010
00000000
00000010
00000110
00000000
,  // measure 22
00000100
00000000
00000001
00001000
00000001
00000000
00000010
00000000
00001000
00000000
00010000
00000000
00011000
00000000
00000000
00000000
,  // measure 23
00010000
00100000
01000000
00100000
00000000
00100000
10100000
00000000
,  // measure 24
10000000
01000000
00010000
00001000
00100000
00001000
00011000
00000000
,  // measure 25
00010000
00000100
00000010
00002000
00000000
00010000
00013000
00000000
,  // measure 26
00001000
00000000
01000000
00100000
01000000
00000000
00010000
00000000
00100000
00000000
01000000
00000000
01100000
00000000
00000000
00000000
,  // measure 27
10000000
00000000
00100000
01000000
00100000
00000000
00010000
00001000
00010000
00000000
00000100
00001000
00000100
00000000
00000010
00000000
,  // measure 28
00000001
00000000
00000100
00001000
00000100
00000000
00000010
00001000
00000000
00000100
00010000
00000000
00011000
00000000
00000000
00000000
,  // measure 29
00110000
10100000
11000000
01010000
,  // measure 30
00011000
00010000
00011000
00000000
00001100
00000000
00000101
00000000
,  // measure 31
00000011
00000000
00001010
00000000
00011000
00001000
00011000
00000000
,  // measure 32
00110000
00011000
00001010
00011000
,  // measure 33
00110000
00100000
00110000
00000000
10010000
00000000
10000000
00100000
,  // measure 34
00010000
00000010
00000200
00000000
00000000
00000000
00000300
00000000
,  // measure 35
00000001
00000010
00000001
00000100
00000000
00000100
00001100
00000000
,  // measure 36
00001000
00010000
00000100
00010000
00000000
00010000
00011000
00000000
,  // measure 37
00100000
00010000
01000000
00010000
00000000
00010000
00110000
00000000
,  // measure 38
10000000
01000000
00100000
00010000
01000000
00000000
00100000
00000000
00020000
00000000
00000000
00000000
00030000
00000000
00011000
00000000
,  // measure 39
00000000
00000000
00001000
00000000
00000100
00000010
00000100
00000000
00001000
00000000
00010000
00000000
01000000
00000000
01100000
00000000
,  // measure 40
00000000
00000000
00100000
00000000
00010000
01000000
00010000
00000000
00200000
00000000
00001000
00000000
00000000
00000000
00301000
00000000
,  // measure 41
00010000
00000000
00001000
00000000
00000010
00000100
00000010
00000000
00000001
00000010
00000100
00001000
00000001
00000000
00001001
00000000
,  // measure 42
00000000
00000000
00000001
00000100
00000010
00000000
00001000
00000100
00000010
00000000
00001000
00010000
00001000
00010000
00000200
00000000
,  // measure 43
00000000
00000000
00001300
00000000
00010000
00100000
00010000
00000000
00100000
00000000
01000000
00000000
10000000
00000000
10010000
00000000
,  // measure 44
00000000
00000000
00010000
00000000
01000000
10000000
01000000
00000000
00020000
00000000
00100000
00000000
00000000
00000000
00130000
00000000
,  // measure 45
00001000
00000000
00000010
00000000
00000100
00000010
00000100
00000000
00001000
00000010
00000100
00000001
00001000
00000000
00001001
00000000
,  // measure 46
00000000
00000000
00000001
00000100
00001000
00000000
00000100
00001000
00010000
00000000
00001000
00010000
00100000
00000000
01000000
00000000
,  // measure 47
00100000
00000000
10000000
00000000
00100000
10000000
00200000
00000000
00000000
00000000
01000000
00000000
01300000
00000000
00010000
00000000
,  // measure 48
00100000
00000000
00001000
00010000
00001000
00000000
00100000
00000000
00010000
01000000
00100000
01000000
00010000
00000000
00001000
00000000
,  // measure 49
00000100
00000000
00000010
00000000
00000100
00000010
00000200
00000000
00000000
00000000
00000001
00000000
00000301
00000000
00001000
00000000
,  // measure 50
00000010
00000000
00000001
00001000
00000001
00000000
00000100
00000000
00001000
00010000
00000100
00010000
00001000
00000000
00010000
00000000
,  // measure 51
01000000
00000000
00100000
00000000
01000000
00100000
02000000
00000000
00000000
00000000
10000000
00000000
13000000
00000000
00100000
00000000
,  // measure 52
00010000
00000000
00001000
00010000
00001000
00000000
00100000
00000000
00001000
00010000
00000010
00010000
00001000
00000000
00000100
00000000
,  // measure 53
00000001
00000000
00000100
00000001
00000010
00000000
00000100
00000000
00000010
00000000
00000100
00001000
00000010
00000000
00000100
00000000
,  // measure 54
00001000
00000000
00010000
01000000
10000000
00000000
00010000
01000000
00100000
10000000
01000000
00100000
00010000
00000000
20020000
00000000
,  // measure 55
00000000
30030000
10000000
00010000
00001000
00000000
00000100
00000110
,  // measure 56
00000000
00011000
00000000
00000100
00001100
00000000
00000000
00000000
,  // measure 57
00000001
00001000
00000000
00001000
00010000
00000000
00001000
00001100
,  // measure 58
00000000
00000000
00000011
00000000
00000000
00000000
00000010
00000001
00000200
00000000
00000300
00000000
00000000
00000000
00000000
00000000
,  // measure 59
00001001
00000000
00000001
00001000
00010000
00000000
00100000
01100000
,  // measure 60
00000000
00011000
00000000
00100000
00110000
00000000
00000000
00000000
,  // measure 61
10000000
00010000
00000000
00010000
00001000
00000000
00010000
00110000
,  // measure 62
00000000
00000000
00001000
00010000
00001000
00000000
00000100
00000010
00001000
00000100
00000010
00000001
00002000
00000000
00000000
00000000
,  // measure 63
00003001
00000000
00000010
00001000
00100000
00010000
00000000
00110000
,  // measure 64
00000000
11000000
00000000
10000000
10010000
00000000
00000000
00000000
,  // measure 65
10000000
00100000
00000000
00100000
00001000
00010000
00100000
01000000
,  // measure 66
00000000
00000000
01100000
00000000
00000000
00000000
01000000
10000000
00200000
00000000
00300000
00000000
00000000
00000000
00000000
00000000
,  // measure 67
10100000
00000000
00100000
00010000
00000010
00001000
00000000
00001010
,  // measure 68
00000000
00000101
00000000
00000001
00001001
00000000
00000000
00000000
,  // measure 69
00000001
00000010
00001000
00010000
01000000
10000000
00010000
01000000
,  // measure 70
00000000
00000000
01000000
00100000
01000000
00000000
00100000
01000000
00001000
00010000
00001000
01000000
00200000
00000000
00000000
00000000
,  // measure 71
10300000
01000000
00010000
10000000
01000000
00010000
10000000
01000000
,  // measure 72
00100000
00001000
00000010
00000100
00001000
00000001
00000100
00000001
,  // measure 73
00001000
00000010
00000001
00001000
00000010
00000001
00001000
00000100
,  // measure 74
00000010
00000000
00001000
00000000
00100000
00000000
00010000
00000000
01000000
00000000
00200000
00000000
00000000
00000000
01300000
00100000
,  // measure 75
02000000
00000000
03100000
10000000
01000000
00010000
00001000
01000000
,  // measure 76
00010000
00001000
00000100
00000010
00001000
00100000
00001000
00000010
,  // measure 77
00000001
00000100
00001000
00010000
00000100
00001000
00010000
00100000
,  // measure 78
01000000
10000000
00010000
01000000
00100000
00001000
00000020
00000200
,  // measure 79
00000330
00000000
00000000
00000000
;
