#TITLE:シルエット;
#ARTIST:KANA-BOON;
#TITLETRANSLIT:Silhouette;
#BANNER:Silhouette.png;
#BACKGROUND:Silhouette-bg.png;
#MUSIC:Silhouette.ogg;
#OFFSET:0.554607;
#SAMPLESTART:45.347;
#BPMS:0=183;
#BGCHANGES:1.25=Silhouette.avi=1=0=0=0=StretchNoLoop====,99999=-nosongbg-=1=0=0=0 // don't automatically add -songbackground-;

//---------------dance-single - NewbStepper-ESP----------------
#NOTES:
     dance-single:
     NewbStepper:
     Hard:
     12:
     0.629731,0.678551,0.597520,0.090192,0,391,338,53,8,0,0,0.629731,0.678551,0.597520,0.090192,0,391,338,53,8,0,0:
0000
0000
0000
0000
,
0001
1000
0100
0001
0000
0100
1000
0010
,
0100
0001
1000
0100
0010
0000
0000
0000
,
0001
0000
0110
0000
1000
0100
0001
0000
,
0100
0000
0110
0000
0001
0100
1000
0000
,
0100
0000
0110
0000
0001
0000
1000
0100
,
0001
0000
0100
1000
0001
0000
1000
0000
,
0010
0000
0100
0000
0001
0100
0001
0000
,
0010
0100
1000
1001
,
0010
0011
0100
1100
,
1000
0000
1001
0000
0010
0100
0010
0000
,
2100
0000
0001
0000
0010
0010
3010
0000
,
0102
0000
1000
0000
0010
0010
0013
0000
,
0001
0101
1000
1100
,
0010
0001
0100
0000
0010
1000
0100
0000
,
1000
0000
1010
0000
0001
0010
1000
0000
,
0001
0000
0011
0000
1000
0010
0001
0000
,
0100
1010
0100
0011
,
0001
0000
0110
0000
1000
0001
1000
0000
,
0010
1000
0001
0010
0100
1000
0100
0000
,
0010
0001
1000
0010
0100
0001
0100
0000
,
0010
1000
0010
0100
0010
0000
1000
0100
,
0001
0000
0100
0000
0010
0100
0010
0000
,
0001
0000
0011
0000
1000
0010
0001
0000
,
1000
0000
1010
0000
0001
0010
1000
0000
,
0100
0011
0100
1010
,
0001
0000
0110
0000
1000
0001
1000
0000
,
2010
0000
0000
0001
0000
0100
3100
0000
,
0012
0000
0000
1000
0000
0100
0103
0000
,
0210
0000
0000
1000
0000
0001
0301
0000
,
0010
0000
0001
0100
,
0001
0000
1000
0000
,
0010
0010
0100
0000
,
0001
0101
1000
1100
,
0010
0001
0100
0010
1000
0000
0000
0000
,
1100
0000
1010
0000
0100
0001
0010
0000
,
0100
1000
0010
0001
0010
0000
1001
0000
,
0101
0000
0011
0000
0100
1000
0010
0000
,
0100
0001
0010
1000
0010
0000
0001
0000
,
1000
0000
1100
0000
0001
0100
1000
0000
,
0001
0000
0101
0000
1000
0100
0001
0000
,
0010
0101
0010
1100
,
0001
0000
0110
0000
0001
1000
0001
0000
,
0101
0000
0011
0000
0100
1000
0010
0000
,
0100
0001
0010
1000
0010
0000
1001
0000
,
1100
0000
1010
0000
0100
0001
0010
0000
,
0100
1000
0010
0001
0010
0000
1000
0000
,
0001
0000
0101
0000
1000
0100
0001
0000
,
1000
0000
1100
0000
0001
0100
1000
0000
,
0010
1100
0010
0101
,
1000
0000
0110
0000
0001
1000
0001
0000
,
1000
0010
0001
0000
0001
0010
1000
0000
,
1000
0100
0010
0001
1000
0000
1001
0000
,
0001
0010
1000
0000
1000
0010
0001
0000
,
0001
0100
0010
0100
1000
0100
0001
0010
,
0100
0000
1100
0000
0001
0100
1000
0000
,
0100
0000
0101
0000
1000
0100
0001
0000
,
0100
0110
0010
1001
,
1000
0100
0010
0001
0100
0010
1000
0100
,
0020
0000
1000
1000
0000
0000
0001
0000
,
0230
0000
0001
0001
0000
0000
1000
0000
,
0320
0000
0001
0001
0000
0000
1030
0000
,
0110
0000
1000
0001
,
0010
0001
0010
0000
0100
1000
0100
0000
,
0010
0001
0100
0001
0010
1000
0010
0001
,
0100
0100
0010
1000
0001
1000
0100
0001
,
0100
1000
1000
0010
0100
0001
0010
0110
;

//---------------dance-single - NewbStepper-DSP----------------
#NOTES:
     dance-single:
     NewbStepper:
     Medium:
     8:
     0.447737,0.490065,0.360767,0.090192,0,278,246,32,8,0,0,0.447737,0.490065,0.360767,0.090192,0,278,246,32,8,0,0:
0000
0000
0000
0000
,
0000
0001
0000
0001
,
1000
0100
0010
0000
0110
0000
0000
0000
,
1000
0000
0100
0000
1000
0000
0001
0010
,
0001
0000
0100
0000
0001
0000
1000
0010
,
1000
0000
0100
0000
0001
0000
0100
0010
,
0001
0000
0000
0100
0000
0100
0010
0000
,
1000
0000
0000
0100
0000
0100
0010
0000
,
0002
0000
0000
0003
,
1000
0100
0010
0001
,
0100
0010
0100
0010
0100
0000
1001
0000
,
0020
0001
0100
0031
,
1000
0000
0001
0000
0100
0010
0100
0000
,
0020
1000
0100
1030
,
0001
0100
1000
0010
,
0001
0000
1000
0100
,
0011
0000
1000
0100
,
0011
0000
1001
0000
,
0011
0100
1010
0100
,
0020
1000
0100
1030
,
0001
0000
1000
0000
0100
0010
0100
0000
,
0020
0001
0100
0031
,
1000
0100
0001
0010
,
1000
0000
0001
0100
,
1010
0000
0001
0100
,
1010
0000
1001
0000
,
1010
0100
0011
0100
,
1000
0000
0000
0001
0000
0001
0010
0000
,
0001
0000
0000
1000
0000
1000
0010
0000
,
0100
0000
0000
0100
0000
0100
0010
0000
,
0110
0000
0001
1000
,
0010
0000
0100
0000
,
0001
0010
0100
0000
,
0010
0000
0100
0000
,
1000
0100
0010
0000
,
0001
0100
1000
0100
,
0001
0000
0010
0100
0010
0000
0000
0000
,
1000
0010
0001
0010
,
1000
0000
0010
0100
0010
0000
0100
0000
,
1001
0000
0001
0010
,
1100
0000
0001
0010
,
1100
0000
1001
0000
,
1100
0010
0101
0010
,
1000
0100
0001
0100
,
1000
0000
0010
0100
0010
0000
0000
0000
,
0001
0010
1000
0010
,
0001
0000
0010
0100
0010
0000
0100
0000
,
1001
0000
1000
0010
,
0101
0000
1000
0010
,
0101
0000
1001
0000
,
0101
0010
1100
0010
,
0001
0100
0001
0000
0001
1000
0001
0000
,
0010
0000
0100
0010
0100
0000
0000
0000
,
1000
0100
1000
0000
1000
0001
1000
0000
,
0001
0100
1000
0010
,
0001
0000
1100
0010
,
1001
0000
0101
0010
,
1001
0000
0110
0000
,
1000
0100
0001
0100
,
0000
0000
1000
2000
0000
0000
3100
0000
,
0010
0000
0001
0002
0000
0000
0103
0000
,
0010
0000
1000
2000
0000
0000
3100
0000
,
0010
0000
0000
0000
0001
0100
0001
0000
,
0101
0000
1100
0000
,
1000
0010
0001
0010
,
1000
0100
1000
0100
0000
0010
0001
0000
,
0100
0000
0010
0000
1000
0100
0010
0001
;

//---------------dance-single - NewbStepper-BSP----------------
#NOTES:
     dance-single:
     NewbStepper:
     Easy:
     5:
     0.291512,0.301015,0.067644,0.045096,0,181,175,6,4,0,0,0.291512,0.301015,0.067644,0.045096,0,181,175,6,4,0,0:
0000
0000
0000
0000
,
0001
0000
0001
0000
,
1000
0000
1000
0000
,
0001
0000
1000
0100
,
1000
0000
0001
0100
,
0001
0000
1000
0010
,
1000
0000
0001
0010
,
0001
0000
1000
0000
,
0020
0000
0030
0000
,
1000
0000
0100
0000
,
0010
0001
0010
0000
,
0001
0100
0010
1000
,
0000
0100
0000
0100
,
1000
0100
0001
0100
,
1000
0000
0010
0000
,
0100
0000
0001
1000
,
0001
0000
1000
0001
,
1000
0000
0010
0000
,
0010
0100
0010
0000
,
1000
0100
0010
0001
,
0000
0100
0000
0100
,
0001
0100
1000
0100
,
0001
0000
0010
0000
,
0100
0000
1000
0001
,
1000
0000
0001
1000
,
0001
0000
0010
0000
,
0010
0100
0010
0000
,
0002
0000
0000
0003
,
2000
0000
0000
3000
,
0020
0000
0000
0030
,
0100
0000
0000
0000
,
0001
0000
0001
0000
,
0100
0010
0100
0000
,
1000
0000
1000
0000
,
0100
0010
0100
0000
,
0001
0010
0100
1000
,
0100
0010
0001
0000
,
1000
0010
0100
0001
,
0100
0010
1000
0000
,
0001
0000
1000
0000
,
1001
0000
0001
0000
,
1001
0000
0100
0000
,
0100
0010
0100
0000
,
1000
0010
0100
0001
,
0100
0010
1000
0000
,
0001
0010
0100
1000
,
0100
0010
0001
0000
,
1000
0000
0001
0000
,
1001
0000
1000
0000
,
1001
0000
0100
0000
,
0100
0010
0100
0000
,
0001
0100
0010
1000
,
0100
0010
0001
0000
,
1000
0100
0010
0001
,
0100
0010
1000
0000
,
0001
0000
1000
0000
,
1001
0000
0001
0000
,
1001
0000
0010
0000
,
0010
0100
0010
0000
,
0000
1000
1000
0000
,
0000
0001
0001
0000
,
0000
0100
0100
0000
,
0010
0000
1000
0100
,
1000
0000
0001
0000
,
1000
0100
0001
0000
,
0100
0010
0100
1000
,
0001
0100
0010
1000
;

//---------------dance-single - NewbStepper-bSP----------------
#NOTES:
     dance-single:
     NewbStepper:
     Beginner:
     3:
     0.170720,0.225761,0.022548,0.022548,0,106,104,2,2,0,0,0.170720,0.225761,0.022548,0.022548,0,106,104,2,2,0,0:
0000
0000
0000
0000
,
1000
0000
0000
0000
,
1000
0000
0000
0000
,
0001
0000
0000
0000
,
0001
0000
0000
0000
,
0100
0000
0000
0000
,
0100
0000
0000
0000
,
0010
0000
0000
0000
,
2000
0000
3000
0000
,
0001
0000
0000
0000
,
1000
0000
0000
0000
,
0010
0000
0010
0000
,
0010
0000
0000
0000
,
1000
0000
0001
0000
,
1000
0000
0000
0000
,
1001
0000
0010
0000
,
0100
0000
0010
0000
,
0100
0000
0000
0000
,
0001
0001
0001
0000
,
0010
0000
0010
0000
,
0010
0000
0000
0000
,
0001
0000
1000
0000
,
0001
0000
0000
0000
,
1001
0000
0010
0000
,
0100
0000
0010
0000
,
0100
0000
0000
0000
,
1000
1000
1000
0000
,
0001
0000
0000
0000
,
1000
0000
0000
0000
,
0001
0000
0000
0000
,
1000
0000
0000
0000
,
0010
0000
0010
0000
,
0001
0001
0001
0000
,
0010
0000
0010
0000
,
1000
1000
1000
0000
,
0001
0000
1000
0000
,
0100
0000
0000
0000
,
1000
0000
0001
0000
,
0100
0000
0000
0000
,
0010
0000
0100
0000
,
0010
0000
0100
0000
,
0010
0000
0000
0000
,
1000
1000
1000
0000
,
0001
0000
1000
0000
,
0010
0000
0000
0000
,
1000
0000
0001
0000
,
0010
0000
0000
0000
,
0100
0000
0010
0000
,
0100
0000
0010
0000
,
0100
0000
0000
0000
,
0001
0001
0001
0000
,
1000
0000
0001
0000
,
1000
0000
0000
0000
,
0001
0000
1000
0000
,
0001
0000
0000
0000
,
0010
0000
0100
0000
,
0010
0000
0100
0000
,
0010
0000
0000
0000
,
0001
0001
0001
0000
,
1000
0000
0000
0000
,
1000
0000
0000
0000
,
1000
0000
0000
0000
,
0001
0000
0000
0000
,
0100
0000
0100
0000
,
0001
0001
0001
0000
,
2000
0000
0000
0000
,
0000
0000
0000
3000
;

//---------------dance-double - NewbStepper-EDP----------------
#NOTES:
     dance-double:
     NewbStepper:
     Hard:
     12:
     0.581414,0.640854,0.507328,0.101466,0,361,316,45,9,0,0,0.581414,0.640854,0.507328,0.101466,0,361,316,45,9,0,0:
// measure 0
00000000
00000000
00000000
00000000
,  // measure 1
00100000
10000000
01000000
00010000
00000000
00001000
00000100
00000001
,  // measure 2
00000010
00000001
00000100
00001000
00011000
00000000
00000000
00000000
,  // measure 3
00100000
00000000
00100000
10000000
00000000
10000000
01000000
00000000
,  // measure 4
00010000
00000000
00010000
00001000
00000000
00001000
00000010
00000000
,  // measure 5
00000001
00000000
00000001
00000100
00000000
00000100
00001000
00010000
,  // measure 6
01000000
00000000
00000000
10000000
00000000
00000000
00010000
00000000
,  // measure 7
01000000
00000000
00000000
00001000
00000000
00000000
00000010
00000000
,  // measure 8
00000002
00000000
00000000
00000003
,  // measure 9
00001000
00000000
00000100
00000000
00000001
00000100
00001000
00000000
,  // measure 10
00000010
00010000
00001000
00000000
00000010
00001000
00010000
00000000
,  // measure 11
00100000
00000000
10000000
00000000
01000000
00100000
01000000
00000000
,  // measure 12
00010000
00000000
00001000
00000000
00000100
00000010
00000100
00000000
,  // measure 13
00001000
00000100
00000001
00000010
00000100
00000000
00001000
00000010
,  // measure 14
00000100
00002000
00010000
00000010
,  // measure 15
00013000
00000000
00011000
00000000
01000000
00010000
00001000
00000000
,  // measure 16
00010000
00000000
00011000
00000000
00000100
00001000
00010000
00000000
,  // measure 17
00001000
00011000
01000000
00010000
,  // measure 18
10000000
00100000
00010000
00001000
,  // measure 19
00000010
00000000
00000001
00000000
00000100
00000010
00000100
00000000
,  // measure 20
00001000
00000000
00010000
00000000
01000000
00100000
01000000
00000000
,  // measure 21
00010000
01000000
10000000
00100000
01000000
00000000
00010000
00100000
,  // measure 22
01000000
00020000
00001000
00100000
,  // measure 23
00031000
00000000
00011000
00000000
00000100
00001000
00010000
00000000
,  // measure 24
00001000
00000000
00011000
00000000
01000000
00010000
00001000
00000000
,  // measure 25
00010000
00011000
00000100
00001000
,  // measure 26
00000001
00000010
00001000
00010000
,  // measure 27
00011000
00000000
00010000
01000000
00000000
10000000
00100000
00000000
,  // measure 28
00011000
00000000
00001000
00000100
00000000
00000001
00000010
00000000
,  // measure 29
00011000
00000000
00010000
00100000
00000000
00010000
00001000
00000000
,  // measure 30
00100000
00000000
00010000
01000000
,  // measure 31
01010000
00000000
11000000
00000000
,  // measure 32
00010000
00001000
00000010
00000000
,  // measure 33
00001100
00000000
00000101
00000000
,  // measure 34
00000010
00000100
00001000
00010000
00001000
00000000
00000000
00000000
,  // measure 35
00011000
00100000
00011000
00000010
,  // measure 36
00010000
00100000
10000000
01000000
00010000
00000000
00001000
00000000
,  // measure 37
00011000
00000010
00011000
00100000
,  // measure 38
00001000
00000010
00000001
00000100
00001000
00000000
00010000
01000000
,  // measure 39
10000000
00000000
01010000
00000000
00100000
00010000
00001000
00000000
,  // measure 40
00010000
00000000
00011000
00000000
00000010
00001000
00010000
00000000
,  // measure 41
00001000
00011000
01000000
00011000
,  // measure 42
00000200
00000302
00000023
00001030
,  // measure 43
00011000
00000010
00011000
00100000
,  // measure 44
00001000
00000010
00000001
00000100
00001000
00000000
00010000
00000000
,  // measure 45
00011000
00100000
00011000
00000010
,  // measure 46
00010000
00100000
10000000
01000000
00010000
00000000
00001000
00000100
,  // measure 47
00000001
00000000
00001100
00000000
00000010
00001000
00010000
00000000
,  // measure 48
00001000
00000000
00011000
00000000
00100000
00010000
00001000
00000000
,  // measure 49
00010000
00011000
00000100
00011000
,  // measure 50
02000000
23000000
30200000
00310000
,  // measure 51
00011000
01001000
00011000
00010100
,  // measure 52
00000010
00000001
00000100
00001000
00010000
00000000
00000010
00000000
,  // measure 53
00011000
00010100
00011000
01001000
,  // measure 54
00100000
10000000
01000000
00010000
00001000
00000100
00000001
00000010
,  // measure 55
00000100
00000000
00010000
00000000
00001000
00010000
01000000
00000000
,  // measure 56
01100000
00000000
00001000
00000000
00010000
00001000
00000100
00000000
,  // measure 57
00000110
00000000
00010000
00000000
00001000
00100000
00001000
00000000
,  // measure 58
00010000
00000010
00010000
00001000
00100000
00001000
00010000
00000000
,  // measure 59
00011000
00000000
00010000
00100000
00000000
10000000
01000000
00000000
,  // measure 60
00011000
00000000
00001000
00000010
00000000
00000001
00000100
00000000
,  // measure 61
00011000
00000000
00001000
00000010
00000000
00001000
00010000
00000000
,  // measure 62
00000010
00000000
00001000
00000100
,  // measure 63
00001100
00000000
00000101
00000000
,  // measure 64
00001000
00010000
00100000
10000000
,  // measure 65
00010000
01000000
00001000
00010000
00100000
00010000
00001000
00000010
,  // measure 66
00001000
00010000
00000100
00000010
00000001
00000100
00001000
00010000
;

//---------------dance-double - NewbStepper-DDP----------------
#NOTES:
     dance-double:
     NewbStepper:
     Medium:
     8:
     0.405862,0.452368,0.157835,0.067644,0,252,238,14,6,0,0,0.405862,0.452368,0.157835,0.067644,0,252,238,14,6,0,0:
00000000
00000000
00000000
00000000
,
00001000
00000000
00010000
00000000
,
00001000
00000000
00001000
00000100
00000001
00000000
00000000
00000000
,
00000010
00000001
00000010
00000001
,
00000100
00001000
00000100
00001000
,
00010000
00100000
00010000
00100000
,
10000000
00000000
00000000
01000000
00000000
00000000
00010000
00000000
,
00001000
00000000
00000000
00000100
00000000
00000000
00000001
00000000
,
00002000
00000000
00000000
00003000
,
00000001
00000100
00000010
00001000
,
00000100
00000010
00000100
00000000
00010000
00000000
00001000
00000000
,
00200000
00010000
01000000
00310000
,
10000000
00000000
01000000
00000000
00010000
00001000
00010000
00000000
,
00000020
00001000
00000100
00001030
,
00000001
00000100
00001000
00010000
,
00100000
00000000
10000000
01000000
,
00010000
00000000
00001000
00000100
,
00000001
00000000
00000110
00000000
,
00000101
00000010
00001100
00000010
,
00000001
00000100
00000001
00000000
00000100
00000000
00001000
00000000
,
00010000
00001000
00010000
00000000
00100000
00000000
00100000
00000000
,
10000000
00000000
01000000
00100000
01000000
00000000
10000000
01000000
,
00100000
00001000
00010000
00001000
,
00000010
00000000
00000001
00000100
,
00001000
00000000
00010000
01000000
,
10000000
00000000
01100000
00000000
,
11000000
00100000
01010000
00100000
,
10000000
00000000
00100000
01000000
00000000
00100000
00000000
00000000
,
00010000
00000000
00001000
00010000
00000000
00000010
00000000
00000000
,
00001000
00000000
00000001
00000100
00000000
00000010
00000000
00000000
,
00001001
00000000
00000001
00000100
,
00000010
00000000
00001000
00000000
,
00000010
00010000
00001000
00000000
,
00100000
00000000
00010000
00000000
,
00100000
00001000
00010000
00000000
,
00001000
00000100
00000001
00000100
,
00001000
00000000
00010000
00001000
00010000
00000000
00000000
00000000
,
00010000
01000000
10000000
01000000
,
00010000
00000000
00001000
00010000
00001000
00000000
00000010
00000000
,
00000001
00000000
00000001
00000100
,
00001000
00000000
00010000
01000000
,
10000000
00000000
10010000
00000000
,
10000000
00100000
00010000
00001000
,
00010000
01000000
10000000
01000000
,
00010000
00000000
00001000
00010000
00001000
00000000
00000000
00000000
,
00001000
00000100
00000001
00000100
,
00001000
00000000
00010000
00001000
00010000
00000000
00100000
00000000
,
10000000
00000000
10000000
01000000
,
00010000
00000000
00001000
00000100
,
00000001
00000000
00001001
00000000
,
00000001
00000010
00001000
00010000
,
00100000
00010000
00000010
00010000
,
00001000
00000000
00010000
01000000
10000000
00000000
00000000
00000000
,
10000000
00100000
00010000
00000010
,
00010000
00001000
00000010
00000001
,
00000100
00000000
00001000
00010000
,
01100000
00000000
00010000
00001000
,
00000110
00000000
00001001
00000000
,
00000001
00000100
00001000
00010000
,
00000000
00000000
01000000
02000000
00000000
00000000
03010000
00000000
,
00001000
00000000
00000100
00000200
00000000
00000000
00001300
00000000
,
00010000
00000000
00100000
00200000
00000000
00000000
00310000
00000000
,
00001000
00000000
00000010
00000001
,
00000101
00000000
00001100
00000000
,
00010000
00001000
00100000
00010000
,
10000000
01000000
10000000
01000000
00000000
00100000
00010000
00000000
,
01000000
00000000
00001000
00000000
00010000
00000100
00001000
00000010
;

//---------------dance-double - NewbStepper-BDP----------------
#NOTES:
     dance-double:
     NewbStepper:
     Easy:
     5:
     0.289902,0.301015,0.067644,0.045096,0,180,174,6,4,0,0,0.289902,0.301015,0.067644,0.045096,0,180,174,6,4,0,0:
00000000
00000000
00000000
00000000
,
10000000
00000000
10000000
00000000
,
00010000
00000000
00010000
00000000
,
10000000
00000000
00010000
01000000
,
00010000
00000000
00100000
00001000
,
00100000
00000000
00001000
00010000
,
00001000
00000000
00000010
00000000
,
00000001
00000000
00000100
00000000
,
00002000
00000000
00003000
00000000
,
00010000
00000000
00001000
00000000
,
00100000
01000000
00100000
00000000
,
00001000
00010000
00000010
00001000
,
00000000
00000001
00000000
00000001
,
00001000
00000100
00000001
00000100
,
00001000
00000000
00000010
00000000
,
00010000
00000000
00000010
00000100
,
00000010
00000000
00010000
00001000
,
00010000
00000000
00100000
00000000
,
01000000
00001000
00010000
00000000
,
00010000
00001000
00100000
00010000
,
00000000
10000000
00000000
10000000
,
00010000
01000000
10000000
01000000
,
00010000
00000000
00100000
00000000
,
00001000
00000000
00100000
01000000
,
00100000
00000000
00001000
00010000
,
00001000
00000000
00000010
00000000
,
00000100
00010000
00001000
00000000
,
00020000
00000000
00000000
00030000
,
02000000
00000000
00000000
03000000
,
20000000
00000000
00000000
30000000
,
00010000
00000000
00000000
00000000
,
10000000
00000000
10000000
00000000
,
01000000
00100000
01000000
00000000
,
00010000
00000000
00010000
00000000
,
00001000
00010000
00001000
00000000
,
00000010
00000001
00001000
00000010
,
00001000
00000001
00000010
00000000
,
00001000
00010000
00000100
00010000
,
00001000
00100000
00001000
00000000
,
01000000
00000000
00010000
00000000
,
10010000
00000000
10000000
00000000
,
10010000
00000000
00010000
00000000
,
01000000
00100000
01000000
00000000
,
00100000
10000000
00010000
00100000
,
00010000
10000000
00100000
00000000
,
00010000
00001000
01000000
00001000
,
00010000
00000010
00010000
00000000
,
00000100
00000000
00001000
00000000
,
00001001
00000000
00000001
00000000
,
00001001
00000000
00001000
00000000
,
00000010
00000100
00000010
00000000
,
00000100
00000001
00001000
00000100
,
00010000
00001000
00100000
00000000
,
01000000
10000000
00010000
01000000
,
00001000
00010000
00000010
00000000
,
00001000
00000000
00000001
00000000
,
00001001
00000000
00001000
00000000
,
00001001
00000000
00000010
00000000
,
00000010
00000100
00000010
00000000
,
00000000
00001000
00001000
00000000
,
00000000
00010000
00010000
00000000
,
00000000
00100000
00100000
00000000
,
10000000
00000000
00010000
01000000
,
00010000
00000000
10000000
00000000
,
00100000
10000000
00010000
00000000
,
00100000
00001000
00010000
00000100
,
00001000
00000001
00000100
00001000
;
