#VERSION:0.83;
#TITLE:Silent Hill -'19 gift mix-;
#ARTIST:funkyzukin feat. Marten;
#BANNER:Silent Hill -'19 gift mix-.png;
#BACKGROUND:Silent Hill -'19 gift mix--bg.png;
#JACKET:Silent Hill -'19 gift mix--jacket.png;
#MUSIC:Silent Hill -'19 gift mix-.ogg;
#OFFSET:-0.061;
#SAMPLESTART:30.984;
#SAMPLELENGTH:15;
#BPMS:0=130;

//---------------dance-single - Marten-bSP----------------
#NOTEDATA:;
#CHARTNAME:Marten-bSP;
#STEPSTYPE:dance-single;
#DESCRIPTION:Marten-bSP;
#DIFFICULTY:Beginner;
#METER:2;
#RADARVALUES:0.094826,0.147929,0.037931,0.123274,0,70,66,4,13,0,0,0,0,0,0.094826,0.147929,0.037931,0.123274,0,70,66,4,13,0,0,0,0,0;
#CREDIT:Marten;
#NOTES:
0000
0000
0000
0000
,
0000
0000
0000
0000
,
0000
0000
0000
0000
,
0000
0000
0000
0000
,
0000
0000
0000
0000
,
1000
0000
0000
0000
,
0001
0000
0000
0000
,
0100
0000
0100
0000
,
0200
0000
0300
0000
,
0001
0000
0000
0000
,
0001
0000
0000
0000
,
1000
0000
0000
0000
,
1000
0000
0000
0000
,
0100
0000
0100
0000
,
0100
0000
0000
0000
,
0010
0000
0010
0000
,
0010
0000
0000
0000
,
0001
0000
0000
0000
,
1000
0000
0000
0000
,
1001
0000
0000
0000
,
0000
0001
0001
0001
,
0001
0000
0000
0100
,
0100
0000
0010
0000
,
1000
0000
0001
0000
,
1000
0000
0001
0000
,
2002
0000
0000
0000
,
3003
0000
0000
0000
,
2002
0000
0000
0000
,
3003
0000
0000
0000
,
1000
0000
1000
0000
,
0001
0000
0001
0000
,
0100
0000
0100
0000
,
0010
0000
0010
0000
,
2000
0000
0000
3000
,
0002
0000
0000
0003
,
0020
0000
0000
0000
,
0030
0000
0000
0000
,
0200
0000
0300
1000
,
2000
3000
1000
0000
,
0000
0001
0001
0000
,
0001
0000
0100
0000
,
0001
0000
0001
0000
,
1000
0000
1000
0000
,
0020
0000
0000
0030
,
0000
0010
0010
0000
,
1000
0000
0010
0000
,
0100
0000
0001
0000
,
1000
0000
0001
0000
,
0010
0000
0100
0000
,
0000
2002
0000
0000
,
0000
0000
0000
0000
,
0000
0000
0000
0000
,
3003
0000
0000
0000
;

//---------------dance-single - Marten-BSP----------------
#NOTEDATA:;
#CHARTNAME:Marten-BSP;
#STEPSTYPE:dance-single;
#DESCRIPTION:Marten-BSP;
#DIFFICULTY:Easy;
#METER:5;
#RADARVALUES:0.192362,0.271203,0.123274,0.132757,0,142,129,13,14,0,0,0,0,0,0.192362,0.271203,0.123274,0.132757,0,142,129,13,14,0,0,0,0,0;
#CREDIT:Marten;
#NOTES:
0000
0000
0000
0000
,
0000
0000
0000
0000
,
0000
0000
0000
0000
,
0000
0000
0000
0000
,
0000
0000
0000
0000
,
1000
0001
1000
0001
,
0100
0001
0100
0001
,
1000
0000
0010
0000
,
0100
0010
0110
0000
,
0001
0001
0001
0000
,
1000
1000
1000
0100
,
0020
0000
0130
0000
,
1000
0001
1000
0000
,
0010
0100
0100
0001
,
0100
0000
0001
0000
,
0010
0001
0100
0000
,
0010
1000
0100
0000
,
0010
0001
1001
0000
,
0010
1000
1001
0000
,
1001
0010
1001
0000
,
0001
0100
0010
1000
,
0002
0000
1003
0100
,
0200
0000
0310
0000
,
0001
0010
0100
0010
,
0001
0000
1000
0001
,
2002
0000
0000
0000
,
3003
0000
0001
1000
,
2002
0000
0000
0000
,
3003
0000
0000
0000
,
0001
0001
0001
0001
,
1000
1000
1000
1000
,
0010
0010
0100
0100
,
0001
1000
0001
0000
,
0020
0000
0031
0000
,
0200
0000
0310
0000
,
0020
0000
1030
0000
,
1000
0010
0100
0001
,
0200
0000
0300
0001
,
0002
0000
1003
0000
,
1000
0100
0010
0001
,
0010
0000
1001
0000
,
0001
0100
1001
0000
,
1000
0100
1001
0000
,
1001
0100
1001
0000
,
1000
0010
0100
0001
,
1000
0010
0010
0000
,
0001
0010
0010
0000
,
0001
0010
0100
1000
,
0001
1000
0010
0100
,
0000
2002
0000
0000
,
0000
0000
0000
0000
,
0000
0000
0000
0000
,
3003
0000
0000
0000
;

//---------------dance-single - Marten-DSP----------------
#NOTEDATA:;
#CHARTNAME:Marten-DSP;
#STEPSTYPE:dance-single;
#DESCRIPTION:Marten-DSP;
#DIFFICULTY:Medium;
#METER:7;
#RADARVALUES:0.260095,0.320513,0.075861,0.180170,0,192,184,8,19,0,0,0,0,0,0.260095,0.320513,0.075861,0.180170,0,192,184,8,19,0,0,0,0,0;
#CREDIT:Marten;
#NOTES:
0000
0000
0000
0000
,
0000
0000
0000
0000
,
0000
0000
0000
0000
,
0000
0000
0000
0000
,
0000
0000
0000
0000
,
0001
0100
0010
0000
1000
0001
0010
0000
,
0100
0010
0100
0000
1000
0001
1000
0000
,
0010
1000
0100
0010
,
0001
1000
0001
1000
0010
0100
0010
0100
,
0001
0001
1000
1000
,
0100
0000
0100
0000
0010
0001
1000
0000
,
0010
0010
1000
1000
,
0001
0000
0001
0000
0100
0001
1000
0000
,
0010
1000
0001
0000
0010
0001
1000
0000
,
0100
1000
0001
0000
0100
0001
1000
0000
,
0010
0100
0100
0000
0001
1000
1000
0000
,
0001
1000
1001
0000
,
1000
0100
1000
0000
1001
0000
0000
0000
,
0001
0100
0001
0000
1001
0000
0000
0000
,
1000
0010
1000
0000
0001
0010
0001
0000
,
1000
0020
0230
0302
,
2003
0000
3001
0010
,
0200
0000
0000
0010
0320
0000
0030
0000
,
0001
0100
0010
1000
,
0001
0000
1000
0001
1000
0001
0100
0000
,
0220
0000
0000
0000
,
0330
0000
0000
0000
0001
0010
0100
0000
,
0220
0000
0000
0000
,
0330
0000
0000
0000
,
1000
0100
0001
0000
0100
0000
1000
0000
,
0001
0100
1000
0000
0100
0000
0001
0000
,
1000
0010
1000
0000
0001
0010
0001
0000
,
1000
0010
0100
0001
,
2000
0000
3001
0000
,
0002
0000
1003
0000
,
0020
0000
0130
0000
,
0001
0010
0100
1000
,
0200
0000
0300
1000
,
0020
0000
0130
0000
,
0001
1000
0001
1000
,
0010
0000
0000
0200
0000
0310
0100
0000
,
0001
0010
0001
0000
1001
0000
0000
0000
,
1000
0010
1000
0000
1001
0000
0000
0000
,
1000
0100
1000
0000
0001
0100
0001
0000
,
1000
0100
0010
0002
0000
0000
0003
0000
,
1000
0000
0010
0000
0100
0001
0100
0000
,
0001
0000
0010
0000
0100
1000
0100
0000
,
1000
0000
0001
0000
0010
0001
0100
0000
,
0010
1000
0010
0000
0100
0010
0100
0000
,
0000
2002
0000
0000
,
0000
0000
0000
0000
,
0000
0000
0000
0000
,
3003
0000
0000
0000
;

//---------------dance-single - Marten-ESP----------------
#NOTEDATA:;
#CHARTNAME:Marten-ESP;
#STEPSTYPE:dance-single;
#DESCRIPTION:Marten-ESP;
#DIFFICULTY:Hard;
#METER:11;
#RADARVALUES:0.373886,0.517752,0.037931,0.170687,0.090085,276,272,4,18,0,0,0,0,0,0.373886,0.517752,0.037931,0.170687,0.090085,276,272,4,18,0,0,0,0,0;
#CREDIT:Marten;
#NOTES:
// measure 0
0000
0000
0000
0000
,  // measure 1
0000
0000
0000
0000
,  // measure 2
0000
0000
0000
0000
,  // measure 3
0000
0000
0000
0000
,  // measure 4
0000
0000
0000
0000
,  // measure 5
1000
0100
0010
0100
1000
0001
1000
0010
,  // measure 6
0100
0001
1000
0001
0100
0001
0010
0001
,  // measure 7
1000
0010
1000
0000
0001
0100
0001
0000
1000
0100
1000
0000
0001
0010
0001
0000
,  // measure 8
1000
1000
1000
1000
0001
0001
0001
0001
,  // measure 9
0100
0000
0001
0010
0001
0000
1000
0100
,  // measure 10
0001
0000
0100
0000
1000
0010
1000
0010
,  // measure 11
0100
0000
0001
1000
0100
0000
1000
0000
,  // measure 12
0001
0010
0100
1000
0000
0001
0100
0001
,  // measure 13
0010
0000
0000
0001
1000
0000
0100
0000
1000
0000
0000
0010
1000
0000
0001
0000
,  // measure 14
0010
0000
0000
0100
0010
0000
0001
0000
0100
0000
0000
0001
1000
0000
0100
0000
,  // measure 15
1000
0000
0000
1000
0001
0000
0100
0000
0001
0000
0000
0010
0100
0000
1000
0000
,  // measure 16
0001
0000
0000
0100
0010
0000
1000
0000
0001
0000
1000
0000
0100
0000
0000
0000
,  // measure 17
1000
0010
0100
0010
1000
0001
0100
0000
,  // measure 18
0001
0010
0100
0010
0001
1000
0100
0000
,  // measure 19
1000
0010
0001
0010
1000
0100
0001
0100
,  // measure 20
1000
0002
2003
3020
,  // measure 21
0230
0001
0301
0011
,  // measure 22
2001
0000
3100
1000
0002
0000
0103
0000
,  // measure 23
0010
1000
0001
0000
0010
0001
1000
0000
,  // measure 24
0001
0100
0001
0100
0010
1000
0100
1000
,  // measure 25
0002
0010
1000
0100
,  // measure 26
1003
0000
0010
1000
0001
1000
0100
1000
,  // measure 27
0020
0100
0001
1030
,  // measure 28
0010
0000
1000
0000
0001
0000
1000
0002
0000
0000
0000
0000
0003
0000
0000
0000
,  // measure 29
1000
0100
1000
0000
0001
0100
0001
0000
,  // measure 30
1000
0010
0100
0000
0001
0010
0100
0000
,  // measure 31
1000
1000
1000
1000
0001
0001
0001
0001
,  // measure 32
1000
0010
0100
0001
0010
0100
1000
0001
,  // measure 33
2000
0000
3100
0000
,  // measure 34
0020
0000
0031
0000
,  // measure 35
0002
0000
1003
0000
,  // measure 36
0010
1000
0001
1000
,  // measure 37
0200
0000
0300
1000
,  // measure 38
0020
0000
0130
0000
,  // measure 39
0100
0001
1000
0001
,  // measure 40
0010
0000
0000
0002
0000
0013
0100
1000
,  // measure 41
0001
0100
0000
0001
0100
0000
0010
0000
1000
0000
0001
0000
1000
0000
0000
0000
,  // measure 42
0100
1000
0000
0100
1000
0000
0010
0000
1000
0000
0001
0000
0100
0000
0000
0000
,  // measure 43
0001
0010
1000
0010
0001
0100
1000
0100
,  // measure 44
0001
1000
0001
0020
0000
0100
0130
1000
,  // measure 45
0001
0000
0000
0001
0100
0000
0001
0000
0010
0000
0100
0000
1000
0000
0000
0000
,  // measure 46
1000
0010
0100
0010
1000
0000
1001
0000
,  // measure 47
1000
0010
0100
0000
0001
0010
0100
0000
,  // measure 48
1000
0100
1000
0000
0001
0100
0001
0000
1000
0000
0010
0000
0100
0000
0001
0000
,  // measure 49
0000
2002
0000
0000
,  // measure 50
0000
0000
0000
0000
,  // measure 51
0000
0000
0000
0000
,  // measure 52
3003
0000
0000
0000
;

//---------------dance-double - Talkion-BDP----------------
#NOTEDATA:;
#CHARTNAME:Talkion-BDP;
#STEPSTYPE:dance-double;
#DESCRIPTION:Talkion-BDP;
#DIFFICULTY:Easy;
#METER:6;
#RADARVALUES:0.191007,0.271203,0.094826,0.274996,0,141,131,10,29,0,0,0,0,0,0.191007,0.271203,0.094826,0.274996,0,141,131,10,29,0,0,0,0,0;
#CREDIT:Talkion;
#NOTES:
00000000
00000000
00000000
00000000
,
00000000
00000000
00000000
00000000
,
00000000
00000000
00000000
00000000
,
00000000
00000000
00000000
00000000
,
00000000
00000000
00000000
00000000
,
00010000
00001000
00010000
00001000
,
00100000
00010000
00100000
00010000
,
10000000
00100000
00010000
00001000
,
00010000
00001000
00010000
00002000
00020000
00000000
00033000
00000000
,
00000100
00000100
00000010
00000000
,
00000010
00000010
00000001
00000000
,
00000001
00000001
00000100
00000000
,
00000100
00000100
00001000
00000000
,
00001000
00011000
00000000
00110000
,
00000000
10100000
00000000
11000000
,
00000000
01010000
00000000
00011000
,
00000000
00000100
00000010
00000001
,
00000200
00001000
00000010
00000301
,
00002000
00000100
00010000
00003100
,
00020000
00001000
00100000
00031000
,
00000000
00100000
00010000
01000000
,
00200000
00010000
00000000
00310000
,
00002000
00010000
00000000
00013000
,
00000200
00001000
00000000
00001300
,
00000001
00000000
00000000
00000010
00000000
00000010
00001000
00000000
,
00022000
00000000
00000000
00000000
,
00033000
00000000
00000000
00010000
00000000
00010000
00100000
00000000
,
02200000
00000000
00000000
03300000
,
00010000
00100000
00101000
00000000
,
00001000
00010000
00001000
00010000
,
00000100
00001000
00000100
00001000
,
00000001
00000100
00001000
00010000
,
00001000
00010000
00001000
00020000
00002000
00000000
00033000
00000000
,
00200000
00000000
00300000
00000000
,
00020000
00000000
00030000
00000000
,
00002000
00000000
00003000
00000000
,
00000200
00000000
00000300
00000000
,
00000002
00000000
00000003
00000000
,
00000020
00000000
00000030
00000000
,
00000200
00000000
00000300
00000000
,
00020000
00000000
00030000
00000000
,
00002000
00100000
00010000
00003100
,
00000020
00000001
00001000
00010030
,
00002000
00000010
00010000
01003000
,
00000000
00100000
10000000
01000000
,
00020000
00001000
00000000
00031000
,
00000200
00000010
00000000
00000310
,
00001000
00000100
00001000
00000100
,
00010000
00001000
00000100
00000001
,
00000000
00000000
00002001
00000000
00000000
00000020
00000000
00000000
,
00000000
00000000
00000000
00000000
,
00000000
00000000
00000000
00000000
,
00003030
00000000
00000000
00000000
;

//---------------dance-double - Talkion-DDP----------------
#NOTEDATA:;
#CHARTNAME:Talkion-DDP;
#STEPSTYPE:dance-double;
#DESCRIPTION:Talkion-DDP;
#DIFFICULTY:Medium;
#METER:8;
#RADARVALUES:0.270932,0.369822,0.132757,0.218100,0.052154,200,186,14,23,0,0,0,0,0,0.270932,0.369822,0.132757,0.218100,0.052154,200,186,14,23,0,0,0,0,0;
#CREDIT:Talkion;
#NOTES:
00000000
00000000
00000000
00000000
,
00000000
00000000
00000000
00000000
,
00000000
00000000
00000000
00000000
,
00000000
00000000
00000000
00000000
,
00000000
00000000
00000000
00000000
,
00001001
00000000
00000000
00000000
00000001
00000000
00000000
00000100
00000000
00000000
00001000
00000000
00010000
00000000
00000000
00000000
,
00011000
00000000
00000000
00000000
00001000
00000000
00000000
00010000
00000000
00000000
01000000
00000000
10000000
00000000
00000000
00000000
,
00010000
01000000
00010000
01000000
00010000
01000000
00010000
01000000
,
00001000
00001000
00010000
00010000
00002000
00000000
00013000
00000000
,
00000100
00000100
00000010
00000010
,
00000001
00000100
00001000
00010000
,
00100000
00100000
01000000
01000000
,
00010000
10000000
01000000
00010000
,
00001000
00011000
00000100
00001100
,
00000001
00000101
00000010
00001010
,
00010000
00011000
00100000
00110000
,
10000000
10100000
01000000
01010000
,
00001000
00000000
00000000
00000000
00000100
00000000
00000000
00000100
00000000
00000000
00000001
00000000
00000010
00000000
00000000
00000000
,
00000100
00000000
00000000
00000000
00010000
00000000
00000000
00010000
00000000
00000000
00001000
00000000
00010000
00000000
00000000
00000000
,
00100000
00000000
00000000
00000000
10000000
00000000
00000000
10000000
00000000
00000000
01000000
00000000
00100000
00000000
00000000
00000000
,
00002000
00003200
00000302
00000023
,
00001030
00000000
00100000
00000000
00001000
00010000
00100000
00000000
,
00010000
00000000
00000100
00000000
00010000
00001000
00000100
00000000
,
00000001
00000000
00000010
00000000
00000001
00000010
00001000
00000000
,
00020000
00000000
00000000
00130000
00000000
00100000
10000000
01000000
,
00200000
00000000
00000000
00000000
,
00000000
00300000
00000000
00101000
00000000
00001000
00010000
00000100
,
00000020
00000000
00000000
00000030
,
00000001
00000000
00001000
00000000
00000001
00000000
00001000
00000020
00000000
00000000
00000000
00000000
00000030
00000000
00000000
00000000
,
00000110
00000000
00000000
00000000
00000010
00000000
00000000
00001000
00000000
00000000
00010000
00000000
01000000
00000000
00000000
00000000
,
01100000
00000000
00000000
00000000
01000000
00000000
00000000
00010000
00000000
00000000
00001000
00000000
00000010
00000000
00000000
00000000
,
00001000
00000100
00001000
00000100
00001000
00000100
00001000
00000100
,
00010000
00010000
00001000
00001000
00020000
00000000
00031000
00000000
,
00200000
00000000
00300000
00000000
,
00000020
00000000
00000030
00000000
,
00200000
00000000
00000000
00000000
,
00300000
00100000
00010000
00001000
,
00000200
00000000
00000300
00000000
,
02000000
00000000
03000000
00000000
,
00000200
00000000
00000300
00000000
,
02000000
00000000
00000000
00100000
00000000
00000000
03100000
00000000
,
10000000
00000000
00000000
00000000
01000000
00000000
00000000
01000000
00000000
00000000
00010000
00000000
00001000
00000000
00000000
00000000
,
00010000
00000000
00000000
00000000
00100000
00000000
00000000
00100000
00000000
00000000
00010000
00000000
00001000
00000000
00000000
00000000
,
00000010
00000000
00000000
00000000
00000001
00000000
00000000
00000001
00000000
00000000
00000100
00000000
00001000
00000000
00000000
00000000
,
00020000
00230000
20300000
32000000
,
03010000
00000000
00000100
00000000
00001000
00010000
00000100
00000000
,
00001000
00000000
00010000
00000000
01000000
00010000
00001000
00000000
,
01000000
00000000
00010000
00000000
10000000
00100000
10000000
00000000
,
00100000
00010000
00100000
00010000
00001000
00010000
00001000
00010000
,
00000000
00000000
00012000
00000000
00000000
00000200
00000000
00000000
,
00000000
00000000
00000000
00000000
,
00000000
00000000
00000000
00000000
,
00003300
00000000
00000000
00000000
;

//---------------dance-double - Talkion-EDP----------------
#NOTEDATA:;
#CHARTNAME:Talkion-EDP;
#STEPSTYPE:dance-double;
#DESCRIPTION:Talkion-EDP;
#DIFFICULTY:Hard;
#METER:12;
#RADARVALUES:0.399625,0.542406,0.037931,0.663784,0.379305,295,291,4,70,0,0,0,0,0,0.399625,0.542406,0.037931,0.663784,0.379305,295,291,4,70,0,0,0,0,0;
#CREDIT:Talkion;
#NOTES:
00000000
00000000
00000000
00000000
,
00000000
00000000
00000000
00000000
,
00000000
00000000
00000000
00000000
,
00000000
00000000
00000000
00000000
,
00000000
00000000
00000000
00000000
,
10000000
02000000
00000000
00000000
03020000
00000000
00000000
00032000
00000000
00000000
00003010
00000000
00000100
00000010
00000000
00000000
,
00000001
00000200
00000000
00000000
00002300
00000000
00000000
00023000
00000000
00000000
00130000
00000000
01000000
00100000
00000000
00000000
,
10000000
01000000
00010000
01000000
10000000
01000000
00010000
00001000
,
00010000
00001000
00010000
00001000
00010000
00001000
00010000
00000010
00002000
00000000
00000000
00000000
00003002
00000000
00000000
00000000
,
00000013
00000010
00001000
00001000
,
00010000
00010000
00100000
00100000
,
10000000
10000000
00100000
00100000
,
00010000
00000000
00000000
00000000
00010000
00000000
00000000
00000000
00001000
00000000
00000000
00001000
00010000
00000000
00000100
00000000
,
00000010
00000000
00000000
00000010
00001000
00000000
00010000
00000000
00001000
00000000
00000000
00001000
00010000
00000000
00100000
00000000
,
00010000
00000000
00000000
00010000
00001000
00000000
00010000
00000000
01000000
00000000
00000000
01000000
00100000
00000000
00010000
00000000
,
10000000
00000000
00000000
10000000
00100000
00000000
00010000
00000000
00001000
00000000
00000000
00001000
00010000
00000000
01000000
00000000
,
00010000
00000000
00000000
00010000
00001000
00000000
00000100
00000000
00000010
00000000
00000000
00000000
00000110
00000000
00000000
00000000
,
00000001
00000020
00000000
00000000
00002030
00000000
00000000
00003002
00000000
00000000
00000103
00000000
00000010
00000001
00000010
00000000
,
00000100
00020000
00000000
00000000
00032000
00000000
00000000
00203000
00000000
00000000
00310000
00000000
01000000
00100000
01000000
00000000
,
00010000
20000000
00000000
00000000
32000000
00000000
00000000
03020000
00000000
00000000
10030000
00000000
00100000
00010000
00100000
00000000
,
00001000
00020000
00000000
00000000
00230000
00000000
00000000
00320000
00000000
00000000
00031000
00000000
00011000
00000000
00000000
00000000
,
00000100
00001000
00000000
00000100
00002000
00000000
00000000
00003002
00000000
00000000
00000103
00000000
00001000
00000000
00010000
00000000
,
00100000
01000000
00000000
00100000
02000000
00000000
00000000
03020000
00000000
00000000
10030000
00000000
01000000
00000000
00010000
00000000
,
00001000
00010000
00000000
00001000
00020000
00000000
00000000
00030020
00000000
00000000
00001030
00000000
00010000
00000000
00001000
00000000
,
00000100
00000010
00000000
00000100
00000020
00000000
00000000
00000032
00000000
00000000
00000013
00000000
00000100
00000000
00010000
00000000
,
00002000
00100000
00000010
00100000
,
00023000
01000000
00000100
01000000
,
00032000
00000000
00100000
00000000
00010000
00000000
00003100
00000010
,
00000100
00000000
00000001
00000000
00000001
00000000
00001000
00000200
00000000
00000000
00000000
00000000
00000310
00000000
00000000
00000000
,
00000001
00000020
00000000
00000000
00002030
00000000
00000000
00023000
00000000
00000000
00130000
00000000
01000000
00000000
00010000
00000000
,
10000000
02000000
00000000
00000000
03020000
00000000
00000000
00032000
00000000
00000000
00003100
00000000
00000010
00000000
00001000
00000000
,
00000001
00000010
00001000
00000010
00000001
00000010
00001000
00010000
,
00001000
00010000
00001000
00010000
00001000
00010000
00001000
01000000
00020000
00000000
00000000
00000000
20030000
00000000
00000000
00000000
,
32000000
00000000
00000000
03010000
00000000
00000000
00000000
00000000
,
00000200
00000000
00000000
00001300
00000000
00000000
00000000
00000000
,
02000000
00000000
00000000
03010000
00000000
00000000
00000000
00000000
,
00000100
00000200
00000320
00000032
,
00002003
00000000
00000000
00023000
,
00230000
00000000
20300000
00000000
,
31000000
02000000
03020000
00032000
,
00003002
00000000
00000000
00002003
00000000
00013000
00100000
00000000
,
00100000
00010000
00000000
00100000
00010000
00000000
10000000
00200000
00000000
00000000
00310000
00000000
00001000
00100000
00010000
00000000
,
10000000
01000000
00000000
10000000
01000000
00000000
00010000
00002000
00000000
00000000
00103000
00000000
00001000
00010000
00000100
00000000
,
00001000
00000010
00000000
00001000
00000010
00000000
00000100
00002000
00000000
00000000
00013000
00000000
00000100
00010000
00001000
00000000
,
00000100
00000001
00000000
00000100
00000001
00000000
00000010
00000200
00000000
00000000
00010300
00000000
00011000
00000000
00000000
00000000
,
00100000
00010000
00000000
00100000
00020000
00000000
00000000
02030000
00000000
00000000
03100000
00000000
00010000
00000000
00001000
00000000
,
00000010
00000001
00000000
00000010
00000002
00000000
00000000
00000203
00000000
00000000
00001300
00000000
00010000
00000000
00001000
00000000
,
00000010
00000100
00000000
00000010
00000200
00000000
00000000
00020300
00000000
00000000
00031000
00000000
00100000
00000000
00010000
00000000
,
01000000
00100000
00000000
01000000
00010000
00000000
00100000
00001000
00000000
00010000
00001000
00000000
00010000
00001000
00020000
00002000
,
00000000
00033000
00002200
00000000
00003000
00000002
00000000
00000000
,
00000000
00000000
00000000
00000000
,
00000000
00000000
00000000
00000000
,
00000303
00000000
00000000
00000000
;
