#VERSION:0.83;
#TITLE:Shoreline Scramble;
#ARTIST:Renegade Breaks;
#BANNER:Shoreline Scramble.png;
#BACKGROUND:Shoreline Scramble-bg.png;
#JACKET:Shoreline Scramble-jacket.png;
#MUSIC:Shoreline Scramble.ogg;
#OFFSET:1.2;
#SAMPLESTART:62.405;
#SAMPLELENGTH:15;
#BPMS:0=200,18=100,19=200,81=100,98=200,162=100,178=200;
#STOPS:241.75=0.3;
#TIMESIGNATURES:0=4=4,16=3=4,19=4=4,79=3=4,82=4=4,242=3=4,245=4=4;

//---------------dance-single - Marten-bSP----------------
#NOTEDATA:;
#CHARTNAME:Marten-bSP;
#STEPSTYPE:dance-single;
#DESCRIPTION:Marten-bSP;
#DIFFICULTY:Beginner;
#METER:5;
#CREDIT:Marten;
#NOTES:
0000
0000
0000
0000
,
0000
0000
0000
0000
,
0000
0000
0000
0000
,
0000
0000
0000
0000
,
0000
0000
0000
0000
,
0001
0000
0001
0000
,
1000
0000
1000
0000
,
0010
0000
0010
0000
,
0100
0000
0100
0000
,
0001
0000
1000
0000
,
0100
0000
0010
0000
,
0001
0000
1000
0000
,
0010
0000
0100
0100
,
0000
0001
0000
1000
,
1000
1000
0000
0100
,
0000
0010
0000
0001
,
0001
0001
0000
1000
,
0000
0010
0000
0100
,
0100
0100
0000
0001
,
0000
1000
0000
0100
,
0100
0000
0000
0010
0010
0000
0001
0000
,
0000
0001
0000
1000
,
0000
1000
0000
0010
,
0000
0010
0000
0100
,
0000
0000
0100
0100
0001
0000
0001
0000
,
0000
1000
0000
0100
,
0000
0010
0100
0100
,
0000
1000
0000
0001
,
0000
0100
0010
0010
,
0000
0100
0000
0001
,
0000
1000
0001
0001
,
0000
0010
0000
0100
,
0000
1000
1000
0000
,
0001
0000
0100
0100
,
0100
0000
0010
0000
,
0100
0000
0001
0001
,
0001
0000
1000
0000
,
0100
0000
0010
0010
,
0010
0000
0001
0000
,
1000
0000
0010
0010
,
0010
0000
0100
0010
,
0000
0010
1000
0001
,
0000
0010
0001
1000
,
0000
0100
0010
0001
,
1000
1000
0001
0000
,
0100
0000
0010
0000
,
0010
0000
1000
0000
,
0100
0000
0010
0000
,
0010
0000
0001
0000
,
1000
0000
0010
0000
,
0010
0000
1000
0000
,
0001
0000
0010
0000
,
0010
0000
0100
0000
,
0010
0000
0001
0000
,
0001
0000
0100
0000
,
0010
0000
1000
0000
,
1000
0000
0001
0000
,
1000
0000
0100
0000
,
0100
0000
0010
0000
,
0001
0000
0100
0000
,
0100
0000
0110
0000
,
0100
0000
0001
0000
,
1000
0000
0100
0000
,
0010
0000
0100
0000
,
1000
0000
0001
0000
,
0100
0000
1000
0000
,
0100
0000
0001
0000
,
1000
0000
0001
0000
,
0010
0010
0000
0100
,
0100
0100
0000
0000
,
0000
1000
0000
0001
,
0001
0001
0000
0000
,
0000
0100
0000
0010
,
0010
0010
0000
0000
,
0000
0010
0000
1000
,
1000
1000
0000
0001
,
0000
0020
0000
0000
,
0000
0030
0000
0000
;

//---------------dance-single - Marten-BSP----------------
#NOTEDATA:;
#CHARTNAME:Marten-BSP;
#STEPSTYPE:dance-single;
#DESCRIPTION:Marten-BSP;
#DIFFICULTY:Easy;
#METER:9;
#CREDIT:Marten;
#NOTES:
0000
0000
0000
0000
,
0000
0000
0000
0000
,
0000
0000
0000
0000
,
0000
0000
0000
0000
,
0000
0000
0000
0001
,
0100
0001
0001
1000
,
0100
1000
1000
0001
,
0010
0001
0001
1000
,
0010
1000
1000
0010
,
0100
0001
0001
0010
,
0100
1000
1000
0100
,
0010
0001
0001
0100
,
0010
1000
1000
0001
,
0100
0000
0000
0001
0010
0000
0100
0000
,
1000
0000
0000
0001
1000
0000
0010
0000
,
0100
0000
0000
0010
1000
0000
0100
0000
,
0010
0000
0000
0001
0010
0000
0001
0000
,
0100
0000
0000
0001
0100
0000
0010
0000
,
1000
0000
0000
0010
1000
0000
1000
0000
,
0100
0000
1000
0100
0000
0000
0010
0000
,
0001
0000
0000
1001
0002
0000
0103
0000
,
0000
0100
0020
0130
,
0000
0100
2000
3100
,
0000
0100
0020
0130
,
0000
0000
0100
0001
1000
0000
0100
0000
,
1000
1010
0000
0010
,
0100
0100
0001
1000
,
0001
0011
0000
0010
,
0100
0100
0010
0001
,
1000
1001
0000
0001
,
0100
0100
0010
0100
,
0001
1001
0000
1000
,
0100
0100
0010
0001
,
1000
0010
1000
0000
0001
0000
1000
0000
,
0100
0000
1000
0100
,
0010
0001
0010
0000
0001
0000
0100
0000
,
0001
0000
2000
3001
,
0010
0000
0001
2000
0000
0000
3010
0000
,
0100
0100
0002
1003
,
0100
0000
0010
0002
0000
0000
0103
0000
,
0010
0010
0200
0310
,
1000
1000
0001
0000
0010
0001
0010
0000
,
0100
1000
0001
0001
0100
0001
0100
0000
,
0010
1000
0100
0000
0010
0001
1000
0000
,
0010
0100
0010
0010
1000
0000
0001
1000
,
0000
0100
0000
0110
0000
0000
0010
0000
,
0001
0000
0001
0000
1000
0000
0010
0100
,
0000
0010
0000
0110
0000
0000
0010
0000
,
1000
0000
0001
0000
1000
0000
0100
0010
,
0000
0001
0000
1001
0000
0000
0001
0000
,
0100
0000
0100
0000
0001
0000
0100
0010
,
0000
1000
0000
1001
0000
0000
0001
0000
,
1000
0000
1000
0000
0002
0000
0103
0010
,
0000
0100
0000
0002
0000
0000
1003
0000
,
0100
0000
0100
0000
2000
0000
3100
0010
,
0000
0100
0000
2000
0000
0000
3001
0000
,
0100
0000
0100
0000
0020
0000
0130
0010
,
0000
1000
0000
0020
0000
0000
0130
0000
,
0001
0000
0010
0000
0200
0000
0310
0001
,
0000
0010
0000
0200
0000
0000
0310
0000
,
0100
2000
3001
0100
,
0010
2000
0000
0000
3001
0000
0100
0000
,
0110
0200
0301
1000
,
0100
0020
0000
0000
0031
0000
1000
0000
,
1000
0002
0103
0001
,
0010
0200
0000
0000
0310
0000
0001
0000
,
1000
0020
0130
0001
,
1000
0002
0000
0000
1003
0000
0100
0000
,
1001
0000
0001
0000
0100
0001
0000
0010
,
0000
0110
0000
0000
0100
0000
1000
0000
,
0001
0000
1000
0000
0010
0100
0000
0001
,
0000
1001
0000
0000
1000
0000
0001
0000
,
0001
0000
0010
0000
0001
1000
0000
1001
,
0000
0110
0000
0000
0100
0000
0001
0000
,
0100
0000
0010
0000
1000
0100
0000
1001
,
0000
0110
0000
0000
0001
0000
0100
0000
,
0010
0100
0020
0000
0000
0000
0000
0000
,
0000
0030
0000
0000
;

//---------------dance-single - Marten-DSP----------------
#NOTEDATA:;
#CHARTNAME:Marten-DSP;
#STEPSTYPE:dance-single;
#DESCRIPTION:Marten-DSP;
#DIFFICULTY:Medium;
#METER:13;
#CREDIT:Marten;
#NOTES:
0000
0000
0000
0000
,
0000
0000
0000
0000
,
0000
0000
0000
0000
,
0000
0000
0000
0000
,
0000
0000
0000
0000
0000
0000
0001
0100
,
0010
0000
1000
0100
0010
0000
0001
1000
,
0010
0000
1000
0001
0010
0000
0100
1000
,
0001
0000
0100
0001
1000
0000
0010
1000
,
0100
0000
0010
0001
0100
0000
0010
1000
,
0010
0000
0100
0001
0010
0000
0010
0001
,
0010
0000
0100
1000
0010
0000
1000
0001
,
0010
0000
0100
1000
0001
0000
0100
0010
,
0010
0000
0010
0100
0100
0000
0001
0100
,
0010
0100
0001
1000
0000
1001
0000
1000
,
0100
0010
0100
1000
0001
0000
1000
0010
,
0100
0001
0100
0010
0000
0110
0000
0100
,
0001
0010
0001
1000
0100
0000
0010
0001
,
0100
0010
0001
0010
0000
1010
0000
1000
,
0100
0010
0100
1000
0001
0000
1000
0100
,
0010
1000
0010
0001
0000
0101
0000
0100
,
0010
0000
0100
0000
0000
0000
1001
0000
0002
0000
0000
0000
0103
0000
0000
0020
,
0000
0000
0000
0000
1030
0000
0000
0000
2000
0000
0000
0000
3100
0000
0000
0020
,
0000
0000
0000
0000
0031
0000
0000
0000
2000
0000
0000
0000
3010
0000
0000
0200
,
0000
0000
0000
0000
0310
0000
0000
0000
0002
0000
0000
0000
0013
0000
0000
0200
,
0000
0000
0000
0001
0301
0010
0001
0000
,
1000
0000
0100
0010
0000
0010
0100
1000
,
0001
0000
0101
0000
0010
0100
0010
0000
,
1000
0000
0001
0010
0000
0100
0010
0000
,
0011
0000
1100
0000
0001
1000
0010
0000
,
0100
0000
0001
1000
0000
1000
0100
0000
,
0010
0000
1001
0000
1000
0010
1000
0000
,
0001
0100
0010
0100
0000
0001
0010
0000
,
0100
0000
0010
0000
0001
0000
0000
0001
1000
0000
0001
1000
0000
0000
0001
0010
,
0000
0000
0001
1000
0000
0000
0001
0100
0000
0000
0010
0000
0100
0000
0000
0000
,
0001
0000
0000
0000
1001
0000
0000
0000
0010
0000
1000
0001
0000
0000
1000
0010
,
0000
0000
1000
0001
0000
0000
1000
0100
0000
0000
0010
0000
0001
0000
1000
0000
,
0010
0110
0002
0103
,
0010
0100
0001
2000
0000
0100
3100
0000
,
0010
0110
0020
0031
,
1000
0001
1000
0200
0000
0010
0310
0001
,
1000
0000
0010
0000
0100
0000
0100
0000
0002
0000
0000
0000
1003
0000
0100
0010
,
0000
0001
1000
0020
0000
0000
0000
0000
0130
0000
0000
0000
0001
0000
1000
0200
,
0000
0000
0000
0000
0310
0000
0001
0000
1000
0002
0000
0023
0000
0230
0000
2300
,
0000
0000
0000
0000
3001
0000
0100
0020
0000
0000
0000
0000
0130
0000
0001
2000
,
0000
0000
0000
3002
0000
1003
0020
0000
0130
0000
0000
0000
0001
0000
0100
0000
,
1000
0100
0001
1000
0000
0100
0010
0002
,
1000
0000
1003
0000
0001
0000
1000
0100
,
0001
0100
1000
0020
0000
0000
0130
0000
,
0001
0000
1001
0000
1000
0020
0100
0000
,
1030
0001
0010
0100
0000
0010
0001
1000
,
0010
0000
0110
0000
0100
0001
1000
0100
,
0001
0100
1000
0001
0010
0001
0100
0000
,
0010
0000
0100
0000
0001
0000
0000
0001
2000
0000
0000
0000
3100
0000
0010
0000
,
0001
1000
0010
2000
0000
3001
0100
0000
,
0001
0000
1001
0000
0002
0000
0103
0001
,
0010
1000
0010
0002
0000
1003
0010
0000
,
0110
0000
1001
0000
0020
0000
1030
0100
,
1000
0010
0001
0020
0000
0130
0001
0000
,
1000
0000
1001
0000
0200
0000
0301
1000
,
0010
0001
0010
0200
0000
0301
1000
0100
,
0010
0001
1000
0001
2001
0000
3100
0000
,
1010
0200
0000
0301
1000
0100
0010
0000
,
0110
1002
0013
0100
,
1100
0020
0000
0031
0010
0100
1000
0000
,
1001
0210
0301
1000
,
0011
0200
0000
1300
0001
0100
0010
0000
,
1001
0120
1030
0001
,
0101
0020
0000
0130
1000
0001
0100
1000
,
0100
0001
1000
0000
1000
0100
0000
0011
,
0000
1100
0000
0001
0100
0000
0010
0000
,
0100
0000
0001
0000
1000
0010
0000
1010
,
0000
0101
0000
0001
1000
0100
1000
0001
,
0010
0000
0001
0100
0010
0001
0000
0011
,
0000
1010
0000
1000
0001
0010
0100
0000
,
0110
0000
1000
0100
0010
1000
0000
1010
,
0000
0011
0000
0001
1000
0010
0001
0010
,
1000
0001
0020
0000
0000
0000
0000
0000
,
0000
0030
0000
0000
;

//---------------dance-single - Marten-ESP----------------
#NOTEDATA:;
#CHARTNAME:Marten-ESP;
#STEPSTYPE:dance-single;
#DESCRIPTION:Marten-ESP;
#DIFFICULTY:Hard;
#METER:16;
#CREDIT:Marten;
#NOTES:
0000
0000
0000
0000
,
0000
0000
0000
0000
,
0000
0000
0000
0000
,
0000
0000
0000
0000
,
0000
0000
0000
0000
0000
0000
1000
0001
,
0010
0000
0100
1000
0010
0000
0100
0001
,
1000
0000
0100
0010
0001
0000
1000
0010
,
0100
0000
1000
0100
0001
0000
0010
0001
,
0100
0000
0010
0001
1000
0000
0001
0010
,
0100
0000
0001
0010
0100
0000
0001
0100
,
1000
0000
0001
0010
1000
0000
0010
0001
,
0100
0000
0010
1000
0100
0000
1000
0010
,
0001
0000
1000
0100
0001
0000
1000
0100
,
0010
0000
0001
0010
0001
0100
0010
0000
1000
0000
0001
0000
0000
0000
0010
0000
,
0100
0000
1000
0001
1000
0000
0100
0000
0010
0000
0000
0000
0001
0000
1000
0000
,
0010
0000
0100
0010
1000
0010
0100
0000
0001
0000
1000
0000
0000
0000
0100
0000
,
0010
0000
0001
1000
0001
0000
0010
0000
0100
0000
0000
0000
1000
0000
0010
0000
,
0001
0000
0010
1000
0010
0100
0001
0000
0010
0000
0001
0000
0000
0000
0010
0000
,
1000
0000
0010
0001
0010
0000
0100
0000
1000
0000
0000
0000
0001
0000
0100
0000
,
1000
0000
0100
0010
0100
0001
1000
0000
0100
0000
0010
0000
0000
0000
0001
0000
,
0010
0000
0100
0010
0000
0000
1001
0000
0200
0000
0000
0000
1300
0000
0000
0020
,
0000
0000
0000
0000
0130
0000
0000
0000
0002
0000
0000
0000
1003
0000
0100
0020
,
0000
0000
0000
0000
0130
0000
0000
0000
2000
0000
0000
0000
3100
0000
0000
0020
,
0000
0000
0000
0000
0130
0000
0000
0000
0002
0000
0000
0000
0103
0000
0000
2000
,
0000
0000
0000
0000
0000
0000
0000
0000
0000
0000
0000
0000
3001
0000
0000
0001
0100
0000
0000
0000
0010
0000
0000
0000
0110
0000
0000
0000
0000
0000
0010
0000
,
0100
0000
0001
0000
1001
0000
0100
0000
0000
0000
0010
0000
1000
0000
0001
0010
,
0001
0000
1000
0000
0100
0000
0000
0000
0010
0000
0001
0000
1001
0000
0000
1000
,
0010
0000
0100
0000
0110
0000
1000
0000
0000
0000
0001
0100
0001
0000
0010
0000
,
0100
0000
0010
0000
0001
0000
1000
0000
0100
0000
0010
0000
1010
0000
0000
0010
,
0001
0000
0100
0000
0101
0000
0010
0000
0000
0000
0001
0000
0010
0000
1000
0100
,
1000
0000
0001
0000
0010
0000
0100
0000
1000
0000
0010
0000
0011
0000
0000
0010
,
1000
0000
0100
0000
1100
0000
0010
0000
0000
0000
0001
0000
1000
0000
0010
1000
,
0010
0000
0100
0000
0001
0000
1000
0001
0100
0000
0010
1000
0000
0000
0001
1000
,
0000
0000
0100
1000
0000
0000
0010
0100
0000
0000
0001
0000
1000
0000
0010
0000
,
0001
0000
0010
0000
0100
0000
0001
0000
1000
0000
0001
0010
0000
0000
0001
1000
,
0000
0000
0001
0100
0000
0000
0010
0100
0000
0000
0001
0000
0010
0000
0100
0000
,
1000
0000
0001
0000
1001
0000
0000
0000
1000
0000
0010
1000
0000
0000
0010
0100
,
0000
0000
0010
0001
0000
0000
0010
0100
0000
0000
1000
0000
0100
0000
0001
0010
,
0001
1000
0100
0000
0010
0001
1000
0010
,
0001
0010
0100
1000
0100
0001
1000
0100
,
0010
0000
0001
0000
0010
0000
0010
0001
1000
0000
0000
0000
1010
0000
0100
0001
,
0000
1000
0001
0000
0010
0000
0010
0000
0100
1000
0100
0000
0010
0000
0001
2000
,
0000
3000
0010
0000
0100
0000
0100
0000
0001
0200
0000
0320
0000
2030
0000
3200
,
0000
0300
0000
0000
1000
0000
0001
0020
0000
0030
0100
0000
1000
0000
0001
2000
,
0000
3010
0100
0020
0000
1030
0002
0000
0013
0000
0001
0000
0100
0000
0010
1000
,
0100
1000
0010
0000
0100
0000
0002
0000
0000
0000
1003
0000
0100
0000
0020
0000
,
0001
0000
0031
0000
0001
0010
0100
1000
,
0001
0100
1000
0200
0000
0000
0301
0000
,
1000
0000
0000
0000
1001
0000
0000
0000
0010
0000
1000
0000
0100
0000
0010
0001
,
0100
0001
0010
0000
0100
0000
1000
0000
0000
0000
0010
0000
1000
0000
0001
0000
,
0101
0000
0000
0000
1010
0000
0000
0000
1000
0000
0100
0000
0010
0000
0001
0100
,
0010
0100
0001
0000
1000
0000
0100
0000
0000
0000
0010
0000
0001
0000
1000
0000
,
0010
0000
0001
0000
0010
0000
1000
0001
0100
0000
0010
0000
0110
0000
0100
0001
,
1000
0100
0011
0100
0000
1000
1010
0000
,
0100
0000
0000
0000
1001
0000
0000
0000
0001
0000
0100
0000
0110
0000
0010
1000
,
0001
1000
1010
0100
0000
0001
0011
0000
,
0100
0000
0000
0000
1001
0000
0000
0000
1000
0000
0100
0000
1100
0000
1000
0001
,
0100
0010
0110
0001
0000
1000
1010
0000
,
0100
0000
0000
0000
1001
0000
0000
0000
0001
0000
0100
0000
0101
0000
0001
1000
,
0100
0010
0110
1000
0000
0001
0101
0010
,
1000
0000
0001
0000
0010
0000
0001
1000
1001
0000
0000
0000
0001
0000
0100
0000
,
0110
2000
0000
3001
0011
0000
0100
1000
,
1001
0000
0000
0000
0002
0000
1000
0000
0103
0000
0010
1000
0001
1000
0100
0000
,
0110
0002
0000
1003
1010
0010
1000
0001
,
0011
0000
0000
0000
0200
0000
0000
0000
0301
0000
0100
0001
1000
0000
0100
0000
,
0110
0200
0000
1300
1001
0000
0100
0000
,
1001
0000
0000
0000
0020
0000
1000
0000
0130
0000
0010
1000
0001
0010
0100
0000
,
0110
0020
0000
0031
0011
0001
1000
0010
,
0100
0001
0010
0100
1000
0000
0001
0000
0100
0000
1000
0000
0000
0000
1100
0000
,
0000
0000
0101
0000
0000
0000
0001
0000
1000
0000
0100
0010
0001
0000
1000
0000
,
1001
0000
0001
1000
0010
0001
0000
0011
,
0000
0000
1010
0000
0000
0000
1000
0000
0001
0000
0010
0100
1000
0000
0001
0000
,
1001
0000
1000
0100
0010
1000
0000
1010
,
0000
0000
0011
0000
0000
0000
0001
0000
1000
0000
0001
0100
0010
0100
0001
0000
,
1000
0000
0001
0100
0010
0001
0000
0011
,
0000
0000
1010
0000
0000
0000
1000
0000
0001
0000
1000
0100
0010
0100
1000
0000
,
0001
0000
0001
0100
0020
0000
0000
0000
0000
0000
0000
0000
0000
0000
0000
0000
,
0000
0030
0000
0000
;

//---------------dance-single - NewbStepper-CSP----------------
#NOTEDATA:;
#CHARTNAME:NewbStepper-CSP;
#STEPSTYPE:dance-single;
#DESCRIPTION:NewbStepper-CSP;
#DIFFICULTY:Challenge;
#METER:18;
#CREDIT:NewbStepper;
#NOTES:
0000
0000
0000
0000
,
0000
0000
0000
0000
,
0000
0000
0000
0000
,
0000
0000
0000
0000
,
0000
0000
0000
0000
0000
0000
0001
1000
,
1100
0000
0010
0000
0001
0100
0000
1000
,
0100
0000
0001
0100
0001
0000
0010
0000
0110
0000
0000
0000
0001
0000
1000
0000
,
1100
0000
0010
0001
0100
0010
0110
1000
,
0001
0010
1100
0100
1001
0000
1000
0001
,
0101
0000
0010
0000
1000
0100
0000
0001
,
0100
0000
1000
0100
1000
0000
0010
0000
0110
0000
0000
0000
1000
0000
0001
0000
,
0101
0000
0010
1000
0100
0010
0110
0001
,
1000
0010
0101
0100
1001
0000
0010
1000
,
0001
0100
0001
0100
0010
0000
1000
0100
0010
0000
0001
0100
1000
0000
0100
0001
,
0010
0000
0100
1000
0010
0000
0010
0000
0110
0000
0000
0000
1000
0000
0100
0000
,
0001
0100
0010
0001
0010
0000
0001
0100
1000
0000
0100
0010
0100
0000
0001
0000
,
1001
0000
0100
1000
1001
0000
0010
0001
,
1000
0100
1000
0100
0010
0000
0001
0100
0010
0000
1000
0100
0001
0000
0100
1000
,
0010
0000
0100
0001
0010
0000
0010
0000
0110
0000
0000
0000
0001
0100
0001
0100
,
0010
1000
0010
1000
0001
0100
0010
1000
0100
0010
0001
1000
0010
0100
0001
0010
,
0100
1000
0100
0010
0002
0000
0103
0000
2010
0000
0000
0000
0000
3000
0001
0020
,
0000
0000
0000
0000
0130
0000
0000
0000
0012
0000
0000
0000
0003
0000
1000
0020
,
0000
0000
0000
0000
0030
0000
0000
0000
2100
0000
0000
0000
3000
0000
0001
0200
,
0000
0000
0000
0000
0300
0000
0000
0000
0020
0000
0000
0000
0000
0000
0000
0200
,
0000
0000
0000
0000
0000
0000
0330
0000
0000
0000
0000
0000
1001
0000
0000
1000
0001
0000
0000
0000
1000
0000
0000
0000
0010
0000
0000
0000
0100
0000
0010
0000
,
0100
1000
0100
0000
0110
0000
0010
0000
1010
0000
1100
0000
0010
0000
0001
0100
,
0010
1000
0010
0100
0010
0000
0000
0000
1000
0001
0100
0000
0101
0000
0001
0100
,
0010
0100
1000
0000
1100
0000
0100
0010
0001
0000
0010
0000
0100
0000
0010
1000
,
0001
0010
0100
1000
0010
0000
0000
0000
1000
0000
0001
0000
0010
0000
0100
0010
,
0100
0001
0100
0000
0110
0000
0010
0000
0011
0000
0101
0000
0010
0000
1000
0100
,
0010
0001
0010
0100
0010
0000
0000
0000
0001
1000
0100
0000
1100
0000
1000
0100
,
0010
0100
0001
0000
0101
0000
0100
0010
1000
0000
0010
0000
0100
0000
0010
0001
,
1000
0010
0100
0001
1000
0000
0001
0100
1000
0000
0100
0000
0001
0000
1000
0100
,
0010
0001
1000
0000
0001
0000
0200
0000
0000
0000
1300
0000
0100
0000
0100
0000
,
0001
0010
0110
0000
1000
0001
0100
1000
,
0001
0000
0010
0000
1000
0100
1000
0100
0010
0000
0001
0000
0010
0000
1000
0000
,
0010
0000
0010
0000
0001
0000
1000
0100
0001
0000
0100
0000
1000
0000
0001
0100
,
0010
1000
0001
0000
1000
0000
0200
0000
0000
0000
0301
0000
0100
0000
0100
0000
,
1000
0010
0110
0000
0001
1000
0100
0001
,
1000
0000
0010
0000
0001
0100
0001
0100
0010
0000
1000
0000
0010
0000
0001
0000
,
0010
0000
0010
0000
1000
0000
0000
0001
1000
0100
1000
0100
0010
0001
0010
0002
,
0000
0103
1000
0100
0000
0001
0101
0000
0001
0100
0001
0100
0010
1000
0010
2000
,
0000
3100
0001
0100
0000
1000
1010
0000
1000
0010
1000
0010
0100
0001
0100
0002
,
0000
0013
1000
0010
0000
0001
0011
0000
0001
0010
0001
0010
0100
1000
0100
2000
,
0000
3010
0001
0010
0000
1000
1100
0000
0010
0000
0001
0000
1000
0100
1000
0100
,
0010
0000
0001
0100
0010
0000
1000
0100
0001
0000
0100
1000
0010
0000
0100
0001
,
0010
0000
0010
0000
0110
0000
0000
0000
0001
0000
0100
0000
1000
0100
0010
1000
,
0010
0000
1000
0100
0001
0000
0100
0010
0100
0000
1000
0000
1001
0000
0000
0000
,
0100
0000
0001
0000
1001
0000
0000
0000
0010
0000
1000
0000
0001
0100
0001
0100
,
0010
0000
1000
0100
0010
0000
0001
0100
1000
0000
0100
0001
0010
0000
0100
1000
,
0010
0010
0110
0000
1000
0100
1100
0010
,
0101
0010
0110
0200
0000
0010
0010
0310
,
0000
0000
1000
0000
0001
0000
1000
0001
1000
0000
0001
0000
0010
0000
0100
0010
,
0100
0001
0100
0000
0110
0000
0010
0000
0011
0000
0101
0000
0010
0000
1000
0100
,
0010
0001
0010
0100
0010
0000
0000
0000
0001
1000
0100
0000
1100
0000
1000
0100
,
0010
0100
0001
0000
0101
0000
0100
0010
1000
0000
0010
0000
0100
0000
0010
0001
,
1000
0010
0100
0001
0010
0000
0000
0000
0001
0000
1000
0000
0010
0000
0100
0010
,
0100
1000
0100
0000
0110
0000
0010
0000
1010
0000
1100
0000
0010
0000
0001
0100
,
0010
1000
0010
0100
0010
0000
0000
0000
1000
0001
0100
0000
0101
0000
0001
0100
,
0010
0100
1000
0000
1100
0000
0100
0010
0001
0000
0010
0000
0100
0000
0010
1000
,
0001
0010
0100
1000
0001
0000
1000
0200
1300
0000
0000
0000
0010
1000
0001
0000
,
1000
0200
0000
0301
0100
0100
1000
0010
,
0110
0000
0001
1000
0100
0001
1000
0010
,
0001
0100
0001
0100
0010
0000
1000
0000
0010
0000
0001
0000
0010
0000
0010
0000
,
1000
0000
0001
0100
1000
0000
0100
0000
0001
0000
1000
0100
0010
0001
1000
0000
,
0001
0200
0000
1300
0100
0100
0001
0010
,
0110
0000
1000
0001
0100
1000
0001
0010
,
1000
0100
1000
0100
0010
0000
0001
0000
0010
0000
1000
0000
0010
0000
0010
0000
,
0001
0000
1000
0001
1000
0000
0001
0000
0101
0000
0000
0000
0010
0000
0000
0000
,
1000
0000
0100
0000
0000
0000
0001
0000
0100
0000
1000
0100
1000
0000
0010
0000
,
0110
0000
1000
0001
0101
0000
0010
1000
,
0100
0010
0110
0001
1000
0010
0101
0100
,
1001
0000
0001
1000
1100
0000
0010
0000
,
0001
0000
0100
0000
0000
0000
1000
0000
0100
0000
0001
0100
0001
0000
0010
0000
,
0110
0000
0001
1000
1100
0010
0110
0100
,
0101
0100
1100
1000
1001
0001
0101
0100
,
0110
2002
0000
0000
,
0000
3003
0000
0000
;

//---------------dance-double - NewbStepper-BDP----------------
#NOTEDATA:;
#CHARTNAME:NewbStepper-BDP;
#STEPSTYPE:dance-double;
#DESCRIPTION:NewbStepper-BDP;
#DIFFICULTY:Easy;
#METER:10;
#CREDIT:NewbStepper;
#NOTES:
00000000
00000000
00000000
00000000
,
00000000
00000000
00000000
00000000
,
00000000
00000000
00000000
00000000
,
00000000
00000000
00000000
00000000
,
00000000
00000000
00000000
00010000
,
01000000
00010000
00010000
00001000
,
00000100
00001000
00001000
00010000
,
00100000
00010000
00010000
00001000
,
00000010
00001000
00001000
00000010
,
00000001
00000100
00000100
00001000
,
00010000
01000000
01000000
10000000
,
00100000
01000000
00010000
00010000
,
00001000
00000010
00000100
00000100
,
00000001
00000000
00000000
00001000
00000010
00000000
00000100
00000000
,
00001000
00000000
00000000
00010000
00001000
00000000
00100000
00000000
,
01000000
00000000
00000000
10000000
00100000
00000000
01000000
00000000
,
00010000
00000000
00000000
00100000
01000000
00000000
00010000
00000000
,
00001000
00000000
00000000
00000010
00000100
00000000
00001000
00000000
,
00010000
00000000
00000000
00100000
01000000
00000000
01000000
00000000
,
00010000
00000000
00001000
00010000
00000000
00000000
00000010
00000000
,
00001000
00000000
00000000
00001001
00000002
00000000
00000103
00000000
,
00000000
00000100
00000020
00000130
,
00000000
00000100
00002000
00003100
,
00000000
00001000
00020000
00031000
,
00000000
00000000
00010000
01000000
10000000
00000000
00100000
00000000
,
10000000
10100000
00000000
01000000
,
00010000
00010000
00001000
00000010
,
00000001
00000011
00000000
00000010
,
00001000
00001000
00010000
00100000
,
10000000
10010000
00000000
00100000
,
00010000
00010000
00001000
00000010
,
00000001
00001001
00000000
00000100
,
00000010
00000010
00001000
00010000
,
00100000
01000000
00100000
00000000
00010000
00000000
00001000
00000000
,
01000000
00000000
00010000
01000000
,
00100000
10000000
00100000
00000000
10000000
00000000
01000000
00000000
,
00010000
00000000
00002000
00013000
,
00000010
00000000
00010000
00002000
00000000
00000000
00003010
00000000
,
00000100
00000100
00020000
00031000
,
00000100
00000000
00000001
00000020
00000000
00000000
00000130
00000000
,
00001000
00001000
00000200
00010300
,
00001000
00001000
00100000
00000000
01000000
10000000
01000000
00000000
,
00100000
00010000
01000000
01000000
00001000
00010000
00001000
00000000
,
00000010
00000001
00000100
00000000
00000010
00001000
00000001
00000000
,
00000010
00000100
00001000
00001000
00010000
00000000
00100000
10000000
,
00000000
01000000
00000000
01100000
00000000
00000000
00010000
00000000
,
00001000
00001000
00000100
00000001
,
00000010
00000100
00000000
00000110
00000000
00000000
00001000
00000000
,
00010000
00000000
00001000
00000000
01000000
00000000
00100000
10000000
,
00000000
01000000
00000000
11000000
00000000
00000000
00010000
00000000
,
00001000
00000000
00010000
00000000
00000100
00000000
00000010
00000001
,
00000000
00000100
00000000
00000101
00000000
00000000
00001000
00000000
,
00010000
00000000
00010000
00000000
00200000
00000000
10300000
01000000
,
00000000
00010000
00000000
00002000
00000000
00000000
00013000
00000000
,
00001000
00000000
00001000
00000000
00000020
00000000
00000031
00000100
,
00000000
00001000
00000000
00020000
00000000
00000000
00130000
00000000
,
10000000
00000000
10000000
00000000
02000000
00000000
03100000
01000000
,
00000000
00010000
00000000
00002000
00000000
00000000
00003010
00000000
,
00000001
00000000
00000001
00000000
00000200
00000000
00000310
00000100
,
00000000
00001000
00000000
00020000
00000000
00000000
00030010
00000000
,
00001000
00000200
00010300
00001000
,
00000010
00002000
00000000
00000000
00103000
00000000
00010000
00000000
,
10010000
02000000
03001000
00010000
,
00100000
00020000
00000000
00000000
00030010
00000000
00001000
00000000
,
00001001
00000010
00000001
00000100
,
00000010
00002000
00000000
00000000
00013000
00000000
01000000
00000000
,
00100000
00100000
10000000
01000000
,
00100000
00020000
00000000
00000000
00031000
00000000
00000100
00000000
,
00001001
00000000
00000001
00000000
00000100
00000001
00000000
00000010
,
00000000
00000110
00000000
00000000
00001000
00000000
00010000
00000000
,
00100000
00000000
10000000
00000000
01000000
10000000
00000000
00100000
,
00000000
01100000
00000000
00000000
00010000
00000000
00001000
00000000
,
00000100
00000000
00000001
00000000
00000010
00000001
00000000
00000100
,
00000000
00000110
00000000
00000000
00001000
00000000
00010000
00000000
,
01000000
00000000
10000000
00000000
00100000
10000000
00000000
01000000
,
00000000
01100000
00000000
00000000
00010000
00000000
00001000
00000000
,
00000010
00000100
00000020
00000000
00000000
00000000
00000000
00000000
,
00000000
00000030
00000000
00000000
;

//---------------dance-double - NewbStepper-DDP----------------
#NOTEDATA:;
#CHARTNAME:NewbStepper-DDP;
#STEPSTYPE:dance-double;
#DESCRIPTION:NewbStepper-DDP;
#DIFFICULTY:Medium;
#METER:13;
#CREDIT:NewbStepper;
#NOTES:
00000000
00000000
00000000
00000000
,
00000000
00000000
00000000
00000000
,
00000000
00000000
00000000
00000000
,
00000000
00000000
00000000
00000000
,
00000000
00000000
00000000
00000000
00000000
00000000
00000001
00000100
,
00000010
00000000
00001000
00000100
00000010
00000000
00000100
00010000
,
00001000
00000000
00100000
00010000
10000000
00000000
01000000
00100000
,
00010000
00000000
01000000
00100000
10000000
00000000
00100000
00010000
,
00001000
00000000
00010000
00000010
00000100
00000000
00001000
00010000
,
01000000
00000000
00100000
00010000
01000000
00000000
00100000
10000000
,
00100000
00000000
01000000
00010000
00100000
00000000
01000000
00010000
,
00001000
00000000
00000010
00000100
00000010
00000000
00000001
00001000
,
00000001
00000000
00000010
00000100
00000100
00000000
00001000
00000001
,
00000100
00000001
00001000
00000100
00000000
00000110
00000000
00001000
,
00100000
00010000
00100000
00001000
00010000
00000000
00100000
10000000
,
01000000
00100000
00010000
00100000
00000000
01100000
00000000
00001000
,
00010000
01000000
00100000
00010000
10000000
00000000
00010000
10000000
,
01000000
10000000
00010000
01000000
00000000
01100000
00000000
00010000
,
00000010
00001000
00000010
00010000
00001000
00000000
00000010
00000001
,
00000100
00000010
00001000
00000010
00000000
00000110
00000000
00010000
,
00001000
00000000
00010000
00000000
00000000
00000000
00011000
00000000
00200000
00000000
00000000
00000000
01300000
00000000
00000000
20000000
,
00000000
00000000
00000000
00000000
31000000
00000000
00000000
00000000
00020000
00000000
00000000
00000000
00031000
00000000
00000000
00000020
,
00000000
00000000
00000000
00000000
00001030
00000000
00000000
00000000
00000020
00000000
00000000
00000000
00000130
00000000
00000000
00000002
,
00000000
00000000
00000000
00000000
00000103
00000000
00000000
00000000
00002000
00000000
00000000
00000000
00013000
00000000
00000000
02000000
,
00000000
00000000
00000000
03100000
10000000
00100000
10000000
00000000
,
00010000
00000000
01000000
00100000
00000000
00100000
00010000
00001000
,
00000010
00000000
00000110
00000000
00000001
00001000
00000001
00000000
,
00001000
00000000
00000100
00000010
00000000
00000010
00001000
00010000
,
00001000
00000100
00000001
00000000
00000010
00000000
00001001
00000000
,
00001000
00000000
00000100
00000010
00000000
00000010
00001000
00010000
,
00100000
00000000
01100000
00000000
10000000
00010000
10000000
00000000
,
00010000
00000000
01000000
00100000
00000000
00100000
00010000
00001000
,
00010000
01000000
10000000
00000000
00100000
10000000
01000000
00010000
,
00001000
00000100
00000001
00000000
00000010
00000001
00000100
00001000
,
00010000
01000000
10000000
00000000
00010000
00100000
00001000
00010000
,
00001000
00100000
01000000
00010000
00001000
00000100
00010000
00001000
,
00010000
00000100
00000010
00000000
00000120
00000000
00001030
00000000
,
00100000
00010000
00001000
00000000
01200000
00000000
00310000
00000000
,
00000010
00001000
00010000
00000000
00100000
00000000
10000000
00000000
,
01000000
00010000
00001000
00020000
00000000
00130000
01000000
00000000
,
00010000
00000000
00001000
00000000
00000100
00000000
00000000
00000000
00000002
00000000
00000000
00000000
00001003
00000000
00000100
00000010
,
00000000
00000010
00000100
00020000
00000000
00000000
00000000
00000000
00130000
00000000
00000000
00000000
10000000
00000000
00010000
02000000
,
00000000
00000000
00000000
03000000
00100000
01000000
00100000
00000000
20000000
00000000
00000000
00000000
30010000
00000000
01000000
00100000
,
00000000
00100000
01000000
00002000
00000000
00000000
00000000
00000000
00003010
00000000
00000000
00000000
00000001
00000000
00001000
00000200
,
00000000
00000000
00000000
00010300
00001000
00100000
00010000
01000000
,
00001000
00100000
00010000
00000000
10000000
00100000
00010000
00002000
,
00000000
00000010
00003010
00000000
00000001
00000100
00001000
00000100
,
00000001
00000010
00001000
00000000
00010000
00000000
00100000
00000000
,
10000000
01000000
01100000
00000000
00010000
00000010
00001000
00000100
,
00010000
00000010
00001000
00000000
00000001
00000010
00001000
00020000
,
00000000
00100000
00130000
00000000
10000000
01000000
00010000
01000000
,
10000000
00100000
00010000
00000000
00001000
00000000
00000010
00000000
,
00000001
00000100
00000110
00000000
00000001
00001000
00000100
00010000
,
00001000
00000010
00001000
00010000
00000000
00000100
00001000
00000100
,
00000000
00010000
00001000
00000000
01000000
00000000
00100000
00000000
,
00010000
00000000
00001000
00200000
00000000
00000000
01300000
00000000
,
01100000
00000000
10010000
00000000
10000000
00010000
01000000
00001000
,
00010000
00100000
00010000
00001000
00000000
01000000
00010000
01000000
,
00000000
00001000
00010000
00000000
00000100
00000000
00000010
00000000
,
00001000
00000000
00010000
00000020
00000000
00000000
00000030
00000000
,
00000100
00000010
00000100
00000000
00002001
00000000
00003001
00000100
,
00000010
00001000
00000000
00000100
00000010
00001000
00010000
00100000
,
01000000
00000000
00100000
10000000
01000000
00000000
01100000
00000000
,
00101000
00020000
00000000
00000000
00130000
00000000
01000000
00100000
,
01000000
00000000
10020000
00000000
01030000
00000000
10000000
01000000
,
00100000
00010000
00000000
01000000
00100000
00010000
00001000
00000010
,
00000100
00000000
00000010
00000001
00000100
00000000
00000110
00000000
,
00010010
00002000
00000000
00000000
00003010
00000000
00000100
00000010
,
00000100
00000000
00000000
00000001
00001000
00000000
00000000
00000000
00000110
00000000
00000000
00000000
00010000
00000000
00001000
00000000
,
00000010
00000000
00001000
00000000
00100000
00000000
00001000
00010000
,
00100000
00000000
10000000
00000000
00010000
00100000
00000000
11000000
,
00000000
01100000
00000000
00010000
00001000
00010000
01000000
00100000
,
00001000
00000000
00010000
00000000
01100000
00000000
00001000
00010000
,
00100000
00000000
00010000
00000000
00000010
00000000
00010000
00001000
,
00000010
00000000
00000001
00000000
00001000
00000010
00000000
00000101
,
00000000
00000110
00000000
00001000
00010000
00001000
00000100
00000010
,
00010000
00001000
00200000
00000000
00000000
00000000
00000000
00000000
,
00000000
00300000
00000000
00000000
;

//---------------dance-double - NewbStepper-EDP----------------
#NOTEDATA:;
#CHARTNAME:NewbStepper-EDP;
#STEPSTYPE:dance-double;
#DESCRIPTION:NewbStepper-EDP;
#DIFFICULTY:Hard;
#METER:16;
#CREDIT:NewbStepper;
#NOTES:
00000000
00000000
00000000
00000000
,
00000000
00000000
00000000
00000000
,
00000000
00000000
00000000
00000000
,
00000000
00000000
00000000
00000000
,
00000000
00000000
00000000
00000000
00000000
00000000
00010000
00000100
,
00001000
00000000
00000001
00000100
00001000
00000000
00010000
00000010
,
00001000
00000000
00000100
00010000
00001000
00000000
01000000
00010000
,
00100000
00000000
00001000
00010000
00100000
10000000
00000000
00100000
,
01000000
00000000
01100000
00000000
00110000
00000000
00001000
01000000
,
00010000
00000000
10000000
01000000
00010000
00000000
00001000
00100000
,
00010000
00000000
01000000
00001000
00010000
00000000
00000100
00001000
,
00000010
00000000
00010000
00001000
00000010
00000001
00000000
00000010
,
00000100
00000000
00000110
00000000
00001010
00000000
00010000
00001000
,
00100000
00000000
00010000
01000000
00010000
00000000
00100000
00000000
10000000
00000000
00100000
00000000
00010000
00000000
01000000
00000000
,
00100000
00000000
00010000
00001000
00010000
00000000
00000010
00000000
00000100
00000000
00000000
00000000
00001000
00000000
00010000
00000000
,
00001000
00000000
00000010
00000000
00001000
00000000
00010000
00000000
00001000
00000000
00000100
00000000
00000001
00001000
00000001
00000000
,
00000100
00000000
00000000
00000000
00000010
00001000
00000010
00000000
00000100
00000000
00000000
00000000
00001000
00000000
00010000
00000000
,
00000010
00000000
00001000
00000100
00001000
00000000
00000010
00000000
00000001
00000000
00000010
00000000
00001000
00000000
00000100
00000000
,
00000010
00000000
00001000
00010000
00001000
00000000
00100000
00000000
01000000
00000000
00000000
00000000
10000000
00000000
01000000
00000000
,
00010000
00000000
00001000
00010000
00001000
00000000
00000010
00000000
00000100
00000000
00000010
00000000
00000000
00000000
00000001
00000000
,
00001000
00000000
00000100
00000000
00000000
00000000
00001001
00000000
00000200
00000000
00000000
00000000
00001300
00000000
00000000
00020000
,
00000000
00000000
00000000
00000000
00031000
00000000
00000000
00000000
00200000
00000000
00000000
00000000
00310000
00000000
10000000
02000000
,
00000000
00000000
00000000
00000000
03100000
00000000
00000000
00000000
02000000
00000000
00000000
00000000
03010000
00000000
00000000
00002000
,
00000000
00000000
00000000
00000000
00013000
00000000
00000000
00000000
00000020
00000000
00000000
00000000
00001030
00000000
00000000
00000002
,
00000000
00000000
00000000
00000000
00000000
00000000
00000000
00000000
00000000
00000000
00000000
00000000
00001003
00000000
00000000
00001000
00000100
00000000
00000000
00000000
00000010
00000000
00000000
00000000
00000110
00000000
00000000
00000000
00000000
00000000
00001000
00000000
,
00010000
00000000
00100000
00000000
10100000
00000000
00000000
00000000
01000000
00000000
00010000
00000000
10000000
00000000
01000000
00100000
,
01000000
00000000
00010000
00000000
00001000
00000000
00000000
00000000
01000000
00000000
00100000
00000000
01100000
00000000
00000000
00010000
,
00001000
00000000
00000010
00000000
00000011
00000000
00000000
00000000
00000100
00000000
00001000
00000000
00000001
00000000
00000100
00000010
,
00000100
00001000
00010000
00000000
00100000
00010000
00001000
00000010
,
00001000
00010000
00001000
00000000
00011000
00000000
00000000
00000000
01000000
00000000
10000000
00000000
00100000
00000000
00010000
00000000
,
00001000
00100000
00001000
00010000
00001000
00000000
00000000
00000000
00000010
00000000
00001000
00000000
00010000
00000000
00100000
00000000
,
00010000
00001000
00010000
00000000
00011000
00000000
00000000
00000000
00000100
00000000
00000001
00000000
00000010
00000000
00001000
00010000
,
00001000
00010000
00001000
00000000
00100000
00000000
00010000
01000000
00010000
00000000
10000000
00000000
01000000
00000000
00010000
00000000
,
00001000
00010000
00100000
00010000
10000000
01000000
00010000
00100000
,
00001000
00010000
00001000
00000000
00000010
00000000
00000000
00000000
00000110
00000000
00000001
00000000
00000100
00000000
00001000
00000000
,
00010000
00001000
00000010
00001000
00000001
00000100
00001000
00000010
,
00010000
00001000
00010000
00000000
00100000
00000000
00000000
00000000
10000000
00000000
01000000
00000000
00010000
00000000
00000100
00000000
,
00000001
00000100
00001000
00000010
00010000
00001000
00000010
00000100
,
00010000
00001000
00000100
00000000
00000001
00000100
00001000
01000000
,
10000000
01000000
00010000
00100000
00001000
00010000
00100000
01000000
,
00001000
00000000
00010000
00000000
01000000
00000000
10000000
00010000
10000000
00000000
00000000
00000000
10100000
00000000
01000000
00010000
,
00000000
00100000
01000000
00000000
00010000
00000000
00010000
00000000
00001000
00000010
00001000
00000000
00010000
00000000
00000100
00000020
,
00000000
00000000
00000130
00000000
00001000
00000000
00001000
00000000
00000001
00000200
00000000
00002300
00000000
00023000
00000000
02030000
,
00000000
00000000
03000000
00000000
10000000
00000000
00010000
00100000
00020000
00000000
01030000
00000000
00001000
00000000
00010000
00002000
,
00000000
00003010
00000100
00000020
00000000
00000031
00002000
00000000
00003010
00000000
00000100
00000000
00001000
00000000
00010000
00000100
,
00001000
00000100
00010000
00000000
00100000
00000000
20000000
00000000
00000000
00000000
30010000
00000000
01000000
00000000
00100000
00000000
,
00000000
00010000
00001000
00000000
00100000
01000000
00010000
00001000
,
00000010
00001000
00010000
00000200
00000000
00000300
00000001
00000000
,
00000100
00000000
00001000
00000000
00001010
00000000
00000000
00000000
00000001
00000000
00000100
00000000
00001000
00000000
00010000
00001000
,
00100000
00001000
00010000
00000000
00100000
00000000
10000000
00000000
00000000
00000000
00010000
00000000
10000000
00000000
00100000
00000000
,
00010000
00000000
00000000
00000000
00011000
00000000
00000000
00000000
01000000
00000000
00100000
00000000
01000000
00000000
00001000
00010000
,
00001000
00010000
00001000
00000000
00100000
00000000
01000000
00000000
00000000
00000000
00010000
00000000
00001000
00000000
00000010
00000000
,
00000001
00000000
00000100
00000000
00000010
00000000
00001000
00000001
00001000
00000000
00000001
00000000
00000100
00000000
00001000
00010000
,
00001000
00000100
00000010
00001000
00000100
00000010
00001000
00010000
,
00000000
00000000
00100000
00000000
01100000
00000000
00000000
00000000
00010000
00000000
10000000
00000000
01000000
00000000
00010000
00001000
,
00010000
01000000
00100000
00010000
01000000
00100000
00010000
00001000
,
00000000
00000010
00000110
00000000
00000001
00000100
00001000
00000001
,
00000010
00000000
00001000
00000000
00000100
00000000
00010000
00001000
00100000
00000000
00010000
00000000
01000000
00000000
10000000
00000000
,
01000000
00100000
01000000
00000000
00100000
00000000
00000000
00000000
10000000
00000000
01000000
00000000
00010000
00000000
10000000
00000000
,
00100000
00000000
00010000
00000000
01000000
00000000
00001000
00010000
00000010
00000000
00001000
00000000
00000100
00000000
00000001
00000000
,
00000100
00000010
00000100
00000000
00000010
00000000
00001000
00010000
00011000
00000000
00000000
00000000
00010000
00000000
01000000
00000000
,
01100000
20000000
00000000
30010000
00110000
00000000
01000000
00010000
,
00011000
00000000
00000010
00000001
00000100
00001000
00010000
00000100
,
00000010
00000000
00000100
00000000
00010000
00000000
01000000
00000000
10000000
00000000
00000000
00000000
00100000
01000000
00100000
00000000
,
10000000
00000000
00010000
00100000
01000000
00010000
00001000
00000100
,
00000110
00000002
00000000
00001003
00001010
00000000
00000100
00001000
,
00011000
00000000
00100000
10000000
01000000
00010000
00001000
01000000
,
00100000
00000000
01000000
00000000
00001000
00000000
00000100
00000000
00000001
00000000
00000000
00000000
00000010
00000100
00000010
00000000
,
00000001
00000000
00001000
00000100
00001000
00000000
00000000
00000000
00001100
00000000
00000000
00000000
00000010
00000000
00000001
00000000
,
00000100
00001000
00000000
00000000
00011000
00000000
00100000
10000000
,
10010000
00000000
00010000
00000000
01010000
00000000
00100000
10000000
,
01000000
00010000
00000000
00000000
00011000
00000000
00000010
00000001
,
00001001
00000000
00000100
00000010
00001000
00010000
00000000
00011000
,
00000000
00000000
01100000
00000000
00000000
00000000
00100000
00000000
10000000
00000000
00000000
00000000
00010000
01000000
00100000
01000000
,
00010000
00000000
10000000
01000000
00010000
00001000
00100000
00010000
,
01000000
00100000
00010000
00001000
00000010
00001000
00010000
00001000
,
00000100
00000000
00000001
00001000
00000002
00000000
00000000
00000000
00000000
00000000
00000000
00000000
00000000
00000000
00000000
00000000
,
00000000
00000003
00000000
00000000
;

//---------------dance-double - NewbStepper-CDP----------------
#NOTEDATA:;
#CHARTNAME:NewbStepper-CDP;
#STEPSTYPE:dance-double;
#DESCRIPTION:NewbStepper-CDP;
#DIFFICULTY:Challenge;
#METER:18;
#CREDIT:NewbStepper;
#NOTES:
00000000
00000000
00000000
00000000
,
00000000
00000000
00000000
00000000
,
00000000
00000000
00000000
00000000
,
00000000
00000000
00000000
00000000
,
00000000
00000000
00000000
00000000
00000000
00000000
10000000
00010000
,
01010000
00000000
00100000
00000000
10000000
01000000
00000000
00010000
,
00001000
00000000
00000100
00000010
00000100
00000000
00001000
00000000
00011000
00000000
00000000
00000000
00100000
00000000
01000000
00000000
,
00010000
00001000
00000010
00000100
00010000
00001000
00000100
00000010
,
00000110
00000000
00001000
00000001
00001001
00000000
00000001
00001000
,
00001100
00000000
00000010
00000000
00000001
00000100
00000000
00001000
,
00010000
00000000
01000000
00100000
01000000
00000000
00010000
00000000
00011000
00000000
00000000
00000000
00000010
00000000
00000100
00000000
,
00010000
00001000
00000010
00000001
00000100
00001000
00000000
00010000
,
01000000
10000000
11000000
00100000
10010000
00000000
00100000
10000000
,
00010000
00000000
10000000
01000000
00100000
00000000
00010000
00001000
00000100
00000000
00000010
00000001
00001000
00000001
00000100
00001000
,
00010000
00000000
01000000
00010000
00001000
00000000
00001000
00000000
00011000
00000000
00000000
00000000
00010000
00000000
00001000
00000000
,
00000010
00000001
00001000
00000010
00000100
00000000
00000001
00000100
00001000
00000000
00010000
01000000
10000000
00000000
00100000
00000000
,
01100000
00000000
00010000
00001000
00011000
00000000
00000010
00000001
,
00001000
00000000
00000001
00000100
00000010
00000000
00001000
00010000
01000000
00000000
00100000
10000000
00010000
10000000
01000000
00010000
,
00001000
00000000
00000100
00001000
00010000
00000000
00010000
00000000
00011000
00000000
00000000
00000000
00001000
00000000
00010000
00000000
,
01000000
00000000
00100000
00000000
00001000
00000000
00000010
00000000
00000100
00000000
00010000
00001000
00010000
00000000
00100000
00000000
,
10000000
00000000
00000000
00000000
00020000
00000000
01030000
00000000
20100000
00000000
00000000
00000000
00000000
30000000
00010000
00200000
,
00000000
00000000
00000000
00000000
01300000
00000000
00000000
00000000
00102000
00000000
00000000
00000000
00003000
00000000
00010000
00000200
,
00000000
00000000
00000000
00000000
00000300
00000000
00000000
00000000
00000012
00000000
00000000
00000000
00000000
00000003
00001000
00000020
,
00000000
00000000
00000000
00000000
00000130
00000000
00000000
00000000
00020010
00000000
00000000
00000000
00000000
00000000
00000000
00002000
,
00000000
00000000
00000000
00000000
00000000
00000000
00033000
00000000
00000000
00000000
00000000
00000000
00011000
00000000
00000000
00001000
00100000
00000000
00000000
00000000
10000000
00000000
00000000
00000000
00100000
00000000
00000000
00000000
00001000
00000000
00010000
00000000
,
00001000
00010000
00000100
00000000
00000010
00000000
00000001
00000000
00000100
00000000
00010000
00000000
00000100
00000000
00000001
00000100
,
00000010
00001000
00000100
00010000
00001000
00000000
00000000
00000000
00100000
00010000
10000000
00000000
01000000
00000000
00010000
00001000
,
00010000
00001000
00100000
00000000
01100000
00000000
01000000
00010000
00001000
00000000
00000010
00000000
00000001
00000000
00000100
00000010
,
00001000
00000100
00000010
00000001
00000100
00000000
00000000
00000000
00000010
00000000
00000001
00000000
00000010
00000000
00010000
00001000
,
00010000
00001000
01000000
00000000
00100000
00000000
10000000
00000000
01000000
00000000
00001000
00000000
01000000
00000000
10000000
01000000
,
00100000
00010000
01000000
00001000
00010000
00000000
00000000
00000000
00000010
00001000
00000001
00000000
00000100
00000000
00001000
00010000
,
00001000
00010000
00000010
00000000
00000110
00000000
00000100
00001000
00010000
00000000
00100000
00000000
10000000
00000000
01000000
00100000
,
00010000
01000000
00100000
10000000
01000000
00000000
00010000
00001000
00000010
00000000
00000100
00000000
00010000
00000000
00000010
00000000
,
00000001
00000010
00001000
00000200
00000000
00000301
00000100
00000100
,
00001000
00000010
00000110
00000000
00001000
00000001
00000100
00001000
,
01000000
00000000
10000000
00000000
01000000
00000000
00010000
00000000
00100000
00001000
00100000
00001000
00010000
00000000
00000010
00000100
,
00001000
00010000
00110000
00000000
00100000
01000000
00001000
00100000
,
10000000
00100000
00010000
02000000
00000000
13000000
01000000
01000000
,
00010000
00100000
01100000
00000000
00010000
10000000
01000000
00010000
,
00000100
00000000
00000001
00000000
00000100
00000000
00001000
00000000
00000010
00010000
00000010
00010000
00001000
00000000
00100000
01000000
,
00010000
00000000
00001000
00000000
00001010
00000000
00000000
00000010
00000001
00000100
00001000
00000000
00010000
01000000
10000000
00200000
,
00300000
10000000
00010000
10000000
00000000
00010000
00110000
00000000
10000000
01000000
00010000
00000000
00001000
00000100
00000001
00000020
,
00000030
00000001
00001000
00000001
00000000
00001000
00001010
00000000
00000001
00000010
00001000
00000000
00010000
00100000
10000000
02000000
,
03000000
10000000
00010000
10000000
00000000
00010000
01010000
00000000
10000000
00100000
00010000
00000000
00001000
00000010
00000001
00000200
,
00000300
00000001
00001000
00000001
00000000
00001000
00001100
00000000
00000010
00000000
00000001
00000000
00001000
00000000
00000001
00000100
,
00000010
00000000
00001000
00010000
01000000
00000000
00100000
10000000
00010000
10000000
01000000
00010000
00001000
00000000
00000100
00001000
,
00010000
00000000
00010000
00000000
00011000
00000000
00000000
00000000
00001000
00000000
00010000
00000000
00100000
10000000
00010000
00100000
,
01000000
00000000
10000000
01000000
00010000
00000000
00001000
00000100
00000001
00000000
00000010
00000000
00000110
00000000
00000000
00000000
,
00001000
00000000
00010000
00000000
00011000
00000000
00000000
00000000
00100000
00000000
10000000
00000000
00010000
00000000
10000000
01000000
,
00100000
00000000
00010000
00001000
00000100
00000000
00000010
00000001
00001000
00000001
00000100
00001000
00010000
00000000
01000000
00010000
,
00001000
00001000
00011000
00000000
00010000
00001000
00000100
00000010
,
00010000
00000000
00100000
00000000
01000000
00000000
00001000
00010000
00001000
00000000
00000010
00000000
00000110
00000000
00000100
00000000
,
00001100
00000000
00001000
00000000
00001001
00000000
00000001
00001000
00000010
00000000
00000001
00000000
00000010
00000000
00010000
00001000
,
00010000
00001000
01000000
00000000
00100000
00000000
10000000
00000000
01000000
00000000
00001000
00000000
01000000
00000000
10000000
01000000
,
00100000
00010000
01000000
00001000
00010000
00000000
00000000
00000000
00000010
00001000
00000001
00000000
00000100
00000000
00001000
00010000
,
00001000
00010000
00000010
00000000
00000110
00000000
00000100
00001000
00010000
00000000
00100000
00000000
10000000
00000000
01000000
00100000
,
00010000
01000000
00100000
10000000
01000000
00000000
00000000
00000000
00100000
00000000
10000000
00000000
00100000
00000000
00001000
00010000
,
00001000
00010000
00000100
00000000
00000010
00000000
00000001
00000000
00000100
00000000
00010000
00000000
00000100
00000000
00000001
00000100
,
00000010
00001000
00000100
00010000
00001000
00000000
00000000
00000000
00100000
00000000
10000000
00000000
00100000
00000000
00010000
00000000
,
01000000
00010000
00001000
00000100
00000010
00000001
00000100
00001000
,
00010000
00000000
01000000
00000000
10000000
00000000
00100000
02000000
03001000
00000000
00100000
00000000
10000000
00000000
00100000
00000000
,
00010000
02000000
00000000
13000000
01000000
01000000
00010000
00100000
,
01100000
00000000
00010000
10000000
01000000
00010000
00000100
00000001
,
00000100
00000000
00001000
00000000
00000010
00010000
00000010
00010000
00001000
00000000
00100000
01000000
00010000
00000000
00001000
00000000
,
00001010
00000000
00000010
00000100
00010000
00000010
00000001
00000010
,
00001000
00000200
00000000
00000301
00000100
00000100
00001000
00000010
,
00000110
00000000
00001000
00000001
00000100
00001000
01000000
10000000
,
01000000
00000000
00010000
00000000
00100000
00001000
00100000
00001000
00010000
00000000
00000010
00000100
00001000
00000000
00010000
00000000
,
00000010
00000100
00000001
00001000
00001100
00000000
00000010
00000000
,
00000001
00000000
00000100
00000000
00000000
00000000
00001000
00000000
00010000
00000000
01000000
00100000
01000000
00000000
00010000
00000000
,
00011000
00000000
00000010
00000100
00001000
00010000
00100000
01000000
,
00001000
00010000
01000000
00100000
01100000
00000000
00010000
10000000
,
10010000
00000000
10000000
00010000
01010000
00000000
00100000
00000000
,
10000000
00000000
01000000
00000000
00000000
00000000
00010000
00000000
00001000
00000000
00000100
00000010
00000100
00000000
00001000
00000000
,
00011000
00000000
00100000
01000000
00001000
00010000
00100000
10000000
,
01000000
00010000
00011000
00001000
00010100
00000010
00000110
00001000
,
00001100
00002002
00000000
00000000
,
00000000
00003003
00000000
00000000
;
