#TITLE:Shining Atmos -XX Edit-;
#ARTIST:Mark Halflite;
#BANNER:Shining Atmos -XX Edit-.png;
#BACKGROUND:Shining Atmos -XX Edit--bg.png;
#MUSIC:Shining Atmos -XX Edit-.ogg;
#OFFSET:1.077;
#SAMPLESTART:52.136;
#SAMPLELENGTH:15;
#DISPLAYBPM:111:221;
#BPMS:0=221,132=110.5,160=55.25,162=221,290=110.5;

//---------------dance-single - NewbStepper-ESP----------------
#NOTES:
     dance-single:
     NewbStepper:
     Hard:
     13:
     0.526688,0.636918,0.358568,0.275821,0.050567,401,362,39,30,0,0,0.526688,0.636918,0.358568,0.275821,0.050567,401,362,39,30,0,0:
// measure 0
0000
0000
0000
0000
,  // measure 1
0000
0000
0000
0000
,  // measure 2
0000
0000
0000
0000
,  // measure 3
0000
0000
0000
0000
,  // measure 4
0000
0000
0000
0000
,  // measure 5
0000
0000
0000
0000
,  // measure 6
0000
0000
0000
0000
,  // measure 7
0000
0000
0000
0000
,  // measure 8
0000
0000
0000
0000
,  // measure 9
1100
0000
0010
0001
0100
0000
0010
0000
,  // measure 10
1000
0000
0001
0100
0000
0100
1000
0000
,  // measure 11
0110
0000
1001
0000
1000
0100
0001
0000
,  // measure 12
0100
0000
0010
0001
1000
0010
0100
0000
,  // measure 13
0101
0000
0010
1000
0100
0000
0010
0000
,  // measure 14
0001
0000
1000
0100
0000
0100
0001
0000
,  // measure 15
0110
0000
1001
0000
0001
0100
1000
0000
,  // measure 16
0100
0000
0010
1000
0001
0010
0100
0000
,  // measure 17
0021
0100
0001
0130
,  // measure 18
2000
0000
0001
0001
0000
0100
3100
0000
,  // measure 19
0010
0001
0100
0000
0010
1000
0100
0000
,  // measure 20
0010
0001
1000
0010
0000
0010
0100
0000
,  // measure 21
0002
0010
0013
0000
2000
0010
3010
0000
,  // measure 22
0001
0100
0001
0100
0000
1000
0100
0000
,  // measure 23
0010
0110
0100
0110
,  // measure 24
1000
0001
1000
0000
1001
0000
0000
0000
,  // measure 25
1020
0100
1000
0130
,  // measure 26
0002
0000
1000
1000
0000
0100
0103
0000
,  // measure 27
0010
1000
0100
0000
0010
0001
1000
0000
,  // measure 28
0010
1000
0001
0010
0000
0010
0100
0000
,  // measure 29
1000
0100
0010
0001
1000
0100
0010
0000
,  // measure 30
0001
0100
0010
1000
0001
0100
0010
0000
,  // measure 31
1000
0100
0010
0100
1000
0100
0001
0100
,  // measure 32
1000
0010
0100
0001
0010
0100
1000
0000
,  // measure 33
1020
0000
0000
0000
1000
0000
0000
0100
0000
0000
0001
0000
0130
0000
0000
0000
,  // measure 34
0201
0000
0000
0000
0320
0000
0000
2030
,  // measure 35
3002
0100
0000
0100
0000
0100
0000
0103
,  // measure 36
2000
0100
0000
0100
0000
0100
0000
3100
,  // measure 37
1002
0000
0000
0000
,  // measure 38
0023
0000
0000
0000
0000
0000
0000
0230
0000
0000
0000
0000
0000
0000
1300
0000
,  // measure 39
0020
0000
0000
0030
,  // measure 40
1000
0000
0001
0010
,  // measure 41
0100
1000
0001
0000
0100
0001
1000
0100
,  // measure 42
0000
0100
0010
0000
0001
0100
1000
0000
,  // measure 43
1000
0100
0001
0000
0010
0001
0100
0010
,  // measure 44
1000
0100
0100
0000
0010
0000
0010
0000
,  // measure 45
0001
1000
0001
0000
0010
0000
0010
0000
,  // measure 46
1000
0001
1000
0000
0010
0000
0010
0000
,  // measure 47
0001
1000
0001
0000
0101
0000
1100
0000
,  // measure 48
1001
0000
1000
0010
,  // measure 49
0100
0001
1000
0000
0100
1000
0001
0100
,  // measure 50
0000
0100
0010
0000
1000
0100
0001
0000
,  // measure 51
0001
0100
1000
0000
0010
1000
0100
0010
,  // measure 52
0001
0100
0100
0000
0010
0000
0010
0000
,  // measure 53
1000
0001
1000
0000
0010
0000
0010
0000
,  // measure 54
0001
1000
0001
0000
0010
0000
0010
0000
,  // measure 55
1000
0001
1000
0000
1100
0000
0101
0000
,  // measure 56
1001
0000
0000
0000
0010
1000
0001
1000
,  // measure 57
0010
0100
0010
0000
1000
0100
0010
0001
,  // measure 58
1000
0010
1000
0000
0001
0100
0010
0001
,  // measure 59
0010
1000
0100
0000
0010
0000
0110
0000
,  // measure 60
1001
0000
0110
0000
0001
0100
1000
0000
,  // measure 61
0001
0010
1000
0000
0110
0000
0001
1000
,  // measure 62
0100
0010
0001
0000
1000
0100
0001
0000
,  // measure 63
1000
0010
0001
0000
0101
0000
1100
0000
,  // measure 64
1001
0000
0000
0000
0010
0001
1000
0001
,  // measure 65
0010
0100
0010
0000
0001
0100
0010
1000
,  // measure 66
0001
0010
0001
0000
1000
0100
0010
1000
,  // measure 67
0010
0001
0100
0000
0010
0000
0110
0000
,  // measure 68
1001
0000
0110
0000
1000
0100
0001
0000
,  // measure 69
1000
0010
0001
0000
0110
0000
1000
0001
,  // measure 70
0100
0010
1000
0000
0001
0100
1000
0000
,  // measure 71
0001
0010
1000
0000
1100
0000
0101
0000
,  // measure 72
1001
0000
0022
0000
,  // measure 73
0033
0000
2100
0000
,  // measure 74
3020
0000
0000
0000
0000
0000
0130
0000
0001
0100
0002
0000
0000
0000
0000
2000
,  // measure 75
0003
0000
0000
0100
0000
0000
0010
0000
3010
0000
0000
0000
0000
0000
0000
0100
,  // measure 76
0000
0001
1000
0000
2020
0000
0000
0000
,  // measure 77
3030
0000
0102
0000
,  // measure 78
0023
0000
0000
0000
0000
0000
0130
0000
1000
0100
2000
0000
0000
0000
0000
3002
,  // measure 79
0000
0000
0000
0100
0000
0000
0010
0000
0013
0000
0000
0000
0000
0000
0000
0100
,  // measure 80
0000
0000
0000
1000
0000
0000
0001
0000
2002
0000
0000
0000
0000
0000
0000
0000
,  // measure 81
0000
0000
3003
0000
;

//---------------dance-single - NewbStepper-DSP----------------
#NOTES:
     dance-single:
     NewbStepper:
     Medium:
     10:
     0.324419,0.412123,0.202269,0.211463,0.004597,247,225,22,23,0,0,0.324419,0.412123,0.202269,0.211463,0.004597,247,225,22,23,0,0:
0000
0000
0000
0000
,
0000
0000
0000
0000
,
0000
0000
0000
0000
,
0000
0000
0000
0000
,
0000
0000
0000
0000
,
0000
0000
0000
0000
,
0000
0000
0000
0000
,
0000
0000
0000
0000
,
0000
0000
0000
0000
,
0001
0010
0001
0000
,
1000
0010
1000
0000
,
0001
0100
1000
0000
,
0001
0100
1000
0000
,
1000
0010
1000
0000
,
0001
0010
0001
0000
,
1000
0100
0001
0000
,
1000
0100
0001
0000
,
1000
0000
0100
1000
0100
0000
0000
0000
,
0001
0000
0100
0001
0100
0000
0000
0000
,
0010
0000
0100
0010
0100
0000
0000
0000
,
0010
0010
0010
0000
,
0001
0000
0100
0001
0100
0000
0000
0000
,
1000
0000
0100
1000
0100
0000
0000
0000
,
0010
0000
0100
0010
0100
0000
0000
0000
,
0010
0010
0010
0000
,
1010
0100
0001
0000
,
0011
0100
1000
0000
,
0001
0100
1000
0100
,
0001
0010
1000
0010
,
0001
0100
0101
0000
,
1000
0100
1100
0000
,
0110
0000
0110
0000
,
0001
1000
0001
0000
,
2010
0000
0000
3000
,
0002
0000
0000
0000
0203
0000
0000
0320
,
2030
0000
0000
0000
,
3000
0000
0000
0000
,
0012
0000
0000
0003
,
2000
0000
0000
0000
3200
0000
0000
0320
,
0032
0000
0000
0000
,
0003
0000
1000
0010
,
0100
0010
1000
0010
,
0100
0010
1000
0100
,
0010
0000
0001
0000
0100
0000
0100
0010
,
0100
0000
0001
0010
,
0100
0010
0001
0010
,
0100
0010
0001
0100
,
0010
0000
1000
0000
0100
0000
0100
0010
,
0100
0000
1000
0001
,
1000
0010
1000
0001
,
1000
0100
0010
0001
,
0100
0000
1000
0000
0100
0000
0001
1000
,
0001
0000
0001
1000
,
0001
0010
0001
1000
,
0001
0100
0010
1000
,
0100
0000
0001
0000
0100
0000
1000
0001
,
1000
0000
1010
0100
,
0001
0000
0011
0100
,
1000
0000
1100
0010
,
0001
0100
1000
0100
,
0110
0000
1001
0010
,
1000
0000
1001
0010
,
0001
0000
1000
0010
,
0001
0010
1000
0100
,
0010
0000
0011
0100
,
1000
0000
1010
0100
,
0001
0000
0101
0010
,
1000
0100
0001
0100
,
0110
0000
1001
0010
,
0001
0000
1001
0010
,
1000
0000
0001
0100
,
1000
0100
0001
0010
,
1000
0010
0002
0000
,
0000
0000
2003
0000
,
3200
0000
0000
0320
0032
0000
0000
0000
,
0100
0000
0100
0000
,
0103
0010
2000
0000
,
0000
0000
3002
0000
,
0203
0000
0000
0320
2030
0000
0000
0000
,
3002
0000
0000
0000
0000
0000
0100
0000
0103
0000
0000
0000
0000
0000
0000
1001
,
0000
0000
2002
0000
,
0000
0000
3003
0000
;

//---------------dance-single - NewbStepper-BSP----------------
#NOTES:
     dance-single:
     NewbStepper:
     Easy:
     8:
     0.248239,0.337192,0.165493,0.330986,0,189,171,18,36,0,0,0.248239,0.337192,0.165493,0.330986,0,189,171,18,36,0,0:
0000
0000
0000
0000
,
0000
0000
0000
0000
,
0000
0000
0000
0000
,
0000
0000
0000
0000
,
0000
0000
0000
0000
,
0000
0000
0000
0000
,
0000
0000
0000
0000
,
0000
0000
0000
0000
,
0000
0000
0000
0000
,
1000
0000
1000
0000
,
0010
0100
0010
0000
,
0001
0000
0001
0000
,
0010
0100
0010
0000
,
1000
0000
0100
0000
,
0010
0001
0010
0000
,
0001
0000
0100
0000
,
0010
1000
0010
0000
,
1001
0000
0100
0000
,
0010
1000
0100
0000
,
1001
0000
0100
0000
,
0010
0001
0100
0000
,
0110
0000
1001
0000
,
0110
0000
1001
0000
,
1000
0100
1000
0100
,
0010
0001
0010
0000
,
0002
1000
1003
0000
,
0020
0100
0130
0000
,
2000
0001
3001
0000
,
0200
0010
0310
0000
,
0002
0103
2000
3100
,
0002
0103
2000
3100
,
0001
0000
1001
0000
,
0010
0010
0100
0000
,
0002
0000
0000
0003
,
1000
0000
0100
0000
,
0020
0000
0000
0030
,
0000
0000
0000
0001
,
2000
0000
0000
3000
,
0001
0000
0100
0000
,
0020
0000
0030
0000
,
0000
0000
1000
0100
,
1000
0000
0001
0100
,
0001
0000
1000
0100
,
0010
0000
0001
0100
,
0010
0000
1000
1000
,
0100
0000
0001
0001
,
0100
0000
1000
1000
,
0010
0100
0001
0001
,
0010
0000
0001
0100
,
0001
0000
1000
0100
,
1000
0000
0001
0100
,
0010
0000
1000
0100
,
0010
0000
0001
0001
,
0100
0000
1000
1000
,
0100
0000
0001
0001
,
0010
0100
1000
1000
,
0010
0000
2020
0000
,
3030
0000
0202
0000
,
0303
0000
0220
0000
,
0330
0000
2002
0000
,
3003
0000
0022
0000
,
0033
0000
2200
0000
,
3300
0000
0220
0000
,
0330
0000
2002
0000
,
3003
0000
0010
0001
,
0010
0001
1000
0010
,
1000
0000
0100
1000
,
0100
1000
0001
0100
,
0001
0000
0010
0100
,
0010
0100
1000
0100
,
1000
0000
0010
0100
,
0010
0100
0001
0100
,
0001
0000
2002
0000
,
0000
3003
0010
0000
,
1000
0000
0200
0000
,
0000
0300
0000
0000
,
0000
0000
2002
0000
,
0000
3003
0010
0000
,
0001
0000
0200
0000
,
0000
0300
0010
0000
,
0000
0000
2002
0000
,
0000
0000
3003
0000
;

//---------------dance-single - NewbStepper-bSP----------------
#NOTES:
     dance-single:
     NewbStepper:
     Beginner:
     3:
     0.109015,0.222036,0.064358,0.082746,0,83,76,7,9,0,0,0.109015,0.222036,0.064358,0.082746,0,83,76,7,9,0,0:
0000
0000
0000
0000
,
0000
0000
0000
0000
,
0000
0000
0000
0000
,
0000
0000
0000
0000
,
0000
0000
0000
0000
,
0000
0000
0000
0000
,
0000
0000
0000
0000
,
0000
0000
0000
0000
,
0000
0000
0000
0000
,
0001
0000
0000
0000
,
0000
0000
0000
0000
,
0001
0000
0000
0000
,
0000
0000
0000
0000
,
1000
0000
0000
0000
,
0000
0000
0000
0000
,
1000
0000
0000
0000
,
0000
0000
0000
0000
,
0001
0000
0001
0000
,
0001
0000
0000
0000
,
0100
0000
0100
0000
,
0100
0000
0000
0000
,
1000
0000
1000
0000
,
1000
0000
0000
0000
,
0010
0000
0010
0000
,
0010
0000
0000
0000
,
0002
0000
0000
0003
,
0000
0000
0000
0000
,
2000
0000
0000
3000
,
0000
0000
0000
0000
,
0200
0000
0000
0300
,
0000
0000
0000
0000
,
0000
0000
0000
0000
,
0000
0000
0001
0000
,
1001
0000
0000
0000
,
1000
0000
0000
0000
,
0020
0000
0000
0000
,
0030
0000
0000
0000
,
1001
0000
0000
0000
,
0001
0000
0000
0000
,
0020
0000
0000
0000
,
0030
0000
0001
0000
,
0001
0000
0001
0000
,
0000
0000
1000
0000
,
1000
0000
1000
0000
,
0000
0000
0100
0000
,
0100
0000
0100
0000
,
0000
0000
0010
0000
,
0010
0000
0010
0000
,
0000
0000
1000
0000
,
0001
0000
1000
0000
,
0000
0000
0200
0000
,
0000
0000
0300
0000
,
0000
0000
0001
0000
,
1000
0000
0001
0000
,
0000
0000
0200
0000
,
0000
0000
0300
0000
,
0000
0000
1001
0000
,
0000
0000
1001
0000
,
0000
0000
1001
0000
,
0000
0000
1001
0000
,
0000
0000
0010
0000
,
0010
0000
0010
0000
,
0000
0000
0001
0000
,
0001
0000
0001
0000
,
0000
0000
0100
0000
,
0100
0000
0100
0000
,
0000
0000
1000
0000
,
1000
0000
1000
0000
,
0000
0000
0010
0000
,
0010
0000
0010
0000
,
0000
0000
0001
0000
,
0001
0000
0001
0000
,
1000
0000
0100
0000
,
0000
0000
0010
0000
,
0000
0000
0200
0000
,
0000
0000
0300
0000
,
0000
0000
0001
0000
,
0000
0000
1000
0000
,
0000
0000
0002
0000
,
0000
0003
0000
0000
,
0000
0000
1001
0000
;

//---------------dance-double - NewbStepper-EDP----------------
#NOTES:
     dance-double:
     NewbStepper:
     Hard:
     13:
     0.513553,0.561986,0.340180,0.275821,0.050567,391,354,37,30,0,0,0.513553,0.561986,0.340180,0.275821,0.050567,391,354,37,30,0,0:
00000000
00000000
00000000
00000000
,
00000000
00000000
00000000
00000000
,
00000000
00000000
00000000
00000000
,
00000000
00000000
00000000
00000000
,
00000000
00000000
00000000
00000000
,
00000000
00000000
00000000
00000000
,
00000000
00000000
00000000
00000000
,
00000000
00000000
00000000
00000000
,
00000000
00000000
00000000
00000000
,
00001100
00000000
00000010
00000001
00000100
00000000
00000010
00000000
,
00001000
00000000
00000001
00000100
00000000
00000100
00001000
00000000
,
00011000
00000000
01010000
00000000
00100000
00001000
00010000
00000000
,
01000000
00000000
00100000
10000000
00000000
00100000
00010000
00000000
,
01010000
00000000
00100000
10000000
01000000
00000000
00100000
00000000
,
00010000
00000000
10000000
01000000
00000000
01000000
00010000
00000000
,
00011000
00000000
00001100
00000000
00000010
00010000
00001000
00000000
,
00000100
00000000
00000010
00000001
00000000
00000010
00001000
00000000
,
00002010
00000001
00000010
00003001
,
00000200
00000000
00001000
00001000
00000000
00010000
00010300
00000000
,
00000100
00000001
00001000
00000000
00000100
00001000
00000001
00000000
,
00000100
00001000
00010000
01000000
00000000
01000000
00100000
00000000
,
00020000
01000000
01030000
00000000
00200000
10000000
10300000
00000000
,
01000000
00010000
01000000
00010000
00000000
00001000
00010000
00000000
,
00000010
00000110
00001000
00001001
,
00000001
00000100
00001000
00000000
00011000
00000000
00000000
00000000
,
00120000
10000000
00100000
10030000
,
02000000
00000000
00010000
00010000
00000000
00001000
03001000
00000000
,
01000000
10000000
00010000
00000000
01000000
00010000
10000000
00000000
,
01000000
00010000
00001000
00000100
00000000
00000100
00000010
00000000
,
00001000
00000100
00000010
00000000
00000001
00000100
00000010
00000000
,
00000100
00001000
00010000
00000000
00100000
00010000
00001000
00000000
,
00010000
01000000
10000000
00000000
00100000
00010000
00001000
00000000
,
00100000
00010000
00100000
00001000
00010000
00000000
00000000
00000000
,
00012000
00000000
00000000
00000000
00000100
00000000
00000000
00010000
00000000
00000000
00100000
00000000
00013000
00000000
00000000
00000000
,
02010000
00000000
00000000
00000000
03200000
00000000
00000000
20300000
,
30020000
01000000
00000000
01000000
00000000
01000000
00000000
01030000
,
20000000
01000000
00000000
01000000
00000000
01000000
00000000
31000000
,
10020000
00000000
00000000
00000000
,
00032000
00000000
00000000
00000000
00000000
00000000
00000000
00003200
00000000
00000000
00000000
00000000
00000000
00000000
00000310
00000000
,
00000002
00000000
00000000
00000003
,
00001000
00000000
00000001
00000010
,
00000100
00001000
00000001
00000000
00000100
00001000
00010000
01000000
,
00000000
01000000
00100000
00000000
00010000
01000000
10000000
00000000
,
10000000
01000000
00010000
00000000
00100000
00001000
00010000
00100000
,
00010000
00001000
00000010
00000000
00000100
00000000
00000100
00000000
,
00010000
00001000
00010000
00000000
01000000
00000000
01000000
00000000
,
00010000
00001000
00010000
00000000
00000100
00000000
00000100
00000000
,
00010000
00001000
00010000
00000000
00011000
00000000
01010000
00000000
,
11000000
00000000
10000000
00100000
,
01000000
00010000
10000000
00000000
01000000
00010000
00001000
00000100
,
00000000
00000100
00000010
00000000
00001000
00000100
00000001
00000000
,
00000001
00000100
00001000
00000000
00000010
00010000
00001000
00000010
,
00001000
00010000
00100000
00000000
01000000
00000000
01000000
00000000
,
00001000
00010000
00001000
00000000
00000100
00000000
00000100
00000000
,
00001000
00010000
00001000
00000000
01000000
00000000
01000000
00000000
,
00001000
00010000
00001000
00000000
00011000
00000000
00001100
00000000
,
00000101
00000000
00000000
00000000
00000010
00000001
00001000
00000001
,
00000100
00001000
00010000
00000000
00100000
10000000
00010000
10000000
,
01000000
00010000
00001000
00000000
00000010
00000100
00000010
00000001
,
00000100
00000010
00001000
00000000
00010000
00000000
01000000
00000000
,
01100000
00000000
10010000
00000000
10000000
01000000
00010000
00000000
,
00001000
00000010
00000001
00000000
00000110
00000000
00001000
00000100
,
00000010
00000001
00001000
00000000
00000001
00000100
00001000
00000000
,
00010000
00100000
10000000
00000000
11000000
00000000
01010000
00000000
,
10010000
00000000
00000000
00000000
00100000
10000000
00010000
10000000
,
01000000
00010000
00001000
00000000
00000010
00000001
00001000
00000001
,
00000100
00001000
00010000
00000000
00100000
01000000
00100000
10000000
,
01000000
00100000
00010000
00000000
00001000
00000000
00000100
00000000
,
00000110
00000000
00001001
00000000
00000001
00000100
00001000
00000000
,
00010000
00100000
10000000
00000000
01100000
00000000
00010000
01000000
,
00100000
10000000
00010000
00000000
10000000
01000000
00010000
00000000
,
00001000
00000010
00000001
00000000
00000101
00000000
00001100
00000000
,
00001001
00000000
00002020
00000000
,
00003030
00000000
00000102
00000000
,
00000023
00000000
00000000
00000000
00000000
00000000
00000130
00000000
00001000
00000100
00002000
00000000
00000000
00000000
00000000
00003002
,
00000000
00000000
00000000
00000103
00000000
00000000
00001000
00000000
00001000
00000000
00000000
00000000
00000000
00000000
00000000
00010000
,
00000000
01000000
00100000
00000000
00220000
00000000
00000000
00000000
,
00330000
00000000
21000000
00000000
,
30200000
00000000
00000000
00000000
00000000
00000000
01300000
00000000
00010000
01000000
00020000
00000000
00000000
00000000
00000000
20030000
,
00000000
00000000
00000000
31000000
00000000
00000000
00010000
00000000
00010000
00000000
00000000
00000000
00000000
00000000
00000000
00001000
,
00000000
00000000
00000000
00000100
00000000
00000000
00000001
00000000
00002002
00000000
00000000
00000000
00000000
00000000
00000000
00000000
,
00000000
00000000
00003003
00000000
;

//---------------dance-double - NewbStepper-DDP----------------
#NOTES:
     dance-double:
     NewbStepper:
     Medium:
     10:
     0.312598,0.374658,0.101135,0.211463,0.004597,238,227,11,23,0,0,0.312598,0.374658,0.101135,0.211463,0.004597,238,227,11,23,0,0:
00000000
00000000
00000000
00000000
,
00000000
00000000
00000000
00000000
,
00000000
00000000
00000000
00000000
,
00000000
00000000
00000000
00000000
,
00000000
00000000
00000000
00000000
,
00000000
00000000
00000000
00000000
,
00000000
00000000
00000000
00000000
,
00000000
00000000
00000000
00000000
,
00000000
00000000
00000000
00000000
,
10000000
00100000
10000000
00000000
,
00010000
00100000
00010000
00000000
,
01000000
00010000
00001000
00000000
,
00000100
00000010
00000001
00000000
,
00000001
00000010
00000001
00000000
,
00001000
00000010
00001000
00000000
,
00000100
00001000
00010000
00000000
,
01000000
00100000
10000000
00000000
,
00010000
00000000
01000000
00010000
01000000
00000000
00000000
00000000
,
00001000
00000000
00010000
00001000
00010000
00000000
00000000
00000000
,
00000100
00000000
00000010
00000100
00000010
00000000
00000000
00000000
,
00000001
00000001
00000001
00000000
,
00001000
00000000
00000100
00001000
00000100
00000000
00000000
00000000
,
00010000
00000000
00001000
00010000
00001000
00000000
00000000
00000000
,
01000000
00000000
00100000
01000000
00100000
00000000
00000000
00000000
,
10000000
10000000
10000000
00000000
,
00010000
01000000
10000000
00000000
,
00010000
00001000
00000100
00000000
,
00000001
00000010
00001000
00010000
,
00100000
10000000
01000000
00010000
,
00001000
00000100
00000001
00000000
,
00001000
00010000
01000000
00000000
,
00001000
00010000
00100000
10000000
,
00010000
00100000
00001000
00000000
,
00012000
00000000
00000000
00003000
,
00000020
00000000
00000000
00000000
00000032
00000000
00000000
00000203
,
00002300
00000000
00000000
00000000
,
00003000
00000000
00000000
00000000
,
00021000
00000000
00000000
00030000
,
00200000
00000000
00000000
00000000
20300000
00000000
00000000
32000000
,
03020000
00000000
00000000
00000000
,
00030000
00000000
00001000
00100000
,
00010000
00100000
00001000
00010000
,
01000000
10000000
01000000
00010000
,
00001000
00000000
00010000
00000000
00000010
00000000
00010000
00001000
,
00010000
00000000
00010000
00000010
,
00001000
00000010
00010000
00001000
,
00000100
00000001
00000100
00001000
,
00010000
00000000
00001000
00000000
00100000
00000000
00001000
00010000
,
00001000
00000000
00010000
00000010
,
00010000
00001000
00010000
00100000
,
00010000
00001000
00100000
00001000
,
00010000
00000000
00001000
00000000
00000010
00000000
00001000
00010000
,
00001000
00000000
00001000
01000000
,
00001000
00010000
00001000
00000100
,
00001000
00010000
00000100
00010000
,
00001000
00000000
00010000
00000000
01000000
00000000
00010000
00001000
,
00010000
00000000
00110000
01000000
,
10000000
00000000
10100000
01000000
,
00010000
00000000
00100000
00001000
,
00010000
00100000
00010000
00001000
,
00000110
00000000
00001010
00000100
,
00000001
00000000
00000011
00000100
,
00001000
00000000
00000010
00010000
,
00001000
00000010
00001000
00010000
,
01100000
00000000
10000000
01000000
,
00010000
00000000
00001000
00000010
,
00000001
00000000
00000100
00010000
,
01000000
00010000
00000100
00001000
,
00011000
00000000
00000001
00000100
,
00001000
00000000
00010000
00100000
,
10000000
00000000
01000000
00001000
,
00000100
00001000
01000000
00010000
,
00001000
00000010
00000002
00000000
,
00000000
00000000
00002003
00000000
,
00003200
00000000
00000000
00000320
00002030
00000000
00000000
00000000
,
00010000
00000000
00010000
00000000
,
00013000
01000000
20000000
00000000
,
00000000
00000000
30020000
00000000
,
02030000
00000000
00000000
03200000
00320000
00000000
00000000
00000000
,
00032000
00000000
00000000
00000000
00000000
00000000
01000000
00000000
01003000
00000000
00000000
00000000
00000000
00000000
00000000
00011000
,
00000000
00000000
00022000
00000000
,
00000000
00000000
00033000
00000000
;

//---------------dance-double - NewbStepper-BDP----------------
#NOTES:
     dance-double:
     NewbStepper:
     Easy:
     8:
     0.241672,0.337192,0.156299,0.294210,0,184,167,17,32,0,0,0.241672,0.337192,0.156299,0.294210,0,184,167,17,32,0,0:
00000000
00000000
00000000
00000000
,
00000000
00000000
00000000
00000000
,
00000000
00000000
00000000
00000000
,
00000000
00000000
00000000
00000000
,
00000000
00000000
00000000
00000000
,
00000000
00000000
00000000
00000000
,
00000000
00000000
00000000
00000000
,
00000000
00000000
00000000
00000000
,
00000000
00000000
00000000
00000000
,
00001000
00000000
00001000
00000000
,
00000010
00000100
00000010
00000000
,
00001000
00000000
00001000
00000000
,
00100000
01000000
00100000
00000000
,
00010000
00000000
01000000
00000000
,
00100000
10000000
00100000
00000000
,
00010000
00000000
00001000
00000000
,
00000010
00000001
00000010
00000000
,
00000110
00000000
00000100
00000000
,
00000010
00001000
00010000
00000000
,
01100000
00000000
01000000
00000000
,
00100000
00010000
00001000
00000000
,
00000110
00000000
00001001
00000000
,
00011000
00000000
10010000
00000000
,
10000000
01000000
10000000
01000000
,
00010000
00001000
00010000
00000000
,
00000020
00000000
00001030
00000000
,
00000200
00000000
00010300
00000000
,
00002000
00000000
00103000
00000000
,
00020000
00000000
01030000
00000000
,
00100000
10000000
01000000
00010000
,
00001000
00010000
00001000
00000100
,
00000001
00000100
00001000
00000100
,
00001000
00010000
01000000
00000000
,
20000000
00000000
00000000
30000000
,
00010000
00000000
00001000
00000000
,
00000020
00000000
00000000
00000030
,
00000000
00000000
00000000
00001000
,
00000002
00000000
00000000
00000003
,
00001000
00000000
00010000
00000000
,
00200000
00000000
00000000
00300000
,
00000000
00000000
00001000
00010000
,
00001000
00000000
00000100
00000010
,
00000100
00000000
00001000
00010000
,
00001000
00000000
01000000
00100000
,
01000000
00000000
00010000
00010000
,
00100000
00000000
00001000
00001000
,
00010000
00000000
00000100
00000100
,
00000010
00000000
00000001
00000100
,
00001000
00000000
00010000
00001000
,
00010000
00000000
01000000
00100000
,
01000000
00000000
00010000
00001000
,
00010000
00000000
00000100
00000010
,
00000100
00000000
00001000
00001000
,
00000010
00000000
00010000
00010000
,
00001000
00000000
01000000
01000000
,
00100000
00000000
10000000
01000000
,
00010000
00000000
00020020
00000000
,
00030030
00000000
02002000
00000000
,
03003000
00000000
02020000
00000000
,
03030000
00000000
02200000
00000000
,
03300000
00000000
00202000
00000000
,
00303000
00000000
00020200
00000000
,
00030300
00000000
00002200
00000000
,
00003300
00000000
00000220
00000000
,
00000330
00000000
00000001
00000100
,
00000001
00000100
00000010
00001000
,
00000010
00000000
00010000
00001000
,
00010000
00001000
00100000
00010000
,
00100000
00000000
01000000
10000000
,
01000000
10000000
00010000
01000000
,
00010000
00000000
00100000
00001000
,
00010000
00001000
00000010
00001000
,
00010000
00000000
00022000
00000000
,
00000000
00033000
00100000
00000000
,
10000000
00000000
02000000
00000000
,
00000000
03000000
00000000
00000000
,
00000000
00000000
00022000
00000000
,
00000000
00033000
00000010
00000000
,
00000001
00000000
00000200
00000000
,
00000000
00000300
00000010
00000000
,
00000000
00000000
00002002
00000000
,
00000000
00000000
00003003
00000000
;
