#VERSION:0.83;
#TITLE:Shelter;
#ARTIST:Porter Robinson & Madeon;
#BANNER:Shelter.png;
#BACKGROUND:Shelter-bg.png;
#JACKET:Shelter-jacket.png;
#MUSIC:Shelter.ogg;
#OFFSET:1.983;
#SAMPLESTART:77.217;
#SAMPLELENGTH:15;
#BPMS:0=100;
#BGCHANGES:3.25=Shelter.avi=1=0=0=0=StretchNoLoop====,99999=-nosongbg-=1=0=0=0 // don't automatically add -songbackground-;

//---------------dance-single - Marten-bSP----------------
#NOTEDATA:;
#CHARTNAME:Marten-bSP;
#STEPSTYPE:dance-single;
#DESCRIPTION:Marten-bSP;
#DIFFICULTY:Beginner;
#METER:2;
#RADARVALUES:0.086868,0.165396,0.032431,0.145938,0,75,71,4,18,0,0,0,0,0,0.086868,0.165396,0.032431,0.145938,0,75,71,4,18,0,0,0,0,0;
#CREDIT:Marten;
#NOTES:
0000
0000
0000
0000
,
0000
0000
0000
0000
,
0000
0000
0000
0000
,
0000
0000
0000
0000
,
0000
0000
0000
0000
,
1000
0000
0000
0000
,
0001
0000
0000
0000
,
0010
0000
0000
0000
,
0200
0000
0300
0000
,
1000
0000
1000
0000
,
0001
0000
0001
0000
,
1000
0000
1000
0000
,
0020
0000
0000
0030
,
1000
0000
1000
0000
,
0001
0000
0001
0000
,
0010
0000
0010
0000
,
0200
0000
0000
0300
,
0000
1000
0000
1000
,
0000
0001
0000
0001
,
0001
0000
0100
0000
,
0020
0000
0030
0000
,
1000
0000
1000
0000
,
0001
0000
0001
0000
,
1000
0000
0100
0000
,
0020
0000
0030
0000
,
0002
0000
0000
0003
,
2000
0000
0000
3000
,
0020
0000
0000
0030
,
0200
0000
0000
0300
,
0001
0000
0001
0000
,
1000
0000
1000
0000
,
0100
0000
0100
0000
,
0020
0000
0000
0030
,
0001
0000
0001
0000
,
1000
0000
1000
0000
,
0001
0000
1000
0000
,
0002
0000
0003
0000
,
1000
0000
1000
0000
,
0001
0000
0001
0000
,
1000
0000
0001
0000
,
2000
0000
3000
0000
,
0010
0000
0010
0000
,
0100
0000
0100
0000
,
0001
0000
1000
0000
,
0001
0000
1000
0000
,
2002
3003
2002
3003
,
0001
0000
1000
0000
,
1001
0000
0220
0000
,
0000
0000
0000
0000
,
0000
0000
0000
0000
,
0000
0000
0000
0000
,
0330
0000
0000
0000
;

//---------------dance-single - Marten-BSP----------------
#NOTEDATA:;
#CHARTNAME:Marten-BSP;
#STEPSTYPE:dance-single;
#DESCRIPTION:Marten-BSP;
#DIFFICULTY:Easy;
#METER:5;
#RADARVALUES:0.180685,0.206746,0.056754,0.137830,0,156,149,7,17,0,0,0,0,0,0.180685,0.206746,0.056754,0.137830,0,156,149,7,17,0,0,0,0,0;
#CREDIT:Marten;
#NOTES:
0000
0000
0000
0000
,
0000
0000
0000
0000
,
0000
0000
0000
0000
,
0000
0000
0000
0000
,
0000
0000
0000
0000
,
0001
1000
0100
0000
,
1000
0001
0010
0000
,
0001
0100
0010
0000
,
2002
0000
3003
1001
,
0001
0100
0001
0010
,
0100
1000
0100
1000
,
0010
1000
0001
1000
,
0010
0010
0100
0100
,
0001
0100
0001
1000
,
0100
1000
0010
1000
,
0001
0010
0100
1000
,
0001
0001
1000
1000
,
0002
0100
0100
0000
,
1000
0000
1003
1001
,
1000
0001
0100
0010
,
0200
0000
0300
0010
,
0110
0100
0001
1000
,
0001
0001
1000
1000
,
0001
0010
0100
1000
,
0002
0000
0003
1000
,
0010
0100
0000
0100
,
0000
0010
0000
0010
,
0000
1000
0000
1000
,
0000
0001
0000
0001
,
0001
1000
1000
0001
,
0001
1000
0010
0100
,
0001
0010
0010
0100
,
0200
0000
0300
1001
,
0001
0100
0001
0001
,
1000
0100
1000
1000
,
0001
0010
0100
1000
,
0001
0001
1000
1000
,
0010
1000
0100
0100
,
0010
0001
0100
0100
,
0010
1000
0001
1000
,
0020
0100
0130
0010
,
1000
0100
0010
0100
,
1000
0010
0100
0010
,
1000
0100
0001
0100
,
1000
0010
0001
0010
,
2002
3003
0220
0330
,
0002
0023
0230
2300
,
3001
0200
0020
0000
,
0000
0000
0000
0000
,
0000
0000
0000
0000
,
0000
0000
0000
0000
,
0330
0000
0000
0000
;

//---------------dance-single - Marten-DSP----------------
#NOTEDATA:;
#CHARTNAME:Marten-DSP;
#STEPSTYPE:dance-single;
#DESCRIPTION:Marten-DSP;
#DIFFICULTY:Medium;
#METER:9;
#RADARVALUES:0.291876,0.351468,0.081077,0.137830,0.129723,252,242,10,17,0,0,0,0,0,0.291876,0.351468,0.081077,0.137830,0.129723,252,242,10,17,0,0,0,0,0;
#CREDIT:Marten;
#NOTES:
0000
0000
0000
0000
,
0000
0000
0000
0000
,
0000
0000
0000
0000
,
0000
0000
0000
0000
,
0000
0000
0000
0000
,
1000
0000
0000
0000
0001
0100
0000
0001
0000
0000
0000
0000
0000
0000
0010
0000
,
0100
0000
0000
0000
1000
0001
0000
0010
0000
0000
0000
0000
0001
0000
1000
0000
,
0001
0000
0000
0000
0100
0001
0000
1000
0000
0000
0000
0000
0000
0000
0020
0000
,
0200
0000
0000
0000
0000
0000
0000
0000
0330
0000
0000
0000
0001
1000
0000
0000
,
1001
0000
0000
0000
0010
0100
0000
1000
0001
0000
0000
0000
0100
0000
0001
0000
,
1000
0000
0000
0000
0100
1000
0000
0010
0000
0000
0000
0000
0100
0000
0010
0000
,
0110
0000
0000
0000
0100
0001
0000
1000
0001
0000
0000
0000
0010
0000
0001
0000
,
1000
0010
1000
0010
0100
0001
0100
0001
,
1000
0000
0000
0000
0100
1000
0000
0001
1000
0000
0000
0000
0010
0000
1000
0000
,
0100
0000
0000
0000
0010
0001
0000
1000
0000
0000
0000
0000
0010
0000
0100
0000
,
0110
0000
0000
0000
0100
0001
0000
1000
0001
0000
0000
0000
0100
0000
0001
0000
,
0010
0001
0010
0001
1000
0100
1000
1000
,
0001
0000
0100
0001
1000
0001
1000
0000
,
0100
0000
0000
0000
0010
0000
0001
0000
1000
0000
0000
0000
0010
0100
0000
0000
,
1001
0000
0001
0100
0001
1000
0100
1000
,
0002
0000
0010
0000
1003
0000
0010
0100
,
0110
0000
0010
1000
0001
0000
0010
0001
,
1000
0000
0100
1000
0001
0000
0100
0000
,
0010
0100
0010
0000
1000
0001
1000
0001
,
0020
0000
0130
0000
0010
0001
0010
0001
,
1000
0010
0000
0010
,
0000
0100
0000
0100
,
0000
0001
0000
0001
,
0000
0000
1000
0000
0000
0000
1000
0001
,
0010
0000
0001
1000
0010
0000
0100
0010
,
0100
0000
0001
1000
0001
0000
0010
0100
,
0010
0000
0100
1000
0001
0000
0100
0001
,
2000
0000
0000
0000
3010
0010
0100
0000
,
0120
0000
0000
0000
1030
0001
0000
1000
0001
0000
0000
0000
0010
0000
0001
0000
,
0100
0000
0000
0000
0010
0100
0000
0001
0000
0000
0000
0000
1000
0000
0100
0000
,
1100
0000
0000
0000
1000
0010
0000
1000
0010
0000
0000
0000
0100
0000
0001
0000
,
1000
0100
1000
0100
0010
0001
0010
0001
,
0100
0000
0000
0000
0001
0010
0000
0001
0010
0000
0000
0000
0100
0000
1000
0000
,
0001
0000
0000
0000
0100
0010
0000
0100
0000
0000
0000
0000
0001
0000
0010
0000
,
0011
0000
0000
0000
0001
0100
0000
0001
0100
0000
0000
0000
0010
0000
1000
0000
,
0002
0000
2003
0000
3010
0100
0010
0100
,
0001
0000
0010
0000
0100
1000
0100
0000
,
0010
0000
0001
0000
1000
0001
1000
0000
,
0010
0000
1000
0000
0100
1000
0100
0000
,
0010
0000
0001
0000
0100
0001
0100
0001
,
1002
0103
2001
3100
,
0002
0023
0230
2300
,
3001
0000
2000
0000
0002
3000
0000
0020
,
0000
0000
0000
0000
,
0000
0000
0000
0000
,
0000
0000
0000
0000
,
0033
0000
0000
0000
;

//---------------dance-single - Marten-ESP----------------
#NOTEDATA:;
#CHARTNAME:Marten-ESP;
#STEPSTYPE:dance-single;
#DESCRIPTION:Marten-ESP;
#DIFFICULTY:Hard;
#METER:12;
#RADARVALUES:0.392643,0.496189,0.145938,0.486460,0.393222,339,321,18,60,0,0,0,0,0,0.392643,0.496189,0.145938,0.486460,0.393222,339,321,18,60,0,0,0,0,0;
#CREDIT:Marten;
#NOTES:
0000
0000
0000
0000
,
0000
0000
0000
0000
,
0000
0000
0000
0000
,
0000
0000
0000
0000
,
0000
0000
0000
0000
,
0001
0000
0000
1000
0100
1000
0000
0020
0000
0000
0000
0000
0130
0000
0001
0000
,
1000
0000
0000
0100
1000
0100
0000
0020
0000
0000
0000
0000
0031
0000
0100
0000
,
0001
0000
0000
0010
0001
0010
0000
0200
0000
0000
0000
0000
1300
0000
0001
0000
,
2001
0000
0000
0000
0001
0000
0000
0000
0001
0000
0000
0000
3001
0010
0000
0000
,
2100
0000
0000
0000
3001
1000
0000
0200
1000
0000
0000
0000
0310
0000
0001
0000
,
1002
0000
0000
0013
0001
0010
0000
0200
1000
0000
0000
0000
0310
0000
0001
0000
,
2000
0000
0000
0000
3010
1000
0000
0200
0010
0000
0000
0000
1300
0000
0001
0000
,
1000
0000
0000
0010
0000
0000
0100
0000
0001
0000
0000
0010
0000
0000
0100
0000
1000
0000
0000
0010
0000
0000
0100
0000
0001
0000
0000
0010
0000
0000
0100
0000
,
2000
0000
0000
0000
3010
0100
0000
0002
0100
0000
0000
0000
1003
0000
0100
0000
,
2100
0000
0000
3001
0010
0001
0000
0200
0010
0000
0000
0000
0301
0000
0010
0000
,
0012
0000
0000
0000
0103
0001
0000
2000
0100
0000
0000
0000
3001
0000
1000
0000
,
0001
0000
0000
0100
0000
0000
0010
0000
1000
0000
0000
0100
0000
0000
0010
0000
0001
0000
0000
0100
0000
0000
0010
0000
1000
0000
0000
0001
0000
0000
1000
0000
,
0100
0000
1000
0001
0100
1000
0100
0001
,
0010
0000
0000
0100
0000
0000
1000
0000
0010
0000
0000
0100
0010
0100
0000
0000
,
1001
0000
0000
0000
0001
0010
0000
0001
0100
0000
0010
0000
1000
0000
0001
0000
,
0020
0000
0000
0000
0000
0000
0000
0000
1000
0000
0000
0000
0000
0000
0000
0000
0130
0000
0000
0000
0000
0000
0000
0000
1000
0100
1000
0000
0100
0000
1000
0000
,
0001
0000
0000
0000
0100
0001
0000
1000
0010
0000
1000
0000
0001
0000
0010
0000
,
0100
0000
0000
0100
1000
0000
0001
0000
0100
0000
0000
0200
0001
0000
0000
0000
,
0310
0000
0000
1000
0010
1000
0000
0001
0010
0000
0001
1000
0001
0000
0100
0020
,
0100
0000
1030
0000
0100
1000
0001
0010
,
0002
0000
0000
0203
0000
0000
0320
0000
0000
0000
0130
0000
0001
0000
1000
0000
,
0200
0000
0000
2300
0000
0000
3020
0000
0000
0000
0000
0000
0130
0000
0001
0000
,
0020
0000
0000
0032
0000
0000
2003
0000
0000
0000
3001
0000
0010
0000
0001
0000
,
2000
0000
0000
3020
0000
0000
0230
0000
0000
0000
0301
0000
1000
0000
0200
0000
,
0000
0000
1300
2000
0000
0000
3010
0020
,
0000
0000
0000
0000
0130
0000
0001
0010
0001
0000
1000
0010
1000
0000
0001
1000
,
0001
0000
0010
0020
0000
0000
0130
0200
,
0000
0000
0000
0000
0000
0000
0000
0000
0300
0000
0000
0000
0000
0000
0000
0000
1000
0001
1000
0000
0001
0000
0100
0000
0010
0000
0010
0000
0000
0000
0000
0000
,
0210
0000
0000
0000
0301
1000
0000
0200
1000
0000
0000
0000
0310
0000
0011
0000
,
2001
0000
0000
3010
1000
0010
0000
0200
0001
0000
0000
0000
0310
0000
0110
0000
,
0102
0000
0000
0000
0013
0001
0000
2000
0100
0000
0000
0000
3010
0000
1000
0000
,
0001
0000
0000
0010
0000
0000
0100
0000
1000
0000
0000
0010
0000
0000
0100
0000
0001
0000
0000
0010
0000
0000
0100
0000
1000
0000
0000
0010
0000
0000
0100
0000
,
0002
0000
1003
0001
0100
0001
0000
0020
0001
0000
0000
0000
0130
0000
1100
0000
,
2001
0000
0000
3010
0100
0001
0000
0020
0001
0000
0000
0000
0130
0000
0110
0000
,
2100
0000
3010
1000
0001
1000
0000
0200
0010
0000
0000
0000
1300
0000
0001
0000
,
2000
0000
3020
0000
0032
1003
0100
0001
,
0010
0000
0001
0100
0001
0000
1000
0000
0010
0000
1000
0000
0100
0000
1000
0000
,
0001
0000
0010
0001
0010
0000
0100
0000
0001
0000
0100
0000
1000
0000
0001
0000
,
1000
0000
0010
1000
0010
0000
0100
0000
1000
0000
0100
0000
0010
0000
1000
0000
,
0001
0000
0010
0100
0010
0000
0001
0000
1000
0001
1000
0000
0010
0000
1000
0000
,
2010
0000
3100
0010
0012
0000
0103
0010
,
0210
0302
2003
3200
,
0310
0000
0002
0000
2000
0003
0000
0020
,
0000
0000
0000
0000
,
0000
0000
0000
0000
,
0000
0000
0000
0000
,
3030
0000
0000
0000
;

//---------------dance-double - Talkion-BDP----------------
#NOTEDATA:;
#CHARTNAME:Talkion-BDP;
#STEPSTYPE:dance-double;
#DESCRIPTION:Talkion-BDP;
#DIFFICULTY:Easy;
#METER:5;
#RADARVALUES:0.156362,0.206746,0.170261,0.227015,0,135,114,21,28,0,0,0,0,0,0.156362,0.206746,0.170261,0.227015,0,135,114,21,28,0,0,0,0,0;
#CREDIT:Talkion;
#NOTES:
00000000
00000000
00000000
00000000
,
00000000
00000000
00000000
00000000
,
00000000
00000000
00000000
00000000
,
00000000
00000000
00000000
00000000
,
00000000
00000000
00000000
00000000
,
00001000
00002000
00003000
00000000
,
00000100
00000200
00000300
00000000
,
00000001
00000002
00000003
00000000
,
00002002
00000000
00000000
00003003
,
00001000
00000100
00010100
00000000
,
00010000
00001000
00101000
00000000
,
00100000
00010000
10010000
00000000
,
10000000
00100000
10000000
00100000
,
01000000
00001000
01001000
00000000
,
00001000
00010000
00010100
00000000
,
00000100
00001000
00001001
00000000
,
00000001
00000100
00000001
00000100
,
00000020
00000000
00000000
00010030
,
00002000
00000000
00000000
00103000
,
00010000
10000000
00010000
01000000
,
00200000
00000000
00000000
01300000
,
00001000
00010000
00000100
00001000
,
00000020
00000030
00000020
00000030
,
00000100
00000001
00001000
00000001
,
00000020
00000000
00000000
00000130
,
00020000
00000000
00032000
00000000
,
00203000
00000000
00320000
00000000
,
20030000
00000000
30200000
00000000
,
02300000
00000000
03002000
00000000
,
00023000
00000000
00000000
00000000
,
00030200
00000000
00000320
00000032
,
00002003
00000000
00000000
00000000
,
00000000
00000000
00000100
00003100
,
00010000
00001000
00101000
00000000
,
00100000
01000000
01100000
00000000
,
10000000
00010000
01010000
00000000
,
00100000
00001000
00100000
00001000
,
00010000
00000010
00010010
00000000
,
00000010
00000100
00000110
00000000
,
00000001
00001000
00001010
00000000
,
00020000
00000000
00001000
00031000
,
00100000
00100000
10010000
00000000
,
00001000
00001000
00010100
00000000
,
00000010
00000010
00001001
00000000
,
00000100
00000100
00011000
00000000
,
01100000
00000000
00011000
00000000
,
00000110
00000000
00011000
00000000
,
02000000
00000000
00000000
00000000
03200000
00000000
00000000
02000000
,
00000000
00000000
00000000
00000000
,
00000000
00000000
00000000
00000000
,
00000000
00000000
00000000
00000000
,
03300000
00000000
00000000
00000000
;

//---------------dance-double - Talkion-DDP----------------
#NOTEDATA:;
#CHARTNAME:Talkion-DDP;
#STEPSTYPE:dance-double;
#DESCRIPTION:Talkion-DDP;
#DIFFICULTY:Medium;
#METER:8;
#RADARVALUES:0.262920,0.330793,0.121615,0.243230,0.158100,227,212,15,30,0,0,0,0,0,0.262920,0.330793,0.121615,0.243230,0.158100,227,212,15,30,0,0,0,0,0;
#CREDIT:Talkion;
#NOTES:
00000000
00000000
00000000
00000000
,
00000000
00000000
00000000
00000000
,
00000000
00000000
00000000
00000000
,
00000000
00000000
00000000
00000000
,
00000000
00000000
00000000
00000000
,
00010000
00000000
00000000
00000000
00001000
00000000
00000000
00000100
00000000
00000000
00000000
00000000
00001000
00000000
00010000
00000000
,
00001000
00000000
00000000
00000000
00010000
00000000
00000000
01000000
00000000
00000000
00000000
00000000
00010000
00000000
00001000
00000000
,
00010000
00000000
00000000
00000000
00001000
00000000
00000000
00000100
00000000
00000000
00000000
00000000
00000001
00000000
00001000
00000000
,
00000002
00000000
00000000
00000013
,
00000100
00000000
00000000
00000000
00001000
00000100
00000000
00020000
00000000
00000000
00000000
00000000
00001000
00000000
00031000
00000000
,
00100000
00000000
00000000
00000000
00010000
01000000
00000000
00200000
00000000
00000000
00000000
00000000
10000000
00000000
10300000
00000000
,
00010000
00000000
00000000
00000000
00100000
00001000
00000000
00020000
00000000
00000000
00000000
00000000
00000100
00000000
00030100
00000000
,
00001000
00000000
00000000
00001000
00000001
00000000
00000000
00000001
00000100
00000000
00000010
00000000
00000110
00000000
00000000
00000000
,
00000010
00000000
00000000
00000000
00001000
00000100
00000000
00020000
00000000
00000000
00000000
00000000
00001000
00000000
00031000
00000000
,
01000000
00000000
00000000
00000000
00010000
00100000
00000000
02000000
00000000
00000000
00000000
00000000
10000000
00000000
13000000
00000000
,
00010000
00000000
00000000
00000000
01000000
00100000
00000000
00020000
00000000
00000000
00000000
00000000
00001000
00000000
00031000
00000000
,
00000100
00000000
00000000
00000100
00000010
00000000
00000000
00000010
00001000
00000000
00000001
00000000
00001001
00000000
00000000
00000000
,
00001000
00000000
00000100
00000010
00000001
00000100
00001000
00000000
,
00020000
00000000
00032000
00013000
,
01000000
00000000
00100000
00010000
10000000
00010000
01000000
00000000
,
00100000
00110000
00010000
00011000
,
00001000
00000000
00000010
00000001
00001000
00000001
00000100
00000000
,
00001000
00000000
00000000
00001000
00000000
00000000
00000000
00000000
00010000
00000000
00000000
00010000
00000000
00000000
00000000
00000000
,
01000000
00000000
10000000
00010000
01000000
00010000
10000000
00000000
,
01000000
01010000
00010000
00011000
,
00002000
00000100
00000000
00003100
,
00000002
00000010
00000000
00000013
,
00002000
00010000
00000000
00013000
,
00200000
10000000
00000000
10300000
,
02000000
03010000
00020000
00030100
,
00000200
00010300
00020000
01030000
,
20000000
00000000
30020000
00000000
,
00230000
00000000
00000000
00000000
00001000
00001000
00301000
00000000
,
00010000
00000000
00000000
00000000
00000100
00001000
00000000
00000020
00000000
00000000
00000000
00000000
00000100
00000000
00000130
00000000
,
00000001
00000000
00000000
00000000
00000100
00001000
00000000
00020000
00000000
00000000
00000000
00000000
00001000
00000000
00031000
00000000
,
00100000
00000000
00000000
00000000
01000000
00100000
00000000
00020000
00000000
00000000
00000000
00000000
10000000
00000000
10030000
00000000
,
00100000
00000000
00000000
00100000
00010000
00000000
00000000
00010000
00001000
00000000
00010000
00000000
00011000
00000000
00000000
00000000
,
00001000
00000000
00000000
00000000
00100000
00010000
00000000
02000000
00000000
00000000
00000000
00000000
00100000
00000000
03100000
00000000
,
10000000
00000000
00000000
00000000
00100000
00010000
00000000
00002000
00000000
00000000
00000000
00000000
00010000
00000000
00013000
00000000
,
00000100
00000000
00000000
00000000
00000010
00000100
00000000
00002000
00000000
00000000
00000000
00000000
00010000
00000000
00013000
00000000
,
00200000
00000000
00000000
01300000
,
10010000
00000000
00000000
10000000
00000000
00000000
00100000
00000000
00010000
00000000
00001000
00000000
00010000
00000000
00000000
00000000
,
00011000
00000000
00000000
00001000
00000000
00000000
00000100
00000000
00000001
00000000
00001000
00000000
00000001
00000000
00000000
00000000
,
00001001
00000000
00000000
00000001
00000000
00000000
00000010
00000000
00001000
00000000
00010000
00000000
00001000
00000000
00000000
00000000
,
00011000
00000000
00000000
00010000
00000000
00000000
01000000
00000000
10000000
00000000
00010000
00000000
10000000
00000000
00000000
00000000
,
00100000
00011000
00000010
00011000
,
01000000
00011000
00000100
00011000
,
02000000
00000000
00000000
00000000
03002000
00000000
00000000
00020000
,
00000000
00000000
00000000
00000000
,
00000000
00000000
00000000
00000000
,
00000000
00000000
00000000
00000000
,
00033000
00000000
00000000
00000000
;

//---------------dance-double - Talkion-EDP----------------
#NOTEDATA:;
#CHARTNAME:Talkion-EDP;
#STEPSTYPE:dance-double;
#DESCRIPTION:Talkion-EDP;
#DIFFICULTY:Hard;
#METER:11;
#RADARVALUES:0.412333,0.496189,0.145938,0.227015,0.393222,356,338,18,28,0,0,0,0,0,0.412333,0.496189,0.145938,0.227015,0.393222,356,338,18,28,0,0,0,0,0;
#CREDIT:Talkion;
#NOTES:
// measure 0
00000000
00000000
00000000
00000000
,  // measure 1
00000000
00000000
00000000
00000000
,  // measure 2
00000000
00000000
00000000
00000000
,  // measure 3
00000000
00000000
00000000
00000000
,  // measure 4
00000000
00000000
00000000
00000000
,  // measure 5
10000000
00000000
00000000
00000000
10000000
01000000
00000000
01000000
00010000
00000000
00000000
00000000
00001000
00000000
00010000
00000000
,  // measure 6
00001000
00000000
00000000
00000000
00001000
00000100
00000000
00000100
00000001
00000000
00000000
00000000
00000010
00000000
00000001
00000000
,  // measure 7
00000010
00000000
00000000
00000000
00000010
00000100
00000000
00000100
00010000
00000000
00000000
00000000
00001000
00000000
00010000
00000000
,  // measure 8
00002000
00000000
00000000
00000000
00100000
00000000
00000000
00000000
00100000
00000000
00000000
00000000
00103000
00010000
00000000
00000000
,  // measure 9
10010000
00000000
00000000
00000000
10000000
00100000
00000000
00100000
00010000
00000000
00001000
00010000
00100000
00000000
00010000
00000000
,  // measure 10
00011000
00000000
00000000
00000000
00001000
00000010
00000000
00000010
00000001
00000000
00000100
00000010
00001000
00000000
00000010
00000000
,  // measure 11
00000110
00000000
00000000
00000000
00000100
00000001
00000000
00000001
00001000
00000000
00000100
00000001
00000100
00000000
00001000
00000000
,  // measure 12
00010000
00000000
00100000
01000000
10000000
00000000
00100000
00010000
00001000
00010000
00000000
00100000
10000000
00010000
00100000
00000000
,  // measure 13
10010000
00000000
00000000
00000000
10000000
01000000
00000000
01000000
00010000
00000000
00001000
00010000
01000000
00000000
00010000
00000000
,  // measure 14
00011000
00000000
00000000
00000000
00001000
00000100
00000000
00000100
00000001
00000000
00000010
00000100
00001000
00000000
00000100
00000000
,  // measure 15
00000110
00000000
00000000
00000000
00000010
00000001
00000000
00000001
00000100
00000000
00001000
00010000
00001000
00000000
00010000
00000000
,  // measure 16
01000000
00000000
10000000
00010000
01000000
00000000
00100000
00010000
00001000
00000000
00010000
00001000
00000200
00000000
00000000
00000000
,  // measure 17
00000301
00000000
00000002
00000023
00002030
00023000
02030000
23000000
,  // measure 18
30020000
00000000
00000000
00100000
00000000
00000000
00001000
00000000
00032000
00000000
00000000
00000000
00003100
00000000
00000000
00000000
,  // measure 19
00000110
00000000
00000000
00000010
00000001
00000100
00000000
00000100
00000010
00010000
00000000
00010000
00001000
00100000
00000000
00100000
,  // measure 20
01000000
00000000
00000000
01000000
10000000
00000000
00000000
10000000
00010000
00000000
00100000
00000000
00001000
00010000
00001000
00010000
,  // measure 21
00000100
00000000
00000000
00000000
00000100
00001000
00000000
00001000
00000001
00000000
00000100
00000010
00001000
00000000
00000010
00000000
,  // measure 22
00000100
00000000
00000000
00000100
00001000
00000000
00010000
00000000
01000000
00000000
00000000
01000000
00100000
00000000
00010000
00000000
,  // measure 23
01000000
00000000
00000000
00000000
01000000
00010000
00000000
00010000
10000000
00000000
01000000
00100000
00010000
00000000
00100000
00000000
,  // measure 24
01000000
00000000
00000000
01000000
00010000
00000000
00000000
00010000
00000100
00000000
00001000
00000000
00000001
00000100
00000001
00000100
,  // measure 25
00000020
00001000
00000100
00010000
,  // measure 26
00020030
00000100
00001000
01000000
,  // measure 27
02030000
10000000
00010000
00100000
,  // measure 28
03200000
10000000
00010000
00001000
,  // measure 29
00302000
00000000
00003100
00000001
00000200
00000000
00001300
01000000
,  // measure 30
00200000
00000000
10300000
01000000
00020000
00000000
00030100
00001000
,  // measure 31
00000002
00000000
00000103
00001000
00200000
00000000
00301000
00000100
,  // measure 32
00000002
00000000
00000000
00000000
00000000
00000000
00000000
00000000
00001003
00000100
00001000
00000100
00001000
00000100
00010000
00000000
,  // measure 33
00011000
00000000
00000000
00000000
00010000
01000000
00000000
01000000
10000000
00000000
00100000
00010000
00001000
00000000
00010000
00000000
,  // measure 34
00110000
00000000
00000000
00000000
00100000
10000000
00000000
10000000
01000000
00000000
00010000
00001000
00000100
00000000
00000001
00000000
,  // measure 35
00000101
00000000
00000000
00000000
00000100
00001000
00000000
00001000
00010000
00000000
00001000
00000100
00000001
00000000
00000010
00000000
,  // measure 36
00000100
00000000
00010000
00001000
00100000
00000000
01000000
00010000
00001000
00010000
00000000
01000000
10000000
00010000
01000000
00000000
,  // measure 37
10010000
00000000
00000000
00000000
10000000
00100000
00000000
00100000
00010000
00000000
00001000
00010000
01000000
00000000
00010000
00000000
,  // measure 38
00011000
00000000
00000000
00000000
00001000
00000100
00000000
00000100
00000001
00000000
00000010
00001000
00010000
00000000
00001000
00000000
,  // measure 39
00001010
00000000
00000000
00000000
00000010
00000001
00000000
00000001
00000100
00000000
00001000
00010000
01000000
00000000
10000000
00000000
,  // measure 40
00200000
00000000
00000000
00000000
01000000
00000000
00000000
00000000
01300000
00000000
00001000
00010000
00001000
00000000
00000000
00000000
,  // measure 41
00010100
00000000
00000000
00000100
00000010
00000000
00001000
00000000
00010000
01000000
00010000
01000000
10000000
00000000
00010000
00000000
,  // measure 42
01000000
00000000
00000000
01000000
00100000
00000000
00010000
00000000
00001000
00000100
00001000
00000100
00000001
00000000
00000000
00000000
,  // measure 43
00000011
00000000
00000000
00000010
00001000
00000000
00100000
00000000
00010000
01000000
00010000
01000000
10000000
00000000
01000000
00000000
,  // measure 44
00100000
00000000
00000000
00100000
00010000
00000000
00000010
00000000
00001000
00000100
00001000
00000100
00000001
00000000
00000000
00000000
,  // measure 45
00000201
00010300
02010000
13000000
,  // measure 46
10200000
00000000
00000000
00000000
00301000
00000000
00000000
00000000
00000100
00000000
00000010
00000100
00000010
00000000
00000001
00000000
,  // measure 47
00000200
00000000
00001000
00000000
00002300
00000000
00000000
00020000
,  // measure 48
00000000
00000000
00000000
00000000
,  // measure 49
00000000
00000000
00000000
00000000
,  // measure 50
00000000
00000000
00000000
00000000
,  // measure 51
00033000
00000000
00000000
00000000
;
