#TITLE:Shape of You;
#ARTIST:Ed Sheeran;
#BANNER:Shape of You.png;
#BACKGROUND:Shape of You-bg.png;
#MUSIC:Shape of You.ogg;
#OFFSET:-0.027;
#SAMPLESTART:49.97;
#SAMPLELENGTH:15;
#DISPLAYBPM:96;
#BPMS:0=96,47.5=102,48=96,79.5=98,80=96;
#BGCHANGES:-0.25=Shape of You.avi=1=1=0=0=StretchNoLoop==CrossFade==,99999=-nosongbg-=1=0=0=0 // don't automatically add -songbackground-;

//---------------dance-single - RIME-bSP----------------
#NOTES:
     dance-single:
     RIME:
     Beginner:
     1:
     :
0000
0000
0000
0000
,
0000
0000
0000
0000
,
0000
0000
0000
0000
,
0000
0000
0000
0000
,
1000
0000
0000
0000
,
0001
0000
0000
0000
,
1000
0000
0000
0000
,
0001
0000
0000
0000
,
0010
0000
0000
0000
,
0100
0000
0000
0000
,
0010
0000
0000
0000
,
0100
0000
0000
0000
,
1000
0000
1000
0000
,
1000
0000
0000
0000
,
0001
0000
0001
0000
,
0001
0000
0000
0000
,
1000
0000
0001
0000
,
1000
0000
0000
0000
,
0001
0000
1000
0000
,
0001
0000
0000
0000
,
1001
0000
0000
0000
,
0001
0000
0000
0000
,
0110
0000
0000
0000
,
0100
0000
0000
0000
,
1001
0000
0000
0000
,
1000
0000
0000
0000
,
0110
0000
0000
0000
,
0010
0000
0000
0000
,
1000
0000
1000
0000
,
1000
0000
0000
0000
,
0001
0000
0001
0000
,
0001
0000
0000
0000
,
0010
0000
0010
0000
,
0010
0000
0000
0000
,
0100
0000
0100
0000
,
0100
0000
0000
0000
,
0110
0000
0000
0000
;

//---------------dance-single - RIME-BSP----------------
#NOTES:
     dance-single:
     RIME:
     Easy:
     5:
     :
0000
0000
0000
0000
,
0000
0000
0000
0000
,
0000
0000
0000
0000
,
0000
0000
0000
0000
,
1000
0010
1000
0000
,
0010
0010
0100
0002
,
1003
0001
1000
0000
,
0100
0100
0010
0002
,
1003
0001
1000
0000
,
0001
0001
0010
0200
,
1300
0100
0001
0000
,
0100
0010
0001
0001
,
1000
1000
0010
0100
,
0001
0001
0010
0100
,
1000
1000
0100
0010
,
0001
0001
0100
0010
,
1000
1000
0010
0001
,
1000
1000
0100
0001
,
1000
1000
0100
0001
,
2002
0000
0000
0000
0000
0003
3000
0000
,
0010
0010
0100
1000
,
0010
0010
0100
0001
,
1000
1000
0100
0010
,
0001
0001
0100
0010
,
1000
0010
0001
0010
,
1000
0100
0001
0100
,
1000
0100
0001
0010
,
1000
0010
0001
0100
,
1000
1000
0001
0001
,
0100
0100
0010
0010
,
1000
1000
0010
0010
,
0100
0100
0001
0001
,
1000
0001
0020
0130
,
0010
0001
1000
1000
,
0010
0001
0100
1000
,
0010
1000
0200
0010
,
0310
0000
0000
0000
;

//---------------dance-single - RIME-DSP----------------
#NOTES:
     dance-single:
     RIME:
     Medium:
     8:
     :
0000
0000
0000
0000
,
0000
0000
0000
0000
,
0000
0000
0000
0000
,
0000
0000
0000
0000
,
1000
0000
0100
0100
1000
0000
0001
0000
,
0100
0000
0010
0010
1000
0000
0002
0000
,
0013
0000
0001
0001
1000
0000
0100
0000
,
0010
0000
0100
0100
1000
0000
0020
0000
,
0130
0000
0010
1000
0001
0000
0010
0000
,
0100
0000
0010
0001
1000
0000
0020
0000
,
0130
0000
0000
0010
0000
0000
1000
0000
0100
0000
0000
0100
0000
0000
0000
0000
,
0010
0000
0010
0000
0001
0000
0000
1000
0000
0000
0001
0000
0010
0000
0100
0000
,
1000
0100
1000
0000
0001
0100
0001
0000
,
1000
0010
1000
0000
0001
0010
0001
0000
,
1001
0000
1000
0010
0001
0010
1000
0000
,
0001
0010
1000
0010
0001
1000
0001
0000
,
1001
0000
1000
0000
0001
0100
0001
0000
,
1000
0010
1000
0000
0001
0010
0001
0000
,
1001
0000
1000
0100
0001
0100
1000
0000
,
0001
0100
1000
0100
0001
1000
0100
0010
,
0001
0000
0000
0001
0000
0000
0000
0000
1000
0000
0000
1000
0000
0000
0000
0000
,
0010
0000
0000
0010
0000
0000
0000
0000
0100
0000
0000
0100
0000
0000
0000
0000
,
0001
0000
0000
0010
0000
0000
0000
0000
0100
0000
0000
0010
0000
0000
0000
0000
,
0001
0000
0000
1000
0000
0000
0000
0000
0010
0000
0000
0000
0100
0000
0100
0000
,
0001
0000
0000
0010
0000
0000
0100
0000
1000
0000
0000
0100
0000
0000
0010
0000
,
0001
0000
0000
0100
0000
0000
0010
0000
1000
0000
0000
0010
0000
0000
0100
0000
,
0000
0001
1000
0001
0010
0010
0010
0000
,
0100
0000
1000
0000
0010
0100
0001
0100
,
0010
0000
0010
0000
1000
0001
1000
0001
,
0010
0000
0010
0000
0001
1000
0001
1000
,
0100
0000
0100
0000
1000
0001
1000
0001
,
0010
0000
0010
0000
0100
1000
0100
1000
,
0010
0000
0010
0000
0200
0000
0301
0100
,
0001
0000
1000
0000
0010
0100
0010
0100
,
0001
0000
0010
0000
1000
0010
0001
0100
,
1000
0000
0100
0000
0010
0100
0001
1000
,
1001
0000
0000
0000
;

//---------------dance-single - RIME-ESP----------------
#NOTES:
     dance-single:
     RIME:
     Hard:
     13:
     :
0000
0000
0000
0000
,
0000
0000
0000
0000
,
0000
0000
0000
0000
,
0000
0000
0000
0000
0000
0000
0000
0000
0000
0000
0000
0000
0000
0000
0000
1000
,
0001
0000
0010
0001
0100
0010
0000
1010
0000
1000
1000
0001
0010
0100
0010
0001
,
0100
0000
0100
0000
0010
1000
0000
0001
0000
0000
0010
0000
0200
0310
0100
0000
,
1000
0100
1000
0001
0000
0100
0000
0010
0100
0100
0001
0100
0001
0000
1000
0100
,
0010
0000
0001
0010
0001
1000
0000
0010
0100
0000
0001
0000
2000
3001
1000
0100
,
1000
0010
0100
0010
1000
0100
0010
0010
0001
1000
0010
0100
0000
0001
0000
1000
,
0001
0000
0010
0010
0001
0010
0100
2000
0000
0000
3001
0000
2000
3010
1000
0100
,
0010
0000
0100
0110
0000
0010
0001
0100
0010
1000
0010
1000
0000
1001
0000
0001
,
0010
0000
0100
0000
0010
0000
0001
1000
0000
0010
0010
1000
0001
0010
0100
0000
,
1100
0000
1100
0000
1100
0000
1000
0000
0001
0000
0100
0010
0100
0000
0001
0000
,
0010
0001
0000
0001
0100
0000
0010
0000
1010
0000
1000
0000
0001
0010
1000
0010
,
0001
0000
1000
0000
0001
0100
1000
0000
0100
0010
1000
0000
0100
0000
0010
0000
,
0001
0010
0000
0010
1000
0000
0010
0000
0100
0000
1000
0000
0010
0000
0100
0000
,
0101
0000
0000
0000
0101
0000
0001
0000
1000
0000
0100
0010
0100
0000
1000
0000
,
0010
1000
0000
1000
0100
0000
0010
0000
0011
0000
0001
0000
1000
0010
0001
0010
,
1000
0000
0001
0000
1000
0100
0001
0000
0100
0010
0001
0000
1000
0000
1001
0000
,
0001
0100
0010
0000
1000
0010
0200
0301
0100
0000
0120
0000
2030
0000
3001
0000
,
1001
0000
0000
1000
0000
0100
1000
0010
0100
0000
0001
1000
0100
0000
0010
0000
,
0110
0000
0000
0010
0000
0001
0010
0100
1000
0000
0010
1000
0001
0000
0020
0130
,
0010
0000
0000
0011
0000
0001
1000
0010
0100
0000
0010
0000
2000
0000
3001
0000
,
1001
0000
0000
1000
0000
0100
1000
0010
0100
0000
0001
0100
0002
0000
0000
1003
,
0001
0000
0000
0011
0000
0010
0100
0000
1000
0000
0010
0100
0010
0000
1000
0000
,
1100
0000
0000
0100
0000
0010
0100
1000
0001
0000
0100
0000
1000
0000
0100
0000
,
0010
0000
1000
1000
0010
1000
0001
0010
0100
0000
0010
0000
0001
0000
2000
3001
,
1000
0000
0000
1010
0000
0010
0100
0001
1000
0000
0100
0010
0100
1000
0010
0100
,
0010
0000
1000
0010
0100
0001
0000
0100
0001
0000
1000
0000
0100
0000
0100
0000
,
0010
0000
0001
0010
0001
0100
0010
1000
0100
0000
0010
0100
2000
3001
1000
0010
,
0100
0010
0100
0001
0000
0010
0000
0100
0010
0000
0001
0000
1000
0000
1000
0000
,
0010
0000
1000
0010
0000
1000
0100
0010
0001
0000
1000
1000
0010
0100
0010
1000
,
0000
0100
0010
0100
0000
1000
0000
0001
0200
0000
0010
0000
0301
0100
0010
0000
,
0100
0001
1000
0100
0000
0010
0100
1000
0010
0000
0100
0010
0200
0000
0000
0301
,
0100
0000
0010
0010
0100
0010
1000
0001
0010
0000
0100
0000
1000
0000
0002
1003
,
0001
0000
0000
0101
0000
0100
0010
1000
0001
0000
0010
0100
0010
0000
0010
0000
,
2002
3003
0000
0000
0000
0000
0000
0000
;

//---------------dance-double - NewbStepper-BDP----------------
#NOTES:
     dance-double:
     NewbStepper:
     Easy:
     5:
     :
00000000
00000000
00000000
00000000
,
00000000
00000000
00000000
00000000
,
00000000
00000000
00000000
00000000
,
00000000
00000000
00000000
00000000
,
00010000
00001000
00010000
00000000
,
00100000
00100000
01000000
00020000
,
10030000
00010000
10000000
00000000
,
01000000
01000000
00100000
00002000
,
00013000
00001000
00010000
00000000
,
00000010
00000010
00000100
00000002
,
00000103
00001000
00010000
00000000
,
01000000
00100000
00010000
00010000
,
10000000
10000000
00100000
00010000
,
00001000
00001000
00000010
00000100
,
00001000
00001000
00000100
00000010
,
00000001
00000001
00000100
00000010
,
00010000
00010000
00100000
10000000
,
00010000
00010000
10000000
00100000
,
00010000
00001000
00000100
00000001
,
00002002
00000000
00000000
00003003
,
00000010
00000010
00000100
00001000
,
00000010
00000010
00000100
00000001
,
00001000
00001000
00000100
00010000
,
00001000
00001000
01000000
00100000
,
10000000
00100000
00010000
00100000
,
10000000
01000000
00010000
00001000
,
00000100
00000001
00000010
00001000
,
00000010
00000001
00000100
00001000
,
00010000
00010000
00001000
00001000
,
01000000
01000000
00100000
00100000
,
10000000
10000000
00100000
00100000
,
00010000
00010000
00001000
00001000
,
00000100
00000001
00000020
00000130
,
00000010
00000001
00001000
00001000
,
00000010
00000100
00001000
00010000
,
00100000
10000000
02000000
00000000
,
03000000
00000000
00000000
00000000
;

//---------------dance-double - NewbStepper-DDP----------------
#NOTES:
     dance-double:
     NewbStepper:
     Medium:
     8:
     :
00000000
00000000
00000000
00000000
,
00000000
00000000
00000000
00000000
,
00000000
00000000
00000000
00000000
,
00000000
00000000
00000000
00000000
,
00000100
00000000
00000001
00000010
00000001
00000000
00000100
00001000
,
00010000
00000000
01000000
00000000
10000000
00000000
00010000
10000000
,
01000000
00000000
10000000
00100000
10000000
00000000
01000000
00010000
,
00001000
00000010
00000001
00001001
,
00000010
00000000
00000001
00000100
00000010
00000000
00001000
00000100
,
00000010
00001000
00011000
01000000
,
00100000
00000000
10000000
01000000
00100000
00000000
00010000
01000000
,
00100000
10000000
01000000
00010000
00001000
00000000
00011000
00000000
,
00000010
00000000
00000001
00000100
00000010
00001000
00000001
00000000
,
00000100
00000001
00000010
00001000
00010000
00100000
10000000
00000000
,
10010000
00000000
01000000
10000000
00100000
01000000
00010000
00000000
,
10000000
01000000
00010000
00001000
00000010
00000001
00001000
00000100
,
00000010
00000000
00000001
00000100
00000010
00001000
00000001
00000000
,
00000100
00000001
00000010
00001000
00010000
00100000
10000000
00000000
,
10010000
00000000
01000000
10000000
00100000
01000000
00010000
00000000
,
00022000
00000000
00000000
00033000
,
00000100
00000000
00000001
00000000
00000010
00000100
00001000
00000001
,
00000100
00000000
00001000
00000000
00010000
01000000
10000000
00010000
,
01000000
00000000
00010000
00000000
10000000
01000000
00100000
00010000
,
10000000
00000000
01000000
00000000
00010000
00001000
00000010
00001000
,
00010000
00000000
00011000
00000000
00100000
01000000
00010000
10000000
,
01000000
00000000
00010000
00000000
00001000
00000100
00000001
00001000
,
00000100
00000000
00001000
00000000
00000001
00000100
00000010
00001000
,
00000001
00000000
00000100
00000000
00001000
00010000
00100000
00010000
,
00001000
00000000
00010000
00000000
01000000
00000000
10000000
00100000
,
10000000
00000000
00010000
00000000
00100000
00000000
00001000
00010000
,
00001000
00000000
00000010
00000000
00000001
00000000
00000100
00000001
,
00000100
00000000
00001000
00000000
00010000
00001000
00000010
00001000
,
00010000
00000000
00001000
00000000
00000100
00000000
00000001
00000010
,
00000001
00000000
00001000
00000000
00000010
00000000
00010000
00001000
,
01000000
00000000
00010000
00000000
10000000
01000000
00100000
00010000
,
10000000
01000000
00020000
00000000
,
00030000
00000000
00000000
00000000
;

//---------------dance-double - NewbStepper-EDP----------------
#NOTES:
     dance-double:
     NewbStepper:
     Hard:
     12:
     :
00000000
00000000
00000000
00000000
,
00000000
00000000
00000000
00000000
,
00000000
00000000
00000000
00000000
,
00000000
00000000
00000000
00000000
,
00001000
00000000
00000100
00000000
00000001
00000000
00000010
00000000
00000001
00000000
00000100
00001000
00010000
00000000
01000000
10000000
,
00100000
00000000
10000000
00000000
01000000
00010000
00000000
00010000
00000000
00000000
00001000
00000000
00000100
00000001
00000100
00000000
,
00001000
00010000
00001000
00010000
00000000
00100000
00000000
10000000
01000000
00010000
00001000
00000000
00000010
00000000
00001000
00000000
,
00010000
00000000
00100000
00000000
00010000
00001000
00000000
00000100
00000000
00000000
00000001
00000000
00000100
00000000
00001000
00000000
,
00010000
00100000
10000000
01000000
00000000
01000000
10000000
00100000
01000000
00010000
10000000
01000000
00000000
00010000
00000000
00001000
,
00000010
00000000
00000001
00000100
00000010
00001000
00000000
00000002
00000000
00000000
00000000
00000000
00001003
00000000
00000100
00000010
,
00000100
00000000
00000000
00001100
00000000
00010000
00001000
00010000
00001000
00100000
00010000
10000000
00000000
01000000
00000000
00010000
,
00001000
00000000
00000010
00000000
00000001
00000000
00001000
00000100
00000000
00000010
00000001
00000000
00000100
00001000
00010000
00000000
,
00100000
00100000
10000000
01000000
00010000
00001000
00000010
00000000
,
00000001
00000010
00000000
00000100
00001000
00000000
00000010
00000000
00001000
00000000
00010000
00000000
01000000
00010000
10000000
00000000
,
01000000
00000000
00000000
00000000
10000000
01000000
00010000
00000000
00001000
00000100
00000001
00000000
00000010
00000000
00000000
00000000
,
00000001
00000100
00000000
00000010
00001000
00000000
00000100
00000000
00001000
00000000
00010000
00000000
00100000
00000000
01000000
00000000
,
10010000
00000000
10000000
01000000
00010000
00001000
00000010
00000000
,
00000001
00000010
00000000
00000100
00001000
00000000
00000010
00000000
00001000
00000000
00010000
00000000
01000000
00010000
10000000
00000000
,
01000000
00000000
00000000
00000000
10000000
01000000
00010000
00000000
00001000
00000100
00000001
00000000
00000010
00000000
00000010
00000000
,
00000001
00000100
00001000
00000000
00010000
01000000
10000000
00000000
00100000
00000000
00200000
00000000
00000000
00000000
00300000
00000000
,
11000000
00000000
00000000
10010000
00000000
00000000
10000000
00100000
00010000
00000000
00001000
00000100
00000001
00000000
00000010
00000000
,
00000011
00000000
00000000
00001001
00000000
00000000
00000001
00000010
00001000
00000000
00010000
01000000
10000000
00000000
00100000
00000000
,
10100000
00000000
00000000
10010000
00000000
00100000
10000000
01000000
00010000
00000000
00001000
00000010
00000001
00000000
00000100
00000000
,
00000101
00000000
00000000
00001001
00000000
00000000
00000001
00000100
00001000
00000000
00010000
00100000
20000000
00000000
00000000
00000000
,
30010000
00000000
00000000
10010000
00000000
00000000
00100000
10000000
00100000
00000000
00010000
00001000
00010000
00000000
00000100
00000000
,
00000010
00000000
00000000
00000011
00000000
00000000
00000001
00000100
00001000
00000000
00010000
00000000
00001000
00000000
00000010
00000000
,
00000001
00000000
00000100
00000010
00001000
00000100
00010000
00001000
01000000
00000000
00010000
00000000
10000000
00000000
00100000
00000000
,
01100000
00000000
00000000
10010000
00000000
00000000
10000000
01000000
00010000
00000000
00001000
00000010
00000002
00000000
00000000
00000000
,
00001003
00000000
00000010
00000100
00000000
00000001
00000000
00000010
00001000
00000000
00010000
00000000
00100000
00000000
10000000
00000000
,
00010000
00000000
01000000
00100000
00000000
10000000
00010000
10000000
01000000
00010000
00001000
00100000
00010000
10000000
00100000
01000000
,
00010000
00000000
00100000
01000000
00000000
10000000
00000000
00100000
00010000
00000000
00001000
00000000
00000010
00000000
00000001
00000000
,
00001000
00000000
00000100
00000010
00000000
00000001
00001000
00000001
00000100
00001000
00010000
00000010
00001000
00000001
00000010
00000100
,
00001000
00000000
00000001
00000100
00000000
00001000
00000000
00010000
00100000
00000000
10000000
00000000
00010000
00000000
01000000
00000000
,
10010000
00000000
10000000
01000000
00000000
00010000
00000000
00001000
00000010
00000001
00000010
00000001
00001000
00000010
00000100
00000000
,
00000001
00000000
00000100
00000010
00001000
00000100
00010000
00001000
01000000
00000000
00010000
00000000
10000000
00000000
00100000
00000000
,
01100000
00000000
00000000
10010000
00000000
00000000
10000000
01000000
00010000
00000000
00001000
00000010
00000001
00000000
00000100
00000000
,
00002002
00003003
00000000
00000000
00000000
00000000
00000000
00000000
;
