#TITLE:灼熱Beach Side Bunny (STARDOM Remix);
#ARTIST:SYUNN;
#TITLETRANSLIT:Shakunetsu Beach Side Bunny (STARDOM Remix);
#BANNER:Shakunetsu Beach Side Bunny (STARDOM Remix).png;
#BACKGROUND:Shakunetsu Beach Side Bunny (STARDOM Remix)-bg.png;
#MUSIC:Shakunetsu Beach Side Bunny (STARDOM Remix).ogg;
#OFFSET:-0.63;
#SAMPLESTART:21.5;
#SAMPLELENGTH:15;
#BPMS:0=138;

//---------------dance-single - Pandemonium X-bSP----------------
#NOTES:
     dance-single:
     Pandemonium X:
     Beginner:
     4:
     0.174622,0.268037,0.207179,0,0,118,98,20,0,0,0,0.174622,0.268037,0.207179,0,0,118,98,20,0,0,0:
0000
0000
0000
0000
,
0000
0000
0000
0000
,
0000
0000
0000
0000
,
0000
0000
0000
0000
,
1000
0000
0000
0000
,
0001
0000
0000
0000
,
1000
0000
0000
0000
,
0001
0000
0000
0000
,
0100
0000
0000
0000
,
0010
0000
0000
0000
,
0100
0000
0100
0000
,
1001
0110
1001
0000
,
0001
0001
0001
0000
,
1000
1000
1000
0000
,
0010
0010
0010
0000
,
0100
0000
0100
0000
,
0010
0010
0010
0000
,
1000
1000
1000
0000
,
0100
0100
0100
0000
,
1000
0000
0001
0000
,
0100
0000
0001
0000
,
0010
0010
0001
0000
,
1000
0000
0010
0000
,
0100
0100
0001
0000
,
1000
0000
0001
0000
,
0010
0010
0100
0000
,
0010
0000
0001
0000
,
1000
1000
1000
0000
,
1001
0000
0000
0000
,
0010
0000
0000
0000
,
0110
0000
0000
0000
,
0100
0000
0000
0000
,
1001
0000
0001
0000
,
1000
0000
0010
0000
,
1000
0000
0100
0000
,
0010
0010
0010
0000
,
1001
0000
0000
0000
,
0001
0000
0000
0000
,
0100
0000
0001
0000
,
0010
0000
0000
0000
,
0100
0000
0000
0000
,
1000
0000
0000
0000
,
0001
0000
1000
0000
,
0010
0000
0100
0000
,
1001
1001
1001
0000
,
0010
0000
0010
0000
,
0110
0110
0110
0000
,
1000
0000
1000
0000
,
1001
1001
0110
0000
,
0100
0000
0010
0000
,
0110
0110
1001
0000
,
0010
0000
0100
1001
;

//---------------dance-single - Pandemonium X-BSP----------------
#NOTES:
     dance-single:
     Pandemonium X:
     Easy:
     7:
     0.331486,0.402056,0.611177,0.165743,0,224,165,59,16,0,0,0.331486,0.402056,0.611177,0.165743,0,224,165,59,16,0,0:
0000
0000
0000
0000
,
0000
0000
0000
0000
,
0000
0000
0000
0000
,
0000
0000
0000
0000
,
1000
0000
0002
0000
0000
2000
0000
3003
,
1000
0000
0002
0000
0000
0200
0303
0000
,
0001
0000
2000
0000
0000
0002
0000
3003
,
0001
0000
2000
0000
0000
0200
0000
3300
,
1000
1000
1000
1000
,
0001
0001
0001
0001
,
0110
0000
1001
0000
,
0110
1001
0110
0000
,
1010
0101
1010
0101
,
0001
0100
0010
1000
,
1100
0011
1100
0011
,
1100
0100
1000
0100
,
1001
0110
1001
0110
,
0010
1000
0001
0010
,
0110
0011
0110
0011
,
0010
0100
1000
1001
,
1010
1100
1010
1100
,
0100
1000
0010
0100
,
0101
0011
0101
0011
,
0100
0100
0001
0001
,
1001
1010
1001
0011
,
0001
1000
0100
1000
,
1001
1100
1001
0101
,
0001
0100
0010
1001
,
0002
0000
0000
0003
,
2000
0000
0000
3000
,
0020
0000
0000
0030
,
0200
0000
0000
0000
0000
0310
0100
0000
,
0020
0000
0000
0030
,
2000
0000
0000
3000
,
0002
0000
0000
0003
,
0200
0000
0300
0000
,
0010
1000
0010
0001
,
0010
1000
0100
0001
,
0100
0010
0001
0100
,
0001
1000
0100
1000
,
0010
0100
0001
0010
,
1000
0010
0100
1000
,
0010
0001
0010
0100
,
0010
1001
0010
1001
,
0101
1010
1100
0011
,
0001
1000
0010
1000
,
1100
0110
0011
0110
,
0100
0000
0010
0001
0010
0000
0001
0000
,
0101
1010
1100
1001
,
0001
1000
0010
1000
,
1010
0101
0011
0110
,
0100
0000
0010
0100
1000
0000
1001
0000
;

//---------------dance-single - Pandemonium X-DSP----------------
#NOTES:
     dance-single:
     Pandemonium X:
     Medium:
     10:
     0.436555,0.509271,0.445434,0.279691,0.145025,295,252,43,27,0,0,0.436555,0.509271,0.445434,0.279691,0.145025,295,252,43,27,0,0:
0000
0000
0000
0000
,
0000
0000
0000
0000
,
0000
0000
0000
0000
,
0000
0000
1001
0000
,
0002
0000
2003
0000
0000
0200
0000
3300
,
2000
0000
3002
0000
0000
0200
0000
0303
,
0002
0000
2003
0000
0000
0200
0000
3300
,
2000
0000
3002
0000
0000
0200
0000
0303
,
0002
0000
2003
0000
0000
0020
0000
3030
,
2000
0000
3002
0000
0000
0020
0000
0033
,
0011
0000
1100
0000
,
1001
0110
1001
0000
,
0001
0000
0000
0000
1000
0000
0000
0000
0010
0000
0000
0100
0000
0000
0010
0000
,
1000
0000
0000
0000
0010
0000
0000
0000
0100
0000
0000
0001
0000
0000
0010
0000
,
0100
0000
0000
0000
0010
0000
0000
0000
0001
0000
0000
1000
0000
0000
0100
0000
,
1000
0010
0100
0010
1000
0010
0100
0010
,
1000
0000
0000
0000
0001
0000
0000
0000
0010
0000
0000
0010
0000
0000
0010
0000
,
0100
0000
0000
0000
1000
0000
0000
0000
0010
0000
0000
1000
0000
0000
0010
0000
,
0100
0000
0000
0000
0001
0000
0000
0000
0010
0000
0000
0100
0000
0000
0010
0000
,
0001
0000
1000
0000
0001
0100
1000
0000
,
1100
0000
0110
0000
0100
0010
1000
0000
,
0001
0000
0001
0000
0101
0000
0000
0000
0100
0000
0000
0010
0000
0000
1000
0000
,
1001
0000
1010
0000
1000
0010
0001
0000
,
0010
0000
0100
0000
0001
0000
1000
0000
0100
0000
0000
1000
0000
0000
0001
0000
,
0101
0000
0000
0000
0101
0000
0000
0000
0001
0000
0000
1000
0000
0000
0100
0000
,
0010
0000
0010
0000
0100
0000
0000
0000
0010
0000
0000
0001
0000
0000
1000
0000
,
1010
0000
0000
0000
1010
0000
0000
0000
1000
0000
0000
0001
0000
0000
0010
0000
,
0100
0010
0001
0010
0100
0010
0001
1000
,
1002
0000
1000
0000
1000
1000
1003
0000
,
2001
0000
0001
0000
0001
0001
3001
0000
,
0210
0000
0010
0000
0010
0010
0310
0000
,
0120
0000
0100
0000
0100
0100
0130
0000
,
1002
0000
1000
0000
1000
1000
1003
0000
,
1020
0000
1000
0000
1000
1000
1030
0000
,
0201
0000
0001
0000
0001
0001
0001
0000
,
0301
0100
0010
1000
0000
0000
0000
0000
,
0000
0000
1000
0000
0100
0000
0000
0010
0000
0100
0000
0000
1000
0000
0010
0000
,
0100
0000
0001
0000
0010
0000
0000
0100
0000
0010
0000
0000
0100
0000
1000
0000
,
0002
0000
0000
0000
0203
0000
0000
0310
0000
1000
0000
0001
1000
0000
0100
0000
,
0000
0000
0010
0000
0100
0000
1000
0000
0001
0000
0000
0100
0000
0000
0001
0000
,
1000
0000
0100
0000
0001
0000
0100
0000
1000
0000
0000
0010
0000
0000
0001
0000
,
0100
0000
1000
0000
0100
0000
0010
0000
0100
0000
0000
0001
0000
0000
0100
0000
,
0001
1000
0001
1000
0010
0100
0010
0100
,
0001
1000
0010
0100
0001
1000
0010
0100
,
1001
0000
0000
0000
1001
0000
0000
0000
1001
0000
0000
1001
0000
0000
1001
0000
,
0001
0000
0000
0000
1000
0000
0000
0000
0010
0000
0000
0100
0000
0000
0001
0000
,
0011
0000
0000
0000
0011
0000
0000
0000
0011
0000
0000
0011
0000
0000
0011
0000
,
0010
0000
0000
0000
0100
0000
1000
0000
0100
0000
0000
1000
0000
0000
0010
0000
,
0110
0000
0000
0000
0110
0000
0000
0000
0110
0000
0000
0110
0000
0000
0110
0000
,
0010
0000
0000
0000
1000
0000
0000
0000
0001
0000
0000
1000
0000
0000
0100
0000
,
1100
0000
0000
0000
0110
0000
0000
0000
0011
0000
0000
0110
0000
0000
1100
0000
,
0100
1000
0010
0100
0001
0010
1001
0000
;

//---------------dance-single - Pandemonium X-ESP----------------
#NOTES:
     dance-single:
     Pandemonium X:
     Hard:
     14:
     0.695529,0.834930,0.403999,0.082871,0.678510,470,431,39,8,0,0,0.695529,0.834930,0.403999,0.082871,0.678510,470,431,39,8,0,0:
// measure 0
0000
0000
0000
0000
,  // measure 1
0000
0000
0000
0000
,  // measure 2
0000
0000
0000
0000
,  // measure 3
0000
0000
0000
0000
,  // measure 4
0201
1000
0001
1300
,  // measure 5
0020
1000
0001
1030
,  // measure 6
0200
1000
0001
1300
,  // measure 7
0020
0001
1000
0031
,  // measure 8
0100
0001
0010
0001
1000
0010
0100
0010
,  // measure 9
1000
0001
1000
0000
0001
0000
0010
0000
0001
0000
1000
0000
0010
0000
0100
0000
,  // measure 10
0001
0010
1100
0000
1000
0010
0101
0000
,  // measure 11
0001
0100
0010
1000
0100
0001
0100
1000
0100
0000
0000
0000
,  // measure 12
1100
0000
0000
0000
1100
0000
0000
0000
1100
0000
0000
1100
0000
0000
1100
0000
,  // measure 13
1001
0000
0000
0000
0101
0000
0000
0000
1001
0000
0000
1010
0000
0000
1001
0000
,  // measure 14
0011
0000
0000
0000
0011
0000
0000
0000
0011
0000
0000
0011
0000
0000
0011
0000
,  // measure 15
1001
0000
1000
0000
1000
0000
0001
0000
0010
0000
0100
0010
0000
0001
0100
0000
,  // measure 16
0001
0010
0001
0000
0100
0000
0001
0000
0100
0000
0010
1000
0000
1000
0010
0000
,  // measure 17
0100
0001
0100
0000
0001
0000
1000
0000
0100
0000
0010
0100
0000
1000
0010
0000
,  // measure 18
0100
0010
0100
0000
0010
0000
1000
0000
0001
0000
0010
0001
0000
1000
0100
0000
,  // measure 19
1000
0000
0001
0000
0100
0000
0010
0000
1000
0000
0001
1000
0100
0000
0000
0000
,  // measure 20
1000
0000
0010
0000
0010
0000
0100
0000
0010
0000
0100
0001
0000
0010
0100
0000
,  // measure 21
0010
0000
0010
0000
0010
0000
0000
0000
0100
0000
0010
0001
0000
0010
0100
0000
,  // measure 22
0010
0000
0001
0000
0001
0000
1000
0000
0001
0000
1000
0010
0000
1000
0100
0000
,  // measure 23
0010
0001
0010
0000
0001
0100
0001
0000
0100
0000
0010
1000
0000
0100
0010
0000
,  // measure 24
1100
0000
0000
0000
0011
0000
0000
0000
1010
0000
0000
0101
0000
0000
0011
0000
,  // measure 25
0010
0000
0100
0000
1100
0000
0000
0000
0100
0000
1000
0100
0000
0100
0010
0000
,  // measure 26
0110
0000
0000
0000
1100
0000
1000
0000
1010
0000
0000
0101
0000
0000
1001
0000
,  // measure 27
0001
0010
0100
0000
0010
0000
0001
1000
0010
0000
0100
0000
1001
0000
0000
0000
,  // measure 28
0001
0100
0010
1000
0010
0100
0001
0010
0100
0000
0010
0000
1001
0000
0000
0000
,  // measure 29
1000
0000
0001
0000
0100
0010
1000
0100
0010
0000
0001
0000
1001
0000
0000
0000
,  // measure 30
1000
0001
0100
0001
1000
0100
1000
0000
0001
0000
0001
0000
1001
0000
0000
0000
,  // measure 31
0001
1000
0010
1000
0001
0000
1000
0100
0010
0001
0010
0000
1002
0000
0000
0000
,  // measure 32
1003
0010
0100
0001
0010
0100
0010
0000
0001
0000
1000
0000
0110
0000
0000
0000
,  // measure 33
0100
1000
0100
0010
1000
0000
0010
1000
0001
0010
1000
0010
0001
0000
0000
0000
,  // measure 34
1000
0100
1000
0001
0100
0001
1000
0000
0001
0000
1000
0000
0110
0000
0000
0000
,  // measure 35
0100
0010
1000
0001
0010
0100
1000
0001
0020
0000
0000
0000
0030
0000
0000
0000
,  // measure 36
0100
0000
1000
0000
1000
0000
0001
1000
0000
1000
0000
1000
0010
0000
0100
0000
,  // measure 37
0001
0000
0010
0000
0010
0000
0010
0100
0000
0100
0000
0100
0010
0000
0001
0000
,  // measure 38
1000
0010
1000
0001
0010
0001
1000
0010
0000
0010
0000
0010
1000
0000
0001
0000
,  // measure 39
0010
0000
0100
0000
0100
0000
1000
0000
1000
0000
0001
1000
0000
1000
0010
0000
,  // measure 40
0100
0001
0100
0010
0100
0001
1000
0000
0100
0000
0000
1000
0000
0000
0001
0000
,  // measure 41
1000
0010
0100
0001
0010
0000
0100
0000
0010
0000
0001
0010
0000
0100
1000
0000
,  // measure 42
0001
0100
0001
0100
0001
0100
0001
0100
0010
1000
0010
1000
0010
1000
0010
1000
,  // measure 43
0001
1000
0001
1000
0001
1000
0001
1000
0010
0100
0010
0100
0010
0000
0000
0000
,  // measure 44
0100
0000
0001
0000
0010
0100
1000
0000
0100
0000
1000
0010
0000
0100
0001
0000
,  // measure 45
1000
0000
0001
0010
0100
0010
0001
0000
0100
0000
0010
0100
0000
0100
0001
0000
,  // measure 46
1010
0000
0010
0100
0001
0100
0010
0000
0100
0000
0010
1000
0000
0001
0010
0000
,  // measure 47
0100
0000
0010
0001
0100
0010
0100
0000
0010
0000
1000
0010
0000
0100
0001
0000
,  // measure 48
1000
0000
0001
0100
0010
0000
0100
0010
1000
0000
0001
0010
0000
0001
0010
0000
,  // measure 49
0100
0000
0010
0001
0100
0000
0010
1000
0100
0000
0010
0100
0000
0010
0100
0000
,  // measure 50
1000
0000
0001
0100
0010
0000
0100
0010
1000
0000
0001
0010
0000
0100
1000
0000
,  // measure 51
0001
0000
1000
0010
0100
0000
0001
0010
0100
0000
0010
0000
2002
0000
0000
0000
,  // measure 52
3003
0000
0000
0000
;

//---------------dance-single - Talkion-CSP----------------
#NOTES:
     dance-single:
     Talkion:
     Challenge:
     15:
     0.722166,0.777309,0.652613,0.051795,0.580100,488,425,63,5,92,0,0.722166,0.777309,0.652613,0.051795,0.580100,488,425,63,5,92,0:
0000
0000
0000
0000
,
0000
0000
0000
0000
,
0000
0000
0000
0000
,
0000
0000
0000
0000
,
1100
0000
0000
0000
0101
0000
0000
0000
1100
0000
0000
0100
1000
0000
0001
0000
,
0011
0000
0000
0000
1010
0000
0000
0000
0011
0000
0000
0010
0001
0000
1000
0000
,
0010
0000
0010
0100
0001
0000
1000
0000
0100
0000
0010
0100
1000
0000
0001
0000
,
0100
0000
0100
0010
1000
0000
0001
0000
0010
0000
0100
0010
0001
0000
2000
0000
,
3010
1000
0001
0010
0100
1000
0001
0100
,
0010
0100
0001
0000
1000
0000
0100
0000
0010
0000
0001
0000
1000
0000
0010
0000
,
0100
0010
1000
0010
0100
0010
1000
0001
0010
0100
1000
0001
0100
0010
1000
0000
,
1010
0000
0000
MMMM
0000
0000
0101
0000
0000
MMMM
0000
0000
1010
0000
1000
0000
0100
0000
MMMM
0000
0000
0000
0000
0000
,
0011
0000
0000
0000
0011
0000
0000
0000
1010
0000
0000
0011
0000
0000
1000
0000
,
1100
0000
0000
0000
1100
0000
0000
0000
0101
0000
0000
1100
0000
0000
0001
0000
,
0011
0000
0000
0000
0011
0000
0000
0000
1010
0000
0000
0011
0000
0000
1000
0000
,
0001
0000
MMMM
0000
1000
0000
MMMM
0000
0001
0000
0100
0010
0000
0000
0010
0000
,
1000
0000
0000
0000
0001
0000
0010
0000
0000
MMMM
0000
0000
1000
0000
0010
0000
0000
MMMM
0000
0000
0010
0000
0000
0000
0100
0000
0010
0000
1000
0000
0000
0000
,
0001
0000
0000
0000
1000
0000
0100
0000
0000
MMMM
0000
0000
0001
0000
0100
0000
0000
MMMM
0000
0000
0100
0000
0000
0000
0010
0000
0100
0000
0001
0000
0000
0000
,
1000
0000
0000
0000
0001
0000
0010
0000
0000
MMMM
0000
0000
1000
0000
0010
0000
0000
MMMM
0000
0000
0010
0000
0000
0000
0100
0000
0010
0000
1000
0000
0000
0000
,
0001
0000
1000
0000
0100
0010
0001
0000
1000
0010
0100
0001
2000
0000
3000
0000
,
0011
0000
0100
0000
1001
0000
0100
0000
1010
0000
0001
0010
0100
0000
1000
0000
,
1001
0000
0100
0000
1001
0000
0001
0000
0110
0000
1000
0010
0100
0000
0001
0000
,
0101
0000
1000
0000
0101
0000
1000
0000
1100
0000
0001
0100
0010
0000
1000
0000
,
0001
0000
0010
0100
1000
0000
0001
0000
0100
0000
2000
0000
3100
0010
0100
0010
,
1000
0000
0010
0000
1001
0000
0010
0000
0101
0000
1000
0100
0010
0000
0001
0000
,
1001
0000
0010
0000
1001
0000
1000
0000
0110
0000
0001
0100
0010
0000
1000
0000
,
1010
0000
0001
0000
1010
0000
0001
0000
0011
0000
1000
0010
0100
0000
0001
0000
,
1000
0000
0000
0001
0010
0100
1000
0010
0100
MMMM
0000
0000
,
1000
1000
0010
0001
0010
1000
MMMM
0000
,
1000
1000
0100
0001
0100
1000
MMMM
1000
,
0001
0001
0100
1000
0100
0001
MMMM
0000
,
0001
1000
0010
0010
0100
0001
MMMM
0000
,
0010
0000
1000
0001
1000
0000
0001
0010
0001
0000
1000
0000
MMMM
0000
0010
0000
,
0100
0000
1000
0001
1000
0000
0001
0100
0001
0000
1000
0000
MMMM
0000
1000
0000
,
0001
0010
0100
1000
0001
0100
0010
1000
0001
0100
0001
1000
0100
1000
0001
0100
,
0001
1000
0100
0010
0001
0100
0010
1000
0001
0000
0000
0000
MMMM
0000
0000
0000
,
0001
0000
0000
0000
1000
0000
0100
0000
0000
MMMM
0000
0000
0001
0000
0100
0000
0000
0000
0100
0000
1000
0000
0100
0000
0010
0000
0000
0000
0100
0000
0000
0000
,
0001
0000
0000
0000
1000
0000
0010
0000
0000
MMMM
0000
0000
0001
0000
0010
0000
0000
0000
0010
0000
1000
0000
0010
0000
0100
0000
0000
0000
1000
0000
0000
0000
,
0001
0000
0000
0000
0100
0000
0010
0000
0000
MMMM
0000
0000
0010
0000
0100
0000
0000
MMMM
0000
0000
1000
0000
0000
0000
0001
0000
0010
0000
1000
0000
0000
0000
,
0010
0000
0100
0010
0000
0001
0100
0010
0000
1000
0100
0010
0002
0000
0000
0000
,
1003
0000
0001
0100
0010
0000
0100
0010
1000
0000
0010
1000
0001
0000
0010
0000
,
0100
0000
1000
0001
0100
0000
0001
0100
0010
0000
0100
0010
1000
0000
0002
0000
,
0013
0000
0001
1000
0100
1000
0001
0000
0100
0000
0010
1000
0001
1000
0010
0000
,
0100
0010
1000
0010
0100
0010
1000
0001
0010
0100
1000
0001
0100
0010
0100
0001
,
1000
0000
0010
0000
0101
0000
0010
0000
1001
0000
1000
0100
0010
0000
1000
0000
,
1010
0000
0100
0000
0011
0000
0100
0000
1001
0000
0001
0100
0010
0000
0001
0000
,
0011
0000
0100
0000
1010
0000
0100
0000
1001
0000
1000
0100
0010
0000
0001
0000
,
0101
0000
1000
0000
0101
0000
1000
0000
1100
0000
0001
1000
0010
0000
0100
0000
,
0101
0000
0010
0000
1100
0000
0010
0000
1001
0000
0001
0100
1000
0000
0100
0000
,
0101
0000
0010
0000
1100
0000
0010
0000
1001
0000
1000
0100
0001
0000
0100
0000
,
1100
0000
0010
0000
0101
0000
0010
0000
1001
0000
0001
0010
0100
0000
1000
0000
,
1001
0001
0110
1001
0110
0000
1001
0000
;

//---------------dance-double - Pandemonium X-BDP----------------
#NOTES:
     dance-double:
     Pandemonium X:
     Easy:
     7:
     0.331486,0.375252,0.455793,0.414357,0,224,180,44,40,0,0,0.331486,0.375252,0.455793,0.414357,0,224,180,44,40,0,0:
00000000
00000000
00000000
00000000
,
00000000
00000000
00000000
00000000
,
00000000
00000000
00000000
00000000
,
00000000
00000000
00000000
00000000
,
10000000
02000000
00000000
03000000
,
00100000
00020000
00000000
00030000
,
00100000
00002000
00000000
00003000
,
00010000
00000020
00000000
00000030
,
00000100
00000001
00002000
00000000
,
00003100
00010000
00002000
00000000
,
00013000
00000000
00001000
00000000
,
00011000
00101000
00011000
00000000
,
00010000
00100000
01100000
11000000
,
10000000
00010000
01010000
10100000
,
10000000
00010000
00110000
00101000
,
00020000
00030100
00002000
00003100
,
00001000
00000100
00000110
00000011
,
00000001
00000100
00000110
00001010
,
00000010
00001000
00001100
00010100
,
00000100
00010000
00001000
00100000
,
01000000
10000000
00200000
01300000
,
00010000
00100000
00010000
00000000
00100000
00000000
00001000
00000000
,
00010000
00000100
00002000
00003010
,
00000100
00000001
00000100
00000000
00000001
00000000
00001000
00000000
,
00001100
00001100
00000200
00010300
,
00011000
00011000
00002000
01003000
,
01100000
01100000
20000000
31000000
,
00100000
00010000
01000000
00000000
00100000
10000000
00010000
00000000
,
00200000
00302000
00023000
00030100
,
00000200
00020300
00032000
01003000
,
00200000
20300000
32000000
03100000
,
02000000
03020000
00230000
00301000
,
00020000
00030200
00002300
00003010
,
00000200
00000302
00002003
00003100
,
00002000
00003200
00020300
00031000
,
00002000
00023000
00030000
11000000
,
10000000
00100000
01100000
01100000
,
01000000
00010000
00110000
00110000
,
00100000
00001000
00010000
00000100
,
00001000
00000010
00000101
00000101
,
00000001
00001000
00001100
00001100
,
00000100
00010000
00011000
00011000
,
00002000
00000000
00203000
00000000
,
02300000
00000000
23000000
00000000
,
30100000
01000000
01010000
00110000
,
00100000
00001000
00010000
00010000
,
00000100
00001000
00001100
00000011
,
00000001
00000000
00000100
00000010
00000100
00000000
00000001
00000000
,
00001100
00001100
00000100
00010000
,
00011000
00011000
00001000
00100000
,
00110000
00110000
00100000
01000000
,
11000000
00000000
00100000
00010000
01000000
00000000
10010000
00000000
;

//---------------dance-double - Pandemonium X-DDP----------------
#NOTES:
     dance-double:
     Pandemonium X:
     Medium:
     10:
     0.479471,0.509271,0.569742,0.113948,0.145025,324,269,55,11,0,0,0.479471,0.509271,0.569742,0.113948,0.145025,324,269,55,11,0,0:
00000000
00000000
00000000
00000000
,
00000000
00000000
00000000
00000000
,
00000000
00000000
00000000
00000000
,
00000000
00000000
00000000
00000000
,
21000000
00100000
01000000
30100000
,
01020000
00100000
01000000
00130000
,
00102000
00010000
00100000
00013000
,
00020100
00001000
00000100
00031000
,
00000100
00001000
00000010
00000000
00000100
00000000
00000101
00000000
,
00000001
00001000
00000100
00000000
00001000
00000000
00001100
00000000
,
00000100
00010000
00001000
00000000
00001000
00100000
00010000
00000000
,
00100000
01000000
10000000
00100000
01000000
00010000
10000000
00010000
00000000
00000000
00000000
00000000
,
10000000
00000000
00000000
00000000
00100000
00000000
00000000
00000000
01000000
00000000
00000000
00010000
00000000
00000000
00100000
00000000
,
00001000
00000000
00000000
00000000
00010000
00000000
00000000
00000000
00000100
00000000
00000000
00001000
00000000
00000000
00000010
00000000
,
00000100
00000000
00000000
00000000
00000001
00000000
00000000
00000000
00000010
00000000
00000000
00000100
00000000
00000000
00001000
00000000
,
00000100
00000000
00010000
00000000
00001000
00000000
00100000
00000000
01000000
00000000
00000000
10000000
00000000
00000000
00100000
00000000
,
01100000
00000000
00000000
00000000
01100000
00000000
00000000
00000000
01000000
00000000
00000000
00010000
00000000
00000000
00100000
00000000
,
00101000
00000000
00000000
00000000
00101000
00000000
00000000
00000000
00010000
00000000
00000000
00000010
00000000
00000000
00000100
00000000
,
00000110
00000000
00000000
00000000
00000110
00000000
00000000
00000000
00000100
00000000
00000000
00000010
00000000
00000000
00001000
00000000
,
00000100
00010000
00001000
01000000
00010000
00100000
01000000
00000000
,
10000000
00000000
01000000
10000000
00100000
00000000
01010000
00000000
,
00010000
00000000
00100000
00001000
00010000
00000000
00010010
00000000
,
00000100
00000000
00000010
00001000
00000001
00000000
00001001
00000000
,
00000001
00000100
00001000
00000100
00000001
00000100
00000010
00001000
,
00001100
00000000
00000000
00000000
00001100
00000000
00000000
00000000
00001100
00000000
00000000
00010100
00000000
00000000
00001100
00000000
,
00000100
00000000
00000100
00000000
00000100
00000000
00000000
00000000
00010000
00000000
00000000
00001000
00000000
00000000
01000000
00000000
,
01100000
00000000
00000000
00000000
01100000
00000000
00100000
00000000
01000000
00000000
00000000
01100000
00000000
00000000
10000000
00000000
,
00010000
00100000
00010000
10000000
01000000
00100000
00010000
00000000
,
00210000
00010000
00310000
00011000
,
00002010
00000010
00003010
00011000
,
02010000
00010000
03010000
00011000
,
00001200
00000000
00001000
00000000
00001300
00000100
00010000
00000000
,
00001000
00010000
00001000
00010000
00001000
00001000
00001000
00000000
,
00010000
00001000
00010000
00001000
00010000
00010000
00010000
00000000
,
00001000
00100000
00001000
00010000
00000100
00010000
00001000
00000000
,
00010000
00001000
01000000
00100000
20000000
00000000
30010000
00000000
,
00010000
00000000
00100000
00000000
00100000
00000000
00000000
01000000
00000000
10000000
00000000
00000000
00010000
00000000
10000000
00000000
,
00100000
00000000
10000000
00000000
01000000
00000000
00000000
00100000
00000000
00100000
00000000
00000000
01000000
00000000
10000000
00000000
,
00010000
00000000
01000000
00000000
00001000
00000000
00010000
00000000
00000100
00000000
00000000
00001000
00000000
00000000
00000010
00000000
,
00000100
00000000
00000000
00000000
00000001
00000000
00000010
00000000
00000100
00000000
00000000
00000010
00000000
00000000
00000001
00000000
,
00001000
00000010
00000100
00000010
00001000
00000000
00001100
00000000
,
00000100
00010000
00001000
00100000
01000000
00000000
11000000
00000000
,
10000000
00100000
02000000
00000000
03100000
10000000
00020000
00000000
,
00130000
00001000
00011000
00000000
00010000
00000010
00000110
00000000
,
00000101
00000000
00000000
00000000
00000101
00000000
00000000
00000000
00000101
00000000
00000000
00000101
00000000
00000000
00000101
00000000
,
00000001
00000000
00000000
00000000
00000100
00000000
00000000
00000000
00000010
00000000
00000000
00001000
00000000
00000000
00000100
00000000
,
00010100
00000000
00000000
00000000
00010100
00000000
00000000
00000000
00010100
00000000
00000000
00010100
00000000
00000000
00010100
00000000
,
00000100
00000000
00000000
00000000
00010000
00000000
00001000
00000000
00100000
00000000
00000000
01000000
00000000
00000000
10000000
00000000
,
10100000
00000000
00000000
00000000
10100000
00000000
00000000
00000000
10100000
00000000
00000000
10100000
00000000
00000000
10100000
00000000
,
10000000
00000000
00000000
00000000
00010000
00000000
00000000
00000000
00100000
00000000
00000000
00001000
00000000
00000000
00010000
00000000
,
00010100
00000000
00000000
00000000
00010100
00000000
00000000
00000000
00010100
00000000
00000000
00010100
00000000
00000000
00010100
00000000
,
00000100
00010000
00001000
00010000
00000100
00010000
00010100
00000000
;

//---------------dance-double - Pandemonium X-EDP----------------
#NOTES:
     dance-double:
     Pandemonium X:
     Hard:
     14:
     0.708847,0.834930,0.528306,0.248614,0.611177,479,428,51,24,0,0,0.708847,0.834930,0.528306,0.248614,0.611177,479,428,51,24,0,0:
00000000
00000000
00000000
00000000
,
00000000
00000000
00000000
00000000
,
00000000
00000000
00000000
00000000
,
00000000
00200000
00301000
00000000
,
00021000
00000100
00001000
00030100
,
00012000
00100000
00010000
00103000
,
00020100
00000010
00000100
00030010
,
00012000
01000000
00100000
01003000
,
00001000
00010000
01000000
00100000
00010000
00100000
01000000
10000000
,
10000000
01000000
00100000
00000000
00001000
00000000
00010000
00000000
00000100
00000000
00010000
00000000
00000010
00000000
00010000
00000000
,
00000100
00001000
00000010
00000000
00000100
00000001
00000010
00000000
,
00000100
00000010
00000001
00000100
00000010
00002000
00000200
00000000
00003000
00000300
00000000
00000000
,
00010100
00000000
00000000
00000000
00010100
00000000
00000000
00000000
00010100
00000000
00000000
00011000
00000000
00000000
00101000
00000000
,
01010000
00000000
00000000
00000000
01010000
00000000
00000000
00000000
01010000
00000000
00000000
10100000
00000000
00000000
10010000
00000000
,
00110000
00000000
00000000
00000000
00110000
00000000
00000000
00000000
00110000
00000000
00000000
00101000
00000000
00000000
00110000
00000000
,
00001000
00000000
00010000
00000000
00010000
00000000
00000100
00000000
00001000
00000000
00000010
00001000
00000000
00000001
00000100
00000000
,
00000001
00001000
00000010
00000000
00001000
00000100
00000010
00000000
00000100
00000000
00010000
00001000
00000000
00001000
00010000
00000000
,
00001000
00100000
00010000
00000000
01000000
00100000
10000000
00000000
00010000
00000000
00100000
00001000
00000000
00010000
00000010
00000000
,
00000100
00000001
00000010
00000000
00000100
00000010
00000001
00000000
00001000
00000000
00000001
00000100
00000000
00000010
00001000
00000000
,
00000100
00000000
00010000
00000000
00001000
00000000
00100000
00000000
10000000
00000000
00100000
00010000
01000000
00000000
00000000
00000000
,
10100000
00000000
10000000
00000000
00010000
00000000
00010000
00000000
00100000
00000000
00001000
00010000
00000000
00000010
00000100
00000000
,
00000001
00000000
00000010
00000000
00000100
00000000
00000100
00000000
00001000
00000000
00000100
00010000
00000000
00001000
00100000
00000000
,
01000000
00000000
00100000
00000000
00001000
00000000
00001000
00000000
00010000
00000000
00000100
00001000
00000000
00000010
00000100
00000000
,
00000001
00001000
00000010
00000000
00000100
00000001
00000010
00000000
00000100
00000000
00001000
00000100
00000000
00000100
00010000
00000000
,
00001000
00000000
00100000
00000000
00010000
00000000
01000000
00000000
10000000
00000000
10000000
01000000
00000000
01000000
00100000
00000000
,
10000000
00000000
00010000
00000000
00100000
00000000
00001000
00000000
00010000
00000000
00000100
00001000
00000000
00001000
00000010
00000000
,
00000100
00000000
00000001
00000000
00001000
00000000
00000100
00000000
00000001
00000000
00000100
00000010
00000000
00000010
00000001
00000000
,
00001000
00000010
00010000
00001000
00100000
00000000
11000000
00000000
,
10000000
00010000
00100000
00000000
00001000
00000000
00010000
00000100
00001000
00000000
00000010
00000000
00001001
00000000
00000000
00000000
,
00000001
00000000
00000100
00000000
00000010
00001000
00000100
00010000
00001000
00000000
00100000
00000000
10010000
00000000
00000000
00000000
,
10000000
00010000
00100000
00001000
00010000
00000100
00001000
00000000
00000010
00000000
00000100
00000000
00001001
00000000
00000000
00000000
,
00000001
00000100
00000010
00001000
00000100
00000000
00010000
00001000
00100000
00010000
10000000
00000000
10010000
00000000
00000000
00000000
,
00010000
01000000
00010000
00100000
00001000
00010000
00000100
00000000
00010000
00000000
00000010
00000000
00001001
00000000
00000000
00000000
,
00000001
00000100
00000010
00010000
00001000
00000000
00010000
00000000
00000010
00000000
00000100
00000000
00001001
00000000
00000000
00000000
,
00000001
00001000
00000100
00010000
00001000
01000000
00010000
00000000
10000000
00000000
00010000
00000000
10010000
00000000
00000000
00000000
,
10000000
00010000
00100000
00001000
00010000
00000010
00000100
00000001
00000020
00000000
00000000
00000000
00000030
00000000
00000000
00000000
,
00010100
00000000
00010000
00000000
00001000
00000000
00100000
00010000
00000000
00100000
00000000
01000000
00100000
00000000
00010000
01000000
,
00100000
00000000
01000000
00010000
10000000
00000000
00010000
00100000
00000000
00001000
00000000
00010000
00000100
00000000
00001000
00000000
,
00000001
00001000
00000100
00001000
00000001
00001000
00000100
00001000
00000000
00000001
00000000
00001000
00000001
00000000
00000010
00000000
,
00000100
00000000
00010000
00000000
00010000
00000000
00001000
00000000
00101000
00000000
00001000
00100000
00010000
00000000
00100000
01000000
,
10000000
01000000
10000000
00100000
01000000
00010000
00100000
00000000
00010000
00000000
00100000
00001000
00000000
00010000
00000100
00000000
,
00001000
00000010
00000100
00000001
00000010
00000000
00000100
00000010
00000001
00000100
00000010
00001000
00000100
00000000
00001000
00000000
,
00000100
00010000
00001000
00010000
00000100
00010000
00001000
00010000
00001000
00100000
00001000
00010000
00001000
00100000
00001000
00010000
,
00001000
00010000
00000010
00000100
00000010
00010000
00000010
00000100
00000010
00010000
00001000
00000000
00011000
00000000
00000000
00000000
,
00012000
00000000
01003000
00000000
00021000
00000000
00030100
00000000
00011000
00000000
00001000
00100000
00000000
00100000
01000000
00000000
,
21000000
00000000
30100000
00000000
01020000
00000000
00130000
00000000
00110000
00000000
00100000
00001000
00000000
00001000
00010000
00000000
,
00021000
00000000
00030010
00000000
00012000
00000000
00103000
00000000
00010100
00000000
00001000
00000100
00000000
00000010
00000001
00000000
,
00001000
00000000
00000000
00000000
00000010
00000100
00000010
00000100
00000010
00000000
00000100
00000001
00000000
00000001
00001000
00000000
,
00002010
00000000
00003100
00000000
00020100
00000000
00031000
00000000
00201000
00000000
01300000
10000000
00000000
10000000
00100000
00000000
,
02010000
00000000
03010000
00000000
00210000
00000000
00301000
00000000
00021000
00000000
00030100
00010000
00000000
00010000
00000010
00000000
,
00000210
00000000
00000301
00000000
00000120
00000000
00001030
00000000
00001200
00000000
00010300
00001000
00000000
00001000
01000000
00000000
,
00100000
01000000
00010000
00000000
00100000
00000000
00001000
00000000
01000000
00000000
00011000
00000000
00010020
00000000
00000000
00000000
,
00000030
00000000
00000000
00000000
;

//---------------dance-double - Talkion-CDP----------------
#NOTES:
     dance-double:
     Talkion:
     Challenge:
     15:
     0.655573,0.777309,0.642254,0.031077,0.440255,443,381,62,3,140,0,0.655573,0.777309,0.642254,0.031077,0.440255,443,381,62,3,140,0:
00000000
00000000
00000000
00000000
,
00000000
00000000
00000000
00000000
,
00000000
00000000
00000000
00000000
,
00000000
00000000
00000000
00000000
,
11000000
00000000
00000000
00000000
01010000
00000000
00000000
00000000
11000000
00000000
00000000
00100000
00000000
00000000
00001000
00000000
,
00011000
00000000
00000000
00000000
00010010
00000000
00000000
00000000
00011000
00000000
00000000
00000100
00000000
00000000
00000010
00000000
,
00000011
00000000
00000000
00000000
00001010
00000000
00000000
00000000
00000011
00000000
00000000
00000100
00000000
00000000
00010000
00000000
,
00011000
00000000
00000000
00000000
01001000
00000000
00000000
00000000
00012000
00000000
00000000
00100000
00000000
00000000
00013000
00000000
,
00001000
01000000
00100000
10000000
00010000
10000000
01000000
00100000
,
00001000
00010000
00001000
00000000
00010000
00000000
00000010
00000000
00000100
00000000
00000001
00000000
00001000
00000000
00000001
00000000
,
00000010
00000100
00001000
00000100
00000010
00000100
00001000
00000001
00000100
00000010
00000100
00000010
00010000
00001000
01000000
00000000
,
01010000
00000000
00000000
MMMM1100
00000000
00000000
0101MMMM
01000000
00100000
00000000
00000000
00000000
,
10010000
00000000
00000000
00000000
00101000
00000000
00000000
00000000
10010000
00000000
00000000
10000000
00000000
00000000
01000000
00000000
,
01010000
00000000
00000000
00000000
00011000
00000000
00000000
00000000
00001010
00000000
00000000
00000010
00000000
00000000
00000001
00000000
,
00001001
00000000
00000000
00000000
00010100
00000000
00000000
00000000
00001001
00000000
00000000
00000001
00000000
00000000
00000100
00000000
,
00001000
00000000
MMMMMMMM
00000000
00010000
00000000
MMMMMMMM
00000000
00001000
00000000
00010000
00001000
00000000
00000000
01000000
00000000
,
00001000
00000000
00010000
00000010
MMMM1000
00000000
00001000
01000000
0001MMMM
00000000
10000000
00000000
01000000
00000000
00010000
00000000
,
00001000
00000000
00010000
00000100
MMMM1000
00000000
00001000
00100000
0001MMMM
00000000
00200000
00000000
00301000
00010000
00000010
00000000
,
00010000
00000000
00001000
01000000
0001MMMM
00000000
00010000
00000010
MMMM1000
00000000
00000001
00000000
00000010
00000000
00001000
00000000
,
00010000
00000000
00001000
00000000
00000100
00000000
00000001
00000000
00001000
00000000
00000100
00010000
00001000
00000000
00000000
00000000
,
01001000
00000000
00000000
00000000
00001100
00000000
00000000
00000000
01001000
00000000
00000000
01000000
00100000
00000000
10000000
00000000
,
10010000
00000000
00100000
00000000
10010000
00000000
00000000
00000000
00101000
00000000
00001000
00010000
00000100
00000000
00000010
00000000
,
00000011
00000000
00000000
00000000
00010010
00000000
00001000
00000000
00010010
00000000
00000000
00010000
00001000
00000000
01000000
00000000
,
00010000
00000000
01000000
00100000
10000000
00100000
01000000
00000000
00100000
00000000
10000000
00000000
00010000
00100000
00010000
00100000
,
00001000
00000000
00000000
00000000
00001010
00000000
00000000
00000000
00101000
00000000
00000000
00100000
01000000
00000000
10000000
00000000
,
10010000
00000000
01000000
00000000
10010000
00000000
00000000
00000000
01001000
00000000
00001000
00010000
00000010
00000000
00000100
00000000
,
00000101
00000000
00000000
00000000
00010100
00000000
00001000
00000000
00010100
00000000
00000000
00010000
00001000
00000000
01000000
00000000
,
00010000
00000000
00000000
10000000
01000000
00010000
00001000
00000010
00000001
MMMMMMMM
00000000
00000000
,
00000001
00000100
00001000
00000001
00000010
00001000
MMMMMMMM
00000000
,
00010000
00100000
10000000
00010000
00100000
01000000
MMMMMMMM
00010000
,
10000000
01000000
00010000
10000000
00100000
00010000
MMMMMMMM
00000000
,
00001000
00000020
00000001
00000031
00001000
MMMMMMMM
MMMMMMMM
00000000
,
00001001
00000000
00000001
00000000
00000100
00000000
00000010
00000000
00010000
00000000
00000100
00001000
00000100
00000000
00010000
00000000
,
00001000
00000000
01000000
00000000
00100000
00000000
10000000
00000000
00010000
00000000
00100000
00001000
00100000
00000000
00010000
00000000
,
10000000
00000000
00100000
01000000
00010000
00000000
01000000
00001000
00010000
00000000
00001000
00010000
00000010
00000000
00010000
00000010
,
00000100
00000001
00001000
00000001
00000100
00000001
00001000
00000001
00000100
00000000
00000000
00000000
MMMMMMMM
00000000
00000000
00000000
,
00010000
00000000
00000100
MMMM1000
00000100
00000000
01000000
0001MMMM
00000000
00010000
10000000
01000000
00100000
00000000
00001000
00000000
,
00010000
00000000
00000010
MMMM1000
00000010
00000000
00100000
0001MMMM
00000000
00010000
10000000
00100000
01000000
00000000
00001000
00000000
,
00010000
00000000
00000100
MMMM1000
00000100
00000000
01000000
0001MMMM
01000000
00000000
00001000
00000000
00010000
00000010
00001000
00000000
,
00000010
00000000
00100000
0001MMMM
00000000
00010000
00000010
MMMM1000
00000000
00001000
00100000
0001MMMM
10000000
00000000
00100000
00000000
,
10000000
00010000
00100000
00010000
10000000
00100000
00010000
00001000
,
00000010
00000001
00001000
00000001
00000010
00001000
00010000
00100000
,
10000000
00000000
00010000
00100000
00010000
00000000
10000000
00100000
10000000
00000000
00010000
00100000
00010000
00000000
01000000
00010000
,
01000000
00001000
00010000
00001000
00010000
00000100
00001000
00000100
00001000
00000001
00000100
00000010
00001000
00000001
00000100
00000010
,
00010000
00000000
00000000
00000000
00110000
00000000
00000000
00000000
00010010
00000000
00000000
00000010
00000100
00000000
00000001
00000000
,
00001001
00000000
00000000
00000000
00011000
00000000
00000000
00000000
00001001
00000000
00000000
00000001
00000100
00000000
00000010
00000000
,
00010010
00000000
00000000
00000000
00110000
00000000
00000000
00000000
00010010
00000000
00000000
00000010
00000100
00000000
00000010
00000000
,
00010000
00000000
00001000
00000000
00101000
00000000
00010000
00000000
00101000
00000000
00001000
01000000
00010000
00000000
01000000
00000000
,
01001000
00000000
00000000
00000000
00001100
00000000
00000000
00000000
01001000
00000000
00000000
01000000
00100000
00000000
10000000
00000000
,
10010000
00000000
00000000
00000000
00011000
00000000
00000000
00000000
10010000
00000000
00000000
10000000
00100000
00000000
01000000
00000000
,
01001000
00000000
00000000
00000000
00001100
00000000
00000000
00000000
01001000
00000000
00000000
01000000
00100000
00000000
01000000
00000000
,
00001000
00010000
00010000
00010000
00000100
00000010
00001001
00000000
;
