#TITLE:Settin' the Scene;
#ARTIST:U1 night style;
#BANNER:Settin' the Scene.png;
#BACKGROUND:Settin' the Scene-bg.png;
#MUSIC:Settin' the Scene.ogg;
#SAMPLESTART:41.419;
#SAMPLELENGTH:15;
#BPMS:0=110;

//---------------dance-single - KONAMI-bSP----------------
#NOTES:
     dance-single:
     KONAMI:
     Beginner:
     1:
     0.065491,0.107135,0.029898,0,0,46,43,3,0,0,0,0.065491,0.107135,0.029898,0,0,46,43,3,0,0,0:
0000
0000
0000
0000
,
0000
0000
0000
0000
,
0000
0000
0000
0000
,
0000
0000
0000
0000
,
0000
0000
0000
0000
,
0000
0100
0000
0000
,
0000
0001
0000
0001
,
0000
0001
0000
0000
,
0000
0010
0000
0000
,
0000
0100
0000
0000
,
0000
1000
0000
1000
,
0000
0010
0000
0000
,
0001
0000
0000
0000
,
0010
0000
0000
0000
,
0100
0000
1001
0000
,
0000
0010
0000
0000
,
1000
0000
0000
0000
,
0010
0000
0000
0000
,
0010
0000
0000
0000
,
0001
0000
0000
0000
,
0100
0000
0000
0000
,
1000
0000
0000
0000
,
0010
0000
0000
0000
,
0001
0000
0000
0000
,
0100
0000
0000
0000
,
1000
0000
0000
0000
,
0010
0000
0000
0000
,
1000
0000
0000
0000
,
0001
0000
0000
0000
,
0100
0000
0000
0000
,
0001
0000
0000
0000
,
1000
0000
0000
0000
,
0001
0000
0000
0000
,
0100
0000
0000
0000
,
0001
0000
0000
0000
,
0000
0010
0000
0000
,
0001
0000
0000
0000
,
0010
0000
0000
0000
,
0100
0000
1001
0000
,
0000
0010
0000
0000
,
1000
0000
0000
0000
,
0010
0000
0000
0000
,
0010
0000
0000
0000
,
1001
0000
0000
0000
;

//---------------dance-single - KONAMI-BSP----------------
#NOTES:
     dance-single:
     KONAMI:
     Easy:
     4:
     0.176541,0.235696,0.099660,0,0,124,114,10,0,0,0,0.176541,0.235696,0.099660,0,0,124,114,10,0,0,0:
0000
0000
0000
0000
,
0000
0000
0000
0000
,
0000
0000
0000
0000
,
1000
0010
0100
0001
,
0000
0001
0000
0000
,
0001
0010
0100
1000
,
0000
1000
0000
0000
,
1000
0010
0100
0001
,
0000
0010
0000
0000
,
0001
0010
0100
1000
,
0010
1001
0100
1001
,
0000
0000
0000
0000
,
1000
0000
0000
0000
,
1000
0000
0100
0000
,
1001
0100
1001
0100
,
0000
0000
0000
0000
,
0001
0000
0000
0000
,
0001
0000
0100
0000
,
1001
0000
0110
0000
,
1000
0010
0100
0001
,
0001
0100
0001
0100
,
0001
0010
0100
1000
,
0000
1000
0000
0010
,
1000
0010
0100
0001
,
0001
0100
0001
0100
,
0001
0010
0100
1000
,
0100
0100
0100
0100
,
0100
0000
0000
0000
,
0000
0000
0000
0000
,
1100
0000
0000
0000
,
0000
0000
0000
0000
,
0001
1000
0001
1000
,
0001
0001
1000
1000
,
1000
0001
1000
0001
,
1000
1001
0001
1001
,
1000
0010
0100
0001
,
0001
0010
0100
1000
,
0001
0000
0010
0000
,
0001
0100
1000
0100
,
0001
0010
0100
1000
,
1000
0010
0100
0001
,
1000
0100
0010
0001
,
0001
0100
1000
0100
,
1001
0000
0000
0000
;

//---------------dance-single - KONAMI-DSP----------------
#NOTES:
     dance-single:
     KONAMI:
     Medium:
     7:
     0.290438,0.321404,0.298980,0.019932,0,204,174,30,2,0,0,0.290438,0.321404,0.298980,0.019932,0,204,174,30,2,0,0:
0000
0000
0000
0000
,
0000
0000
0000
0000
,
0000
0000
0000
1000
,
0001
0010
0100
0000
1000
0000
0001
0000
,
0001
0000
0100
0000
0001
0010
1000
0000
,
0001
0010
0001
0000
0010
0000
1000
0000
,
0101
1010
0101
1010
,
1000
0010
0100
0000
0001
0000
1000
0000
,
1000
0100
1000
0001
,
1000
0010
1000
0000
0010
0000
0001
0000
,
1000
0100
0011
0000
1100
0000
0011
0000
,
0010
0100
0010
0000
0001
0000
0100
0000
,
0001
0100
0001
0000
0100
0000
1000
0000
,
1000
0010
0100
0001
,
0000
1100
0000
0101
0000
1100
0000
0000
,
0010
0100
0010
0000
1000
0000
0100
0000
,
1000
0100
1000
0000
0100
0000
0001
0000
,
0001
0010
0100
1000
,
1001
0000
1001
0000
1000
0001
0100
0000
,
0001
0100
0010
0000
1000
0000
0001
0000
,
0001
0000
0010
0000
0001
0100
1000
0000
,
0001
0100
0001
0000
0100
0000
1000
0000
,
0001
0100
0001
0000
0001
0100
0001
0000
,
0100
0010
0001
1000
,
1000
0010
1000
0001
,
1000
0100
1000
0000
0100
0000
0001
0000
,
1000
0001
1000
0001
1000
0001
0100
0100
,
0100
0000
0000
0000
,
0000
0000
0000
0000
,
0010
0200
0000
0300
0000
0000
0000
0000
,
0000
0000
0000
0000
,
0000
0000
0000
0000
1010
0101
1010
0000
,
0000
0000
0000
0000
0110
0011
1100
0000
,
0000
0000
0000
0000
0101
1100
0011
0000
,
0020
0000
0001
0000
0100
0100
0130
0000
,
0001
0100
0010
0000
1000
0000
0101
0000
,
0001
0010
0001
1100
,
0001
0100
0001
0000
0100
0000
1000
0000
,
0011
1100
0011
1100
,
1000
0100
0010
0000
0001
0000
1100
0000
,
1000
0010
1000
0101
,
1000
0100
1000
0000
0100
0000
0001
0000
,
1000
0001
1000
0001
1000
0100
0001
0000
,
1100
0000
0000
0000
;

//---------------dance-single - KONAMI-ESP----------------
#NOTES:
     dance-single:
     KONAMI:
     Hard:
     11:
     0.476945,0.492819,0.229218,0.019932,0.378709,335,312,23,2,0,0,0.476945,0.492819,0.229218,0.019932,0.378709,335,312,23,2,0,0:
0000
0000
0000
0000
,
0000
0000
0000
0000
,
0000
0000
0000
0000
,
0001
0000
1000
0100
1000
0100
0000
0000
0100
0001
0100
0001
0000
0000
0001
0010
,
0000
0001
0010
0000
0001
1000
0001
1000
0000
0000
0000
0000
0000
0000
0000
0000
,
1000
0000
0001
0100
0001
0100
0000
0000
0100
1000
0100
1000
0000
0000
0000
0000
,
0010
0001
0000
0000
0001
0100
0000
0000
0100
1000
0000
0000
1000
0010
0000
0000
,
1000
0000
0001
0100
0001
0100
0000
0000
0100
1000
0100
1000
0000
0000
1000
0010
,
0000
1000
0010
0000
1000
0001
1000
0001
0000
0000
0000
0000
0000
0000
0000
0000
,
0001
0000
1000
0100
1000
0100
0000
0000
0100
0001
0100
0001
0000
0000
0000
0000
,
0010
1000
0000
0000
1000
0100
0000
0000
0100
0001
0000
0000
0001
0010
0000
0000
,
0001
0010
0100
1000
0100
0010
0001
0000
,
1100
0000
0001
0100
1000
0100
0001
0010
,
0101
0000
1000
0100
0010
0001
0100
0001
,
1100
0000
0000
0101
0000
0000
1100
0000
0000
0101
0000
0000
1100
0000
0000
0001
,
1000
0010
0100
0001
0100
0010
1000
0000
,
0101
0000
1000
0100
0001
0100
1100
0000
,
1000
0100
0001
0100
0010
0001
0100
0001
,
1000
0100
0000
0000
0001
0100
0000
0000
0101
0000
1100
0000
0101
0000
0000
0000
,
0001
1000
0010
0100
0001
1000
0100
0010
,
0001
0100
0010
1000
0001
0100
0101
0000
,
1000
0100
0001
0100
1000
0001
1100
0000
,
2000
0000
0010
0000
0001
0001
3001
0000
,
1000
0001
0010
0100
1000
0001
0100
0010
,
1000
0100
0010
0001
1000
0100
1100
0000
,
0001
0100
1000
0100
0001
1000
0101
0000
,
0001
0010
0000
0000
1000
0100
0000
0000
0001
0000
0100
0000
0100
0000
0100
0000
,
0001
0000
1000
0100
1000
0100
0000
0000
0100
0001
0100
0001
0000
0000
0001
0010
,
0000
0001
0010
0000
0001
1000
0001
1000
0000
0000
0000
0000
1001
0000
0000
0000
,
1000
0000
0001
0100
0001
0100
0000
0000
0100
1000
0100
1000
0000
0000
0000
0000
,
0010
0001
0000
0000
0001
0100
0000
0000
0100
1000
0000
0000
1000
0010
0000
0000
,
1000
0000
0001
0010
0001
1000
0000
0000
0010
1000
0010
1000
0000
0000
1000
0100
,
0000
1000
0100
0000
1000
0001
0010
0001
1000
0000
0010
0000
1001
0000
0000
0000
,
0001
0000
1000
0010
0100
0010
0000
0000
0010
0001
1000
0100
0000
0000
0000
0000
,
0100
1000
0000
0000
1000
0010
0000
0000
0100
0000
0100
0000
0100
0000
0100
0000
,
0001
1000
0010
0100
0001
1000
0100
0010
,
0001
0100
0010
1000
0001
0100
0101
0000
,
1000
0100
0001
0100
1000
0001
1100
0000
,
0010
0001
0000
0000
0001
0100
0000
0000
0100
1000
0000
0000
1000
0010
0000
0000
,
1000
0001
0010
0100
1000
0001
0100
0010
,
1000
0100
0010
0001
1000
0100
1100
0000
,
0001
0100
1000
0100
0001
1000
0101
0000
,
0001
0010
0000
0000
1000
0100
0000
0000
1000
0100
0000
0000
0012
0000
0000
0000
,
0103
0000
0000
0000
;

//---------------dance-single - Narten-CSP----------------
#NOTES:
     dance-single:
     Marten:
     Challenge:
     13:
     0.562368,0.569246,0.279048,0.368743,0.438505,395,367,28,37,0,0,0.562368,0.569246,0.279048,0.368743,0.438505,395,367,28,37,0,0:
0000
0000
0000
0000
,
0000
0000
0000
0000
,
0000
0000
0000
0000
,
1000
0000
0001
0100
0010
0001
0000
0000
1000
0100
0010
1000
0000
0000
0001
0010
,
0100
0001
0000
0000
1000
0010
0100
1000
0001
0000
0100
0000
0101
0000
0000
0000
,
0001
0000
1000
0100
1000
0010
0000
0000
0100
1000
0100
0010
1000
0000
0001
0000
,
1000
0000
0000
0000
1010
0000
0000
0000
0100
0000
0001
0000
0010
0000
0100
0010
,
0100
0000
1000
0100
0010
1000
0000
0000
0001
0100
0010
0001
0000
0000
1000
0010
,
0100
1000
0000
0000
0001
0010
0100
0001
1000
0000
0100
0000
1100
0000
0000
0000
,
1000
0000
0001
0100
0001
0010
0000
0000
0100
0001
0100
0010
0001
0000
1000
0000
,
0001
0001
0000
1000
0010
1000
0100
0000
1001
0000
0100
0000
0010
1000
0010
0100
,
0001
0000
1000
0100
1000
0000
0010
1000
0010
0000
0100
0000
1000
0000
0100
0010
,
0100
0000
0001
1000
0001
0000
0010
0001
0010
0000
0100
1000
0001
0000
0100
0001
,
0100
0010
0001
0010
1000
0100
0001
1000
,
0010
0001
0000
0001
0100
0000
0010
0000
1010
0000
0100
0000
0101
0000
0001
1000
,
0000
0001
0000
0010
0001
0000
0100
0000
0001
0000
0010
0000
1000
0000
0010
0001
,
0000
1000
0000
0010
1000
0000
0100
1000
0001
0000
0100
0001
0100
0000
0010
0000
,
1000
0100
0000
0100
0001
0000
0100
0000
0010
0000
0001
0000
1001
0000
1000
0000
,
0110
0000
0100
0000
1001
0010
0100
0000
,
1001
0000
0001
0020
0100
0032
2003
3020
,
0230
1000
0010
0301
,
1000
0100
1000
0002
0010
0203
0302
1003
,
2100
0000
0000
0000
0001
0000
0000
0000
0010
0000
0000
0000
3100
0000
1000
1000
,
0001
0100
1000
0200
0010
2300
3200
0302
,
0023
0000
0100
0000
0001
0000
1030
0010
,
0001
1000
2000
3002
0010
0203
0320
1030
,
1002
1000
0100
0100
0010
0013
1001
0001
,
1001
0000
1000
0100
0010
0100
1000
0000
0001
0100
0001
1000
0000
0000
0001
0010
,
0000
0001
0100
0000
0100
0000
0001
0010
0100
1000
0100
0000
1000
0000
0001
0000
,
0100
0001
0010
0001
1000
0000
0001
0010
0100
0000
0100
0000
1000
0000
0001
0100
,
0000
0100
1000
0000
0100
0000
0001
1000
0001
0000
0010
0100
0000
0000
1000
0001
,
0100
0000
0001
1000
0100
1000
0100
0000
1000
0001
0100
0001
0100
0000
0001
1000
,
0010
1000
0010
0000
1000
0001
0010
0001
0010
0000
0100
0000
0010
0000
1000
0000
,
0010
0000
0001
0100
0001
1000
0100
0000
1000
0100
1000
0001
0100
0000
0010
0000
,
1010
0000
0000
0000
1001
0000
0000
0001
0011
0000
0010
0000
0110
0000
0100
0000
,
1001
0000
0001
0100
0001
0010
0200
0000
1000
0000
0320
0000
0032
0000
2003
0000
,
3020
0000
0001
0000
1000
1000
1030
0001
,
1000
0000
0100
1000
0001
1000
0200
0000
1000
0000
0320
0000
0032
0000
1003
0000
,
1002
0000
0013
0000
0101
1100
0101
0001
,
1001
0000
1000
0100
1000
0010
0200
0000
0001
0000
0320
0000
2030
0000
3002
0000
,
0023
0000
1000
0000
0001
0001
0031
1000
,
0001
0000
0100
0001
1000
0001
0200
0000
0001
0000
0320
0000
2030
0000
3001
0000
,
2001
0000
3010
0000
1100
0101
1100
1000
,
0010
0000
0000
0000
0000
0000
0100
0000
1000
0000
0100
0000
0001
0000
0100
0100
;

//---------------dance-double - NewbStepper-EDP----------------
#NOTES:
     dance-double:
     NewbStepper:
     Hard:
     11:
     0.466979,0.449966,0.189354,0.009966,0.368743,328,309,19,1,0,0,0.466979,0.449966,0.189354,0.009966,0.368743,328,309,19,1,0,0:
// measure 0
00000000
00000000
00000000
00000000
,  // measure 1
00000000
00000000
00000000
00000000
,  // measure 2
00000000
00000000
00000000
00000000
,  // measure 3
00010000
00000000
10000000
01000000
10000000
01000000
00000000
00000000
01000000
00010000
01000000
00010000
00000000
00000000
00010000
00001000
,  // measure 4
00000000
00010000
00001000
00000000
00000010
00000100
00000010
00000100
00000000
00000000
00000000
00000000
00000000
00000000
00000000
00000000
,  // measure 5
00001000
00000000
00000001
00000100
00000001
00000100
00000000
00000000
00000100
00001000
00000100
00001000
00000000
00000000
00000000
00000000
,  // measure 6
00010000
00001000
00000000
00000000
00001000
00000100
00000000
00000000
00000100
00000001
00000000
00000000
00000001
00001000
00000000
00000000
,  // measure 7
00001000
00000000
00000001
00000100
00000001
00000100
00000000
00000000
00000100
00001000
00000100
00001000
00000000
00000000
00010000
00001000
,  // measure 8
00000000
00010000
00001000
00000000
00100000
01000000
00100000
01000000
00000000
00000000
00000000
00000000
00000000
00000000
00000000
00000000
,  // measure 9
00010000
00000000
10000000
01000000
10000000
01000000
00000000
00000000
01000000
00010000
01000000
00010000
00000000
00000000
00000000
00000000
,  // measure 10
00001000
00010000
00000000
00000000
00010000
01000000
00000000
00000000
01000000
10000000
00000000
00000000
10000000
00010000
00000000
00000000
,  // measure 11
00100000
00001000
00010000
00000100
00010000
00001000
00100000
00000000
,  // measure 12
00101000
00000000
00001000
00010000
00001000
00000100
00000001
00000010
,  // measure 13
00000110
00000000
00000001
00000100
00001000
00010000
01000000
10000000
,  // measure 14
11000000
00000000
00000000
01010000
00000000
00000000
11000000
00000000
00000000
01010000
00000000
00000000
00011000
00000000
00000000
00010000
,  // measure 15
00000010
00010000
00001000
01000000
00001000
00010000
00000010
00000000
,  // measure 16
00010010
00000000
00010000
00001000
00010000
01000000
01100000
00000000
,  // measure 17
10000000
01000000
00010000
01000000
00100000
00001000
00010000
00001000
,  // measure 18
00000010
00000100
00000000
00000000
00000010
00000001
00000000
00000000
00001000
00000000
00000001
00000000
00001001
00000000
00000000
00000000
,  // measure 19
00000010
00000001
00001000
00000010
00000100
00000001
00000100
00001000
,  // measure 20
00010000
01000000
10000000
00100000
01000000
00010000
01010000
00000000
,  // measure 21
10000000
01000000
00010000
01000000
00100000
00001000
00011000
00000000
,  // measure 22
00010000
00000010
00010000
00000000
00001000
00100000
00001000
00010000
,  // measure 23
00100000
10000000
00010000
00100000
01000000
10000000
01000000
00010000
,  // measure 24
00001000
00000100
00000001
00000010
00000100
00001000
00001100
00000000
,  // measure 25
00000001
00000100
00001000
00000100
00000010
00010000
00011000
00000000
,  // measure 26
00100000
00001000
00100000
00000000
00001000
00010000
00001000
00100000
,  // measure 27
00010000
00000000
10000000
01000000
10000000
01000000
00000000
00000000
01000000
00010000
01000000
00010000
00000000
00000000
00010000
00001000
,  // measure 28
00000000
00010000
00001000
00000000
00000010
00000100
00000010
00000100
00000000
00000000
00000000
00000000
00000000
00000000
00000000
00000000
,  // measure 29
00001000
00000000
00000001
00000100
00000001
00000100
00000000
00000000
00000100
00001000
00000100
00001000
00000000
00000000
00000000
00000000
,  // measure 30
00010000
00001000
00000000
00000000
00001000
00000100
00000000
00000000
00000100
00000001
00000000
00000000
00000001
00001000
00000000
00000000
,  // measure 31
00001000
00000000
00000001
00000100
00000001
00000100
00000000
00000000
00000100
00001000
00000100
00001000
00000000
00000000
00010000
00001000
,  // measure 32
00000000
00010000
00001000
00000000
00100000
01000000
00100000
01000000
00000000
00000000
00000000
00000000
00000000
00000000
00000000
00000000
,  // measure 33
00010000
00000000
10000000
01000000
10000000
01000000
00000000
00000000
01000000
00010000
01000000
00010000
00000000
00000000
00000000
00000000
,  // measure 34
00001000
00010000
00000000
00000000
00010000
00100000
00000000
00000000
01000000
00000000
01000000
00000000
01000000
00000000
01000000
00000000
,  // measure 35
00100000
10000000
00010000
00100000
01000000
10000000
01000000
00010000
,  // measure 36
00001000
00000100
00000001
00000010
00000100
00001000
00001100
00000000
,  // measure 37
00000001
00000100
00001000
00000100
00000010
00010000
00011000
00000000
,  // measure 38
00001000
00010000
00000000
00000000
00010000
00000100
00000000
00000000
00000100
00001000
00000000
00000000
00001000
00000001
00000000
00000000
,  // measure 39
00000010
00000001
00001000
00000010
00000100
00000001
00000100
00001000
,  // measure 40
00010000
01000000
10000000
00100000
01000000
00010000
01010000
00000000
,  // measure 41
10000000
01000000
00010000
01000000
00100000
00001000
00011000
00000000
,  // measure 42
00010000
00001000
00000000
00000000
00001000
01000000
00000000
00000000
01000000
00100000
00000000
00000000
20100000
00000000
00000000
00000000
,  // measure 43
31000000
00000000
00000000
00000000
;

//---------------dance-double - NewbStepper-DDP----------------
#NOTES:
     dance-double:
     NewbStepper:
     Medium:
     7:
     0.274777,0.299977,0.139524,0.019932,0,193,179,14,2,0,0,0.274777,0.299977,0.139524,0.019932,0,193,179,14,2,0,0:
00000000
00000000
00000000
00000000
,
00000000
00000000
00000000
00000000
,
00000000
00000000
00000000
10000000
,
00010000
00100000
01000000
00000000
10000000
00000000
00010000
00000000
,
00010000
00000000
01000000
00000000
00100000
00010000
00001000
00000000
,
00000010
00000100
00000010
00000000
00000100
00000000
00001000
00000000
,
00001010
00000101
00001010
00000110
,
00001000
00000010
00000100
00000000
00000001
00000000
00001000
00000000
,
00001000
00000000
00000100
00000000
00000010
00001000
00010000
00000000
,
00100000
01000000
00100000
00000000
01000000
00000000
00010000
00000000
,
11000000
00110000
11000000
01100000
,
00010000
01000000
00010000
00000000
00100000
00000000
01000000
00000000
,
00010000
00001000
00010000
00000000
00001000
00000000
00000100
00000000
,
00000001
00001000
00000100
00010000
,
00000000
00011000
00000000
00001100
00000000
00000101
00000000
00000000
,
00001000
00000100
00001000
00000000
00000010
00000000
00000100
00000000
,
00001000
00010000
00001000
00000000
00010000
00000000
01000000
00000000
,
10000000
00010000
01000000
00001000
,
00011000
00000000
00011000
00000000
00010000
00000100
00001000
00000000
,
00000001
00000100
00000010
00000000
00001000
00000000
00000001
00000000
,
00000001
00000000
00000010
00000000
00000001
00000100
00001000
00000000
,
00010000
00001000
00010000
00000000
01000000
00000000
10000000
00000000
,
00010000
01000000
00010000
00000000
00010000
01000000
00010000
00000000
,
10000000
01000000
00100000
00000000
00010000
00000000
10000000
00000000
,
10000000
00000000
00100000
00000000
10000000
01000000
00010000
00000000
,
00001000
00010000
00001000
00000000
00000100
00000000
00000001
00000000
,
00001000
00000001
00001000
00000001
00001000
00000001
00000100
00000100
,
00000100
00000000
00000000
00000000
,
00000000
00000000
00000000
00000000
,
00100000
02000000
00000000
00000000
03000000
00000000
00000000
00000000
,
00000000
00000000
00000000
00000000
,
00000000
00000000
00000000
00000000
10000000
01000000
00010000
00000000
,
00000000
00000000
00000000
00000000
00000001
00000100
00001000
00000000
,
00000000
00000000
00000000
00000000
10000000
01000000
00010000
00000000
,
00002000
00000010
00010000
00003100
,
00000001
00000100
00000010
00000000
00001000
00000000
00000001
00000000
,
00000001
00000000
00000010
00000000
00000001
00000100
00001000
00000000
,
00010000
00001000
00010000
00000000
01000000
00000000
10000000
00000000
,
00010000
01000000
00010000
00000000
00010000
01000000
00010000
00000000
,
10000000
01000000
00100000
00000000
00010000
00000000
10000000
00000000
,
10000000
00000000
00100000
00000000
10000000
01000000
00010000
00000000
,
00001000
00010000
00001000
00000000
00000100
00000000
00000001
00000000
,
00001000
00000001
00001000
00000001
00001000
00000100
00000001
00000000
,
00000101
00000000
00000000
00000000
;

//---------------dance-double - NewbStepper-BDP----------------
#NOTES:
     dance-double:
     NewbStepper:
     Easy:
     4:
     0.172270,0.214269,0.049830,0,0,121,116,5,0,0,0,0.172270,0.214269,0.049830,0,0,121,116,5,0,0,0:
00000000
00000000
00000000
00000000
,
00000000
00000000
00000000
00000000
,
00000000
00000000
00000000
00000000
,
10000000
01000000
00100000
00010000
,
00000000
00001000
00000000
00000000
,
00000001
00000100
00000010
00001000
,
00000000
00010000
00000000
00000000
,
10000000
00100000
01000000
00010000
,
00000000
00001000
00000000
00000000
,
00000001
00000010
00000100
00001000
,
00000010
00000100
00001000
00011000
,
00000000
00000000
00000000
00000000
,
10000000
00000000
00000000
00000000
,
10000000
00000000
01000000
00000000
,
00010000
00001000
00010000
00011000
,
00000000
00000000
00000000
00000000
,
00000001
00000000
00000000
00000000
,
00000001
00000000
00000100
00000000
,
00001000
00000000
00011000
00000000
,
00100000
00010000
01000000
00100000
,
10000000
00010000
10000000
00010000
,
10000000
01000000
00100000
00010000
,
00000000
00001000
00000000
00001000
,
00000010
00001000
00000100
00000010
,
00000001
00001000
00000001
00001000
,
00000001
00000100
00000010
00001000
,
00000100
00010000
00001000
00100000
,
00010000
00000000
00000000
00000000
,
00000000
00000000
00000000
00000000
,
10010000
00000000
00000000
00000000
,
00000000
00000000
00000000
00000000
,
10000000
00010000
10000000
00010000
,
10000000
01000000
00010000
00010000
,
00001000
00010000
00001000
00010000
,
00001000
00000100
00000001
00001000
,
00000001
00000100
00000010
00001000
,
00000001
00000100
00001000
00010000
,
00001000
00100000
00010000
10000000
,
00010000
01000000
00100000
10000000
,
01000000
01000000
00010000
00001000
,
00100000
00010000
00100000
00001000
,
00010000
00000010
00001000
00000010
,
00000100
00000001
00000010
00000100
,
00001001
00000000
00000000
00000000
;

//---------------dance-double - NewbStepper-CDP----------------
#NOTES:
     dance-double:
     NewbStepper:
     Challenge:
     13:
     0.521080,0.591140,0.159456,0.398641,0.458437,366,350,16,40,0,0,0.521080,0.591140,0.159456,0.398641,0.458437,366,350,16,40,0,0:
00000000
00000000
00000000
00000000
,
00000000
00000000
00000000
00000000
,
00000000
00000000
00000000
00000000
,
00010000
00000000
10000000
01000000
00100000
00010000
00000000
00000000
00001000
00000100
00000010
00000001
00000000
00000000
00000001
00000100
,
00000010
00001000
00000000
00000000
00010000
01000000
00100000
10000000
00010000
00000000
01000000
00000000
01010000
00000000
00000000
00000000
,
00001000
00000000
00100000
00010000
00100000
01000000
00000000
00000000
00010000
00001000
00010000
00000100
00000010
00000000
00000001
00000000
,
00000100
00000000
00001100
00000000
00000010
00000001
00000100
00000010
,
00001000
00000000
00000001
00000100
00000010
00001000
00000000
00000000
00010000
01000000
00100000
10000000
00000000
00000000
10000000
01000000
,
00100000
00010000
00000000
00000000
00001000
00000100
00000010
00000001
00001000
00000000
00000100
00000000
00001100
00000000
00000000
00000000
,
00010000
00000000
00000010
00001000
00000010
00000100
00000000
00000000
00001000
00010000
00001000
01000000
00100000
00000000
10000000
00000000
,
01000000
00000000
00010000
00001000
00010000
00001000
00000100
00000000
00000110
00000000
00000010
00000000
00001000
00000100
00000010
00000001
,
00000010
00000000
00000001
00000100
00000001
00000100
00000010
00001000
00000100
00000000
00000010
00000001
00000000
00000000
00000001
00000100
,
00000010
00010000
00001000
00100000
00010000
00000000
10000000
00010000
10000000
00000000
01000000
00100000
00000000
00000000
00010000
10000000
,
00000000
00100000
10000000
01000000
00010000
00001000
00000010
00000001
,
00001000
00000100
00000000
00000100
00000010
00000000
00000001
00000000
00000101
00000000
00000100
00000000
00001010
00000000
00000000
00000100
,
00000000
00010000
00000000
00000010
00001000
00000000
00000001
00000000
00000100
00000000
00001000
00010000
00000000
00001000
00000000
00100000
,
00000000
00010000
00000000
01000000
10000000
00000000
01000000
00010000
00100000
00000000
00010000
10000000
00000000
00100000
00000000
00000000
,
10000000
01000000
00000000
01000000
00010000
00000000
00001000
00000000
00000010
00000000
00000100
00000000
00001100
00000000
00001000
00000000
,
00000110
00000000
00000100
00000000
00001001
00000010
00000100
00000000
,
00001001
00000000
00000001
00000020
00001000
00000230
00020300
00032000
,
02003000
10000000
00100000
03010000
,
10000000
00100000
10000000
02000000
00010000
03200000
02300000
03020000
,
00032000
00000000
00000000
00000000
01000000
00000000
00000000
00000000
00013000
00000000
00100000
00000000
10000000
00000000
00010000
10000000
,
00010000
00000000
10000000
00200000
00010000
02300000
03002000
00023000
,
00030200
00000001
00000010
00001300
,
00000001
00000010
00000001
00000200
00001000
00000320
00000230
00002300
,
00023000
00000000
00000000
00000000
00000100
00000000
00000000
00000000
00031000
00000000
00000010
00000000
00000001
00000000
00001000
00000001
,
00000000
00000010
00000000
00000001
00000100
00000010
00001000
00000000
00000001
00000100
00001000
00010000
00000000
00000000
00000010
00001000
,
00000000
00001000
00000100
00000000
00010000
00000000
00001000
00100000
00010000
00100000
01000000
10000000
00000000
00010000
00000000
10000000
,
00000000
00100000
01000000
00010000
00100000
00000000
00001000
00010000
00100000
00000000
00010000
00001000
00000000
00000000
00100000
00010000
,
00000000
00010000
01000000
00000000
00001000
00000000
00010000
00001000
00000100
00000000
00000010
00000100
00000000
00000000
00000001
00001000
,
00000100
00000000
00000010
00000001
00000010
00000001
00001000
00000000
00000010
00010000
00000010
00010000
00001000
00000000
00100000
00001000
,
00100000
00001000
00010000
00000000
00001000
01000000
00001000
01000000
00010000
00000000
00100000
00000000
01000000
00000000
00010000
00000000
,
00001000
00000000
00100000
00010000
00100000
01000000
10000000
00000000
00010000
01000000
00010000
10000000
01000000
00000000
00010000
00000000
,
00011000
00000000
00000000
00000000
00001010
00000000
00000000
00000010
00000001
00000000
00000100
00000000
00001000
00000000
00010000
00000000
,
00100000
00000000
10000000
00010000
10000000
00000000
00200000
00000000
00010000
00000000
02300000
00000000
03002000
00000000
00023000
00000000
,
00030200
00000001
00000010
00001300
,
00000001
00000010
00000001
00000200
00001000
00000320
00000230
00002300
,
00023000
00000000
00000100
00000000
00031000
00000010
00000001
00000000
,
00001001
00000000
00000001
00001000
00000001
00000000
00000020
00000000
00001000
00000000
00000230
00000000
00020300
00000000
00032000
00000000
,
02003000
10000000
00100000
03010000
,
10000000
00100000
10000000
02000000
00010000
03200000
02300000
03020000
,
00032000
00000000
00013000
00000000
00011000
00010010
00001010
00001000
,
00000001
00000000
00000000
00000000
00000000
00000000
00000100
00000000
00001000
00000000
00000100
00000000
00000001
00000000
00000010
00000100
;
