#VERSION:0.83;
#TITLE:Sea Side City;
#ARTIST:KISS SUMMER SISTERS;
#BANNER:Sea Side City.png;
#BACKGROUND:Sea Side City-bg.png;
#JACKET:Sea Side City-jacket.png;
#MUSIC:Sea Side City.ogg;
#OFFSET:1.025;
#SAMPLESTART:54.287;
#SAMPLELENGTH:15;
#BPMS:0=160;

//---------------dance-single - NewbStepper-ESP----------------
#NOTEDATA:;
#CHARTNAME:NewbStepper-ESP;
#STEPSTYPE:dance-single;
#DESCRIPTION:NewbStepper-ESP;
#DIFFICULTY:Hard;
#METER:11;
#RADARVALUES:0.537549,0.585771,0.389987,0.168643,0,357,320,37,16,0,0,0,0,0,0.537549,0.585771,0.389987,0.168643,0,357,320,37,16,0,0,0,0,0;
#CREDIT:NewbStepper;
#NOTES:
// measure 0
0000
0000
0000
0000
,  // measure 1
1000
0000
0100
0000
0001
0100
1000
0010
,  // measure 2
0000
1000
0010
0000
0100
0001
0000
0010
,  // measure 3
0000
1000
0010
0000
0001
0100
0010
1000
,  // measure 4
0000
0001
0100
1000
0100
0010
1000
0000
,  // measure 5
0001
0000
0100
0000
1000
0100
0001
0010
,  // measure 6
0000
0001
0010
0000
0100
1000
0000
0010
,  // measure 7
0000
0001
0010
0000
1000
0100
0010
0001
,  // measure 8
0000
0001
0100
0010
1000
0100
0010
0001
,  // measure 9
2001
0000
0000
0001
0000
0000
3001
0000
,  // measure 10
0210
0000
0000
0010
0000
0000
0310
0000
,  // measure 11
1002
0000
0000
1003
0000
0000
0000
1001
,  // measure 12
0000
1001
1001
0000
0000
0000
0000
0000
,  // measure 13
0010
0000
0001
0100
0000
0100
1000
0100
,  // measure 14
0010
0000
1000
0100
0000
0100
0010
0001
,  // measure 15
0100
0001
0100
0010
0100
1000
0100
0010
,  // measure 16
0000
0010
1000
0000
1001
0000
0101
0000
,  // measure 17
0010
0000
1000
0100
0000
0001
0100
0000
,  // measure 18
0010
0000
0001
0100
0000
1000
0100
0000
,  // measure 19
0011
0000
1100
0000
0010
0110
0000
1001
,  // measure 20
0000
0001
0100
0100
0010
0010
1000
1000
,  // measure 21
0010
0000
1000
0100
0000
0100
0001
0100
,  // measure 22
0010
0000
0001
0100
0000
0100
0010
1000
,  // measure 23
0100
0000
0010
0001
0100
1000
0100
0001
,  // measure 24
0000
0010
0011
0000
0000
0000
0100
1000
,  // measure 25
1020
0000
0001
0001
0000
0100
0130
0000
,  // measure 26
1001
1001
1001
0000
0000
0000
0000
0000
,  // measure 27
0010
0001
0100
0010
1000
0100
0010
0001
,  // measure 28
1000
1000
0100
0100
0010
0010
0001
0001
,  // measure 29
0200
1000
0010
0301
,  // measure 30
0021
0100
1000
0130
,  // measure 31
1001
0000
0010
0100
0110
0000
0001
1000
,  // measure 32
1001
0001
0100
0100
0010
0010
1000
1000
,  // measure 33
0200
0001
0010
1300
,  // measure 34
1020
0100
0001
0130
,  // measure 35
1000
0100
0010
0001
0010
1000
0001
0100
,  // measure 36
1000
1000
0001
0001
0100
0010
0100
1001
,  // measure 37
0000
1000
0100
0010
0001
0010
0100
0010
,  // measure 38
0000
1000
0010
0000
0001
0010
0100
1000
,  // measure 39
0000
0001
0100
0010
1000
0010
0100
0010
,  // measure 40
0000
0001
0010
0000
1000
0100
0010
0011
,  // measure 41
0000
0100
1000
0010
0100
0010
0000
1010
,  // measure 42
0000
0100
0001
0010
0100
0010
0001
0000
,  // measure 43
0011
0100
0000
1010
0100
0000
1001
0100
,  // measure 44
1100
0000
0010
0001
0100
0010
1000
1001
,  // measure 45
0000
0001
0100
0010
1000
0010
0100
0010
,  // measure 46
0000
0001
0010
0000
1000
0010
0100
0001
,  // measure 47
0000
1000
0100
0010
0001
0010
0100
0010
,  // measure 48
0000
1000
0010
0000
0001
0100
0010
1010
,  // measure 49
0000
0100
0001
0010
0100
0010
0000
0011
,  // measure 50
0000
0100
1000
0010
0100
0010
1000
0000
,  // measure 51
1010
0100
0000
0011
0100
0000
1001
0100
,  // measure 52
0101
0000
0010
1000
0100
0010
0001
0100
,  // measure 53
0020
1000
0000
1000
,  // measure 54
0230
0001
0000
0301
,  // measure 55
2000
0000
0010
0010
0000
0000
0100
0000
,  // measure 56
3002
0000
0010
0010
0000
0000
0103
0000
,  // measure 57
1020
0100
0001
1000
,  // measure 58
0230
0000
0002
0300
,  // measure 59
2000
0000
0000
0000
,  // measure 60
0000
0000
0000
0000
,  // measure 61
0000
0000
0000
3003
;

//---------------dance-single - NewbStepper-DSP----------------
#NOTEDATA:;
#CHARTNAME:NewbStepper-DSP;
#STEPSTYPE:dance-single;
#DESCRIPTION:NewbStepper-DSP;
#DIFFICULTY:Medium;
#METER:8;
#RADARVALUES:0.383964,0.455599,0.115942,0.442688,0,255,244,11,42,0,0,0,0,0,0.383964,0.455599,0.115942,0.442688,0,255,244,11,42,0,0,0,0,0;
#CREDIT:NewbStepper;
#NOTES:
0000
0000
0000
0000
,
0001
0000
0010
0000
0001
0100
0000
0010
,
0000
0010
1000
0000
0100
0010
0000
0001
,
0000
0000
1000
0000
0010
1000
0000
0001
,
0000
0010
0002
0000
0203
0000
0320
0000
,
1030
0000
0010
0000
1000
0100
0000
0010
,
0000
0010
0001
0000
0100
0010
0000
1000
,
0000
0000
0001
0000
0010
0001
0000
1000
,
0000
0001
0100
0001
0100
0001
0100
0000
,
0010
0000
0000
0020
0000
0000
0030
0000
,
1000
0000
0000
2000
0000
0000
3000
0000
,
0001
0000
0000
0002
0000
0000
0003
1000
,
0000
0001
1001
0000
0000
0000
0000
0000
,
0020
0000
0000
0002
0000
0000
0033
0000
,
0100
0000
1000
0000
0010
1000
0010
0000
,
2000
0000
3200
0000
0320
0000
0031
0100
,
0000
0010
0100
0000
0000
0000
1000
0100
,
0002
0000
0000
2000
0000
0000
3003
0000
,
0010
0000
1000
0000
0010
0100
0010
0000
,
1000
0000
0001
0000
0100
0010
0000
0110
,
0000
1000
0001
1000
,
0020
0000
0000
2000
0000
0000
3030
0000
,
0100
0000
0001
0000
0010
0001
0010
0000
,
0002
0000
0203
0000
0320
0000
1030
0100
,
0000
0010
0100
0000
0000
0000
0001
0100
,
2000
0000
0000
3002
0000
0000
0103
0000
,
0010
0010
0010
0000
0000
0000
0000
0000
,
2010
0000
0000
0001
0002
0000
3003
0000
,
0001
1000
0001
1000
0001
1000
0001
0000
,
1000
0100
0001
0010
,
2000
3002
0203
0310
,
1010
0100
0011
0100
,
1000
0001
1000
0001
1000
0001
1000
0000
,
0001
0100
1000
0010
,
0002
2003
3200
0310
,
0011
0100
1010
0100
,
0001
1000
0001
1000
0001
1000
0001
0000
,
0100
0010
0100
0000
0001
0000
0010
0000
,
0100
1000
0001
0000
1000
0010
0001
0000
,
0010
0100
0010
0000
1000
0000
0100
0000
,
0010
0001
1000
0000
0001
0100
1000
0000
,
0200
0001
1000
0001
,
0320
1000
0001
1000
,
0130
0100
0000
0001
0001
0000
0010
0010
,
0100
0000
1000
0001
1000
0001
1000
0000
,
0100
0010
0100
0000
1000
0000
0010
0000
,
0100
0001
1000
0000
0001
0010
1000
0000
,
0010
0100
0010
0000
0001
0000
0100
0000
,
0010
1000
0001
0000
1000
0100
0001
0000
,
0200
1000
0001
1000
,
0320
0001
1000
0001
,
0130
0100
0000
1000
1000
0000
0010
0010
,
0100
0000
0001
1000
0001
1000
0001
0000
,
0022
0000
0000
0033
,
2001
0000
3020
0000
,
0200
0000
0000
0330
,
0001
0100
0010
1000
,
2020
0000
0000
3030
,
1002
0000
0023
0000
,
0200
0000
0000
0000
,
0000
0000
0000
0000
,
0000
0000
0000
0330
;

//---------------dance-single - NewbStepper-BSP----------------
#NOTEDATA:;
#CHARTNAME:NewbStepper-BSP;
#STEPSTYPE:dance-single;
#DESCRIPTION:NewbStepper-BSP;
#DIFFICULTY:Easy;
#METER:5;
#RADARVALUES:0.249953,0.325428,0.210804,0.179183,0,166,146,20,17,0,0,0,0,0,0.249953,0.325428,0.210804,0.179183,0,166,146,20,17,0,0,0,0,0;
#CREDIT:NewbStepper;
#NOTES:
0000
0000
0000
0000
,
0001
0010
0001
0000
,
1000
0010
1000
0000
,
0001
0100
0001
0000
,
1000
0100
1000
0000
,
0001
0001
0100
1000
,
1000
0100
0001
0001
,
0010
1000
1000
0010
,
0001
1000
0001
1000
,
0002
0000
0003
0000
,
2000
0000
3000
0000
,
0020
0000
0000
0000
0030
0000
0000
1001
,
0000
0000
0000
0000
,
0002
0000
0013
0000
,
0200
0000
1300
0000
,
0010
0001
0100
0000
,
0010
1000
0100
0000
,
2000
0000
3100
0000
,
0020
0000
0031
0000
,
0100
1000
0001
0100
,
0010
0000
0000
0000
,
2000
0000
3010
0000
,
0200
0000
0301
0000
,
0010
1000
0100
0000
,
0010
0001
0100
0000
,
0002
0000
0103
0000
,
0110
0000
0000
0000
,
1000
0001
1000
0000
,
0010
0010
0010
0010
,
0110
0000
0000
0000
,
1001
0000
0000
0000
,
0110
0000
0000
0000
,
0100
0100
0100
0100
,
0110
0000
0000
0000
,
1001
0000
0000
0000
,
0110
0000
0000
0000
,
0001
1000
0001
1000
,
0010
1000
0100
0001
,
0100
1000
0001
0000
,
0010
0001
0100
1000
,
0100
0001
1000
0000
,
0010
1000
1010
0000
,
0100
0001
0101
0000
,
1001
0000
0000
1001
0000
0000
0001
0000
,
0100
0010
1000
0100
,
0010
0001
0100
1000
,
0100
0001
1000
0000
,
0010
1000
0100
0001
,
0100
1000
0001
0000
,
0010
0001
0011
0000
,
0100
1000
1100
0000
,
1001
0000
0000
1001
0000
0000
1000
0000
,
0100
0010
0001
0100
,
0020
0000
0000
0030
,
2000
0000
0000
3000
,
0002
0000
0000
0000
,
0000
0000
0003
0000
,
2002
0000
0000
3003
,
0110
0000
0110
0000
,
2002
0000
0000
0000
,
0000
0000
0000
0000
,
0000
0000
0000
3003
;

//---------------dance-single - NewbStepper-bSP----------------
#NOTEDATA:;
#CHARTNAME:NewbStepper-bSP;
#STEPSTYPE:dance-single;
#DESCRIPTION:NewbStepper-bSP;
#DIFFICULTY:Beginner;
#METER:2;
#RADARVALUES:0.106908,0.162714,0.021080,0.094862,0,71,69,2,9,0,0,0,0,0,0.106908,0.162714,0.021080,0.094862,0,71,69,2,9,0,0,0,0,0;
#CREDIT:NewbStepper;
#NOTES:
0000
0000
0000
0000
,
1000
0000
0000
0000
,
0000
0000
0000
0000
,
0001
0000
0000
0000
,
0000
0000
0000
0000
,
1000
0000
0000
0000
,
0000
0000
0000
0000
,
0001
0000
0000
0000
,
0000
0000
0000
0000
,
0100
0000
0000
0000
,
0100
0000
0000
0000
,
0100
0000
0000
0000
,
0000
0000
0000
0000
,
1000
0000
0001
0000
,
1000
0000
0000
0000
,
0010
0000
0100
0000
,
0010
0000
0000
0000
,
0001
0000
1000
0000
,
0001
0000
0000
0000
,
0100
0000
0010
0000
,
0100
0000
0000
0000
,
0001
0000
1000
0000
,
0001
0000
0000
0000
,
0010
0000
0100
0000
,
0010
0000
0000
0000
,
2000
0000
3000
0000
,
1001
0000
0000
0000
,
0200
0000
0300
0000
,
0010
0000
0000
0000
,
1000
0000
1000
0000
,
0001
0000
0001
0000
,
0010
0000
0010
0000
,
0020
0000
0030
0000
,
0001
0000
0001
0000
,
1000
0000
1000
0000
,
0010
0000
0010
0000
,
0020
0000
0030
0000
,
1000
0000
0001
0000
,
1000
0000
0000
0000
,
0001
0000
1000
0000
,
0001
0000
0000
0000
,
0100
0000
0000
0000
,
0100
0000
0000
0000
,
0001
0000
1000
0000
,
0001
0000
0000
0000
,
0001
0000
1000
0000
,
0001
0000
0000
0000
,
1000
0000
0001
0000
,
1000
0000
0000
0000
,
0100
0000
0000
0000
,
0100
0000
0000
0000
,
1000
0000
0001
0000
,
1000
0000
0000
0000
,
0002
0000
0000
0000
,
0000
0000
0003
0000
,
2000
0000
0000
0000
,
0000
0000
3000
0000
,
0020
0000
0000
0000
,
0000
0000
0030
0000
,
2002
0000
0000
0000
,
0000
0000
0000
0000
,
0000
0000
0000
3003
;

//---------------dance-double - NewbStepper-EDP----------------
#NOTEDATA:;
#CHARTNAME:NewbStepper-EDP;
#STEPSTYPE:dance-double;
#DESCRIPTION:NewbStepper-EDP;
#DIFFICULTY:Hard;
#METER:11;
#RADARVALUES:0.519481,0.553228,0.305665,0.158103,0,345,316,29,15,0,0,0,0,0,0.519481,0.553228,0.305665,0.158103,0,345,316,29,15,0,0,0,0,0;
#CREDIT:NewbStepper;
#NOTES:
00000000
00000000
00000000
00000000
,
00010000
00000000
00001000
00000000
00100000
01000000
10000000
00100000
,
00000000
00100000
00010000
00000000
00001000
00000010
00000000
00000001
,
00000000
00000001
00000010
00000000
00000100
00010000
00001000
00010000
,
00000000
01000000
00100000
01000000
10000000
01000000
00010000
00000000
,
00001000
00000000
00010000
00000000
00000010
00000100
00000001
00000010
,
00000000
00000010
00001000
00000000
00010000
00100000
00000000
10000000
,
00000000
10000000
00100000
00000000
10000000
01000000
00100000
00010000
,
00000000
01000000
00100000
00010000
00001000
00000100
00000010
00000001
,
00000020
00000000
00000000
00010000
00000000
00000000
00010030
00000000
,
00021000
00000000
00000000
00100000
00000000
00000000
00130000
00000000
,
01200000
00000000
00000000
01300000
00000000
00000000
00000000
10010000
,
00000000
10010000
10010000
00000000
00000000
00000000
00000000
00000000
,
00100000
00000000
10000000
01000000
00000000
01000000
00010000
00001000
,
00000100
00000000
00000001
00001000
00000000
00000001
00000010
00000001
,
00000100
00000010
00001000
00000100
00010000
00001000
00100000
00010000
,
00000000
10000000
00100000
00000000
01010000
00000000
00011000
00000000
,
00000010
00000000
00000001
00000100
00000000
00001000
00010000
00000000
,
00100000
00000000
10000000
01000000
00000000
00010000
00001000
00000000
,
00011000
00000000
00011000
00000000
01000000
00100000
00000000
10010000
,
00000000
01000000
10000000
00010000
01000000
00001000
00010000
00000100
,
00000010
00000000
00000001
00000100
00000000
00000100
00001000
00010000
,
01000000
00000000
10000000
00010000
00000000
10000000
00100000
10000000
,
01000000
00100000
00010000
01000000
00001000
00010000
00000010
00001000
,
00000000
00000001
00000010
00000000
00001100
00000000
00011000
00000000
,
00100000
00000000
10000000
01000000
00000000
00010000
01000000
00000000
,
01100000
01100000
01100000
00000000
00000000
00000000
00000000
00000000
,
00001000
00010000
00001000
00000100
00000001
00000010
00000100
00001000
,
00000001
00000100
00000010
00001000
00010000
01000000
00100000
10000000
,
00020000
01000000
10000000
00100000
,
00032000
00000100
00000001
00000010
,
00013000
00000000
00100000
01000000
01100000
00000000
10000000
00010000
,
10000000
01000000
00100000
00010000
00001000
00000100
00000010
00000001
,
00002000
00000100
00000001
00000010
,
00023000
01000000
10000000
00100000
,
00031000
00000100
00000010
00000001
00000010
00001000
00000001
00000100
,
00001000
00000100
00010000
00001000
00100000
00010000
10000000
10010000
,
00000000
01000000
00100000
00010000
00001000
00000000
00010000
00100000
,
00000000
10000000
00100000
00000000
00010000
00001000
00000010
00000011
,
00000000
00000100
00000010
00001000
00010000
00000000
00001000
00000010
,
00000000
00000001
00000010
00000000
00001000
00010000
01000000
01100000
,
00000000
10000000
01000000
00010000
00001000
00000100
00000000
00000110
,
00000000
00000001
00000100
00001000
00010000
01000000
00100000
00000000
,
01100000
10000000
00000000
00010000
01000000
00000000
00100000
10000000
,
11000000
00000000
00010000
00001000
00010000
00000100
00000010
00001001
,
00000000
00000100
00000010
00001000
00010000
00000000
00001000
00000010
,
00000000
00000001
00000010
00000000
00001000
00010000
00100000
10100000
,
00000000
01000000
00100000
00010000
00001000
00000000
00010000
00100000
,
00000000
10000000
00100000
00000000
00010000
00001000
00000010
00000110
,
00000000
00000001
00000100
00001000
00010000
01000000
00000000
01100000
,
00000000
10000000
01000000
00010000
00001000
00000100
00000010
00000000
,
00000110
00000001
00000000
00001000
00000100
00000000
00000010
00000001
,
00000101
00000000
00001000
00010000
00001000
01000000
00100000
10000000
,
02000000
00010000
00000000
03010000
,
00002000
00010000
00000000
00013000
,
00000200
00000000
00000010
00000010
00000000
00000000
00000001
00000000
,
00000320
00000000
00001000
00001000
00000000
00000000
00000130
00000000
,
00002100
00000000
00000001
00000010
,
00023000
00000000
20000000
00030000
,
00200000
00000000
00000000
00000000
,
00000000
00000000
00000000
00000000
,
00000000
00000000
00000000
30300000
;

//---------------dance-double - NewbStepper-DDP----------------
#NOTEDATA:;
#CHARTNAME:NewbStepper-DDP;
#STEPSTYPE:dance-double;
#DESCRIPTION:NewbStepper-DDP;
#DIFFICULTY:Medium;
#METER:9;
#RADARVALUES:0.383964,0.455599,0.115942,0.442688,0,255,244,11,42,0,0,0,0,0,0.383964,0.455599,0.115942,0.442688,0,255,244,11,42,0,0,0,0,0;
#CREDIT:NewbStepper;
#NOTES:
00000000
00000000
00000000
00000000
,
00000001
00000000
00000010
00000000
00000001
00000100
00000000
00001000
,
00000000
00001000
00010000
00000000
00100000
00010000
00000000
00001000
,
00000000
00000000
00100000
00000000
00010000
01000000
00000000
00100000
,
00000000
10000000
00020000
00000000
02030000
00000000
03200000
00000000
,
10300000
00000000
00100000
00000000
10000000
01000000
00000000
00010000
,
00000000
00010000
00001000
00000000
00000010
00001000
00000000
00010000
,
00000000
00000000
00000100
00000000
00000010
00000100
00000000
00001000
,
00000000
00000001
00000100
00000001
00000100
00000001
00000100
00000000
,
00001000
00000000
00000000
00002000
00000000
00000000
00003000
00000000
,
00010000
00000000
00000000
00020000
00000000
00000000
00030000
00000000
,
00100000
00000000
00000000
00200000
00000000
00000000
00300000
10000000
,
00000000
00010000
10010000
00000000
00000000
00000000
00000000
00000000
,
00200000
00000000
00000000
20000000
00000000
00000000
30300000
00000000
,
01000000
00000000
00010000
00000000
00001000
00010000
00001000
00000000
,
00020000
00000000
00030200
00000000
00002300
00000000
00003010
00000100
,
00000000
00000001
00000100
00000000
00000000
00000000
00001000
00000100
,
00000002
00000000
00000000
00002000
00000000
00000000
00003003
00000000
,
00000100
00000000
00000010
00000000
00001000
00010000
00001000
00000000
,
00100000
00000000
01000000
00000000
00100000
00010000
00000000
10010000
,
00000000
01000000
00010000
00001000
,
00000020
00000000
00000000
00000002
00000000
00000000
00000033
00000000
,
00000100
00000000
00001000
00000000
00010000
00001000
00010000
00000000
,
00002000
00000000
02003000
00000000
03020000
00000000
00130000
01000000
,
00000000
10000000
01000000
00000000
00000000
00000000
00010000
01000000
,
20000000
00000000
00000000
30020000
00000000
00000000
01030000
00000000
,
00100000
00100000
00100000
00000000
00000000
00000000
00000000
00000000
,
20100000
00000000
00000000
00010000
00020000
00000000
30030000
00000000
,
00100000
00001000
00100000
00001000
00100000
00001000
00100000
00000000
,
00001000
00000100
00000001
00000010
,
00002000
00023000
02030000
03100000
,
00110000
01000000
10100000
01000000
,
00001000
00010000
00001000
00010000
00001000
00010000
00001000
00000000
,
00010000
01000000
10000000
00100000
,
00020000
00032000
00003200
00000310
,
00001010
00000100
00000011
00000100
,
00010000
00001000
00010000
00001000
00010000
00001000
00010000
00000000
,
01000000
00100000
01000000
00000000
10000000
00000000
00100000
00000000
,
10000000
01000000
00010000
00000000
00001000
00000100
00000001
00000000
,
00000010
00000100
00000010
00000000
00000001
00000000
00000100
00000000
,
00000001
00000010
00001000
00000000
00010000
00100000
10000000
00000000
,
02000000
10000000
00010000
10000000
,
03200000
10000000
00010000
00301000
,
00010000
00001000
00000000
00000100
00001000
00000000
00010000
00000100
,
00000010
00000000
00000001
00001000
00000001
00001000
00000001
00000000
,
00000100
00000010
00000100
00000000
00000001
00000000
00000010
00000000
,
00000001
00000100
00001000
00000000
00010000
01000000
10000000
00000000
,
00100000
01000000
00100000
00000000
10000000
00000000
01000000
00000000
,
10000000
00100000
00010000
00000000
00001000
00000010
00000001
00000000
,
00000200
00000001
00001000
00000001
,
00000320
00000001
00001000
00010030
,
00001000
00010000
00000000
01000000
00010000
00000000
00001000
01000000
,
00100000
00000000
10000000
00010000
10000000
00010000
10000000
00000000
,
20200000
00000000
00000000
30300000
,
01002000
00000000
00023000
00000000
,
00000200
00000000
00000000
00030300
,
00001000
00000100
00000001
00000010
,
00000022
00000000
00000000
00000033
,
00020100
00000000
00032000
00000000
,
02000000
00000000
00000000
00000000
,
00000000
00000000
00000000
00000000
,
00000000
00000000
00000000
03003000
;

//---------------dance-double - NewbStepper-BDP----------------
#NOTEDATA:;
#CHARTNAME:NewbStepper-BDP;
#STEPSTYPE:dance-double;
#DESCRIPTION:NewbStepper-BDP;
#DIFFICULTY:Easy;
#METER:5;
#RADARVALUES:0.248447,0.325428,0.200264,0.168643,0,165,146,19,16,0,0,0,0,0,0.248447,0.325428,0.200264,0.168643,0,165,146,19,16,0,0,0,0,0;
#CREDIT:NewbStepper;
#NOTES:
00000000
00000000
00000000
00000000
,
10000000
00100000
10000000
00000000
,
00010000
00100000
00010000
00000000
,
01000000
00001000
01000000
00000000
,
00001000
00010000
00001000
00000000
,
00000010
00000010
00000001
00000100
,
00000100
00001000
00010000
00010000
,
00100000
10000000
10000000
01000000
,
00010000
00001000
00010000
00001000
,
00020000
00000000
00030000
00000000
,
00000020
00000000
00000030
00000000
,
00002000
00000000
00000000
00000000
00003000
00000000
00000000
00001001
,
00000000
00000000
00000000
00000000
,
00000002
00000000
00000013
00000000
,
00000200
00000000
00001300
00000000
,
00000001
00000100
00001000
00000000
,
00010000
01000000
10000000
00000000
,
20000000
00000000
31000000
00000000
,
00200000
00000000
00310000
00000000
,
01000000
00001000
00010000
00001000
,
00100000
00000000
00000000
00000000
,
20000000
00000000
30100000
00000000
,
02000000
00000000
03010000
00000000
,
10000000
01000000
00010000
00000000
,
00001000
00000100
00000001
00000000
,
00000002
00000000
00000103
00000000
,
00000110
00000000
00000000
00000000
,
00000001
00000100
00001000
00000000
,
00100000
00100000
00100000
00100000
,
01100000
00000000
00000000
00000000
,
00011000
00000000
00000000
00000000
,
00000110
00000000
00000000
00000000
,
00000100
00000100
00000100
00000100
,
00000110
00000000
00000000
00000000
,
00011000
00000000
00000000
00000000
,
01100000
00000000
00000000
00000000
,
00010000
10000000
00010000
10000000
,
00100000
10000000
01000000
00010000
,
00001000
00000100
00000001
00000000
,
00000010
00000001
00000100
00001000
,
00010000
01000000
10000000
00000000
,
00010000
00100000
00110000
00000000
,
10000000
00100000
10100000
00000000
,
10010000
00000000
00000000
00011000
00000000
00000000
00000100
00000000
,
00001000
00000010
00000100
00000001
,
00000010
00000001
00000100
00001000
,
00010000
01000000
10000000
00000000
,
00100000
10000000
01000000
00010000
,
00001000
00000100
00000001
00000000
,
00001000
00000010
00001010
00000000
,
00000001
00000010
00000011
00000000
,
00001001
00000000
00000000
00011000
00000000
00000000
01000000
00000000
,
00010000
00100000
01000000
10000000
,
00200000
00000000
00000000
00300000
,
20000000
00000000
00000000
30000000
,
00020000
00000000
00000000
00000000
,
00000000
00000000
00030000
00000000
,
00002000
00000000
00000000
00003000
,
00000101
00000000
00001100
00000000
,
00002002
00000000
00000000
00000000
,
00000000
00000000
00000000
00000000
,
00000000
00000000
00000000
00003003
;
