#VERSION:0.83;
#TITLE:サヨナラ・ヘヴン;
#ARTIST:猫叉Master;
#TITLETRANSLIT:Sayonara Heaven;
#ARTISTTRANSLIT:Nekomata Master;
#BANNER:Sayonara Heaven.png;
#BACKGROUND:Sayonara Heaven-bg.png;
#JACKET:Sayonara Heaven-jacket.png;
#MUSIC:Sayonara Heaven.ogg;
#OFFSET:-2.174;
#SAMPLESTART:70.706505;
#SAMPLELENGTH:15;
#BPMS:0=111;
#BGCHANGES:-1.5=Sayonara Heaven.avi=1=0=0=0=StretchNoLoop====,99999=-nosongbg-=1=0=0=0 // don't automatically add -songbackground-;

//---------------dance-single - Pandemonium X-ESP----------------
#NOTEDATA:;
#CHARTNAME:Pandemonium X-ESP;
#STEPSTYPE:dance-single;
#DESCRIPTION:Pandemonium X-ESP;
#DIFFICULTY:Hard;
#METER:9;
#RADARVALUES:0.341872,0.399729,0.064898,0.048673,0.141964,295,287,8,6,0,0,0,0,0,0.341872,0.399729,0.064898,0.048673,0.141964,295,287,8,6,0,0,0,0,0;
#CREDIT:Pandemonium X;
#NOTES:
0000
0000
0000
0000
,
0000
0000
0000
0000
,
0000
0000
0000
0000
,
0000
0000
0000
0000
,
0001
1000
0001
1000
,
0001
0000
1000
0000
0100
0000
1000
0001
,
1000
0000
0000
0000
0001
0000
0000
0000
1000
0000
0000
0001
0100
0000
0010
0000
,
2000
0000
0000
3001
,
0010
0000
0100
0010
,
0001
0000
1000
0010
,
0100
0010
1000
0001
0010
0100
0010
0001
,
1000
0000
0010
1000
,
0010
0000
0100
0001
,
1000
0000
0100
1000
,
0100
0000
0010
0000
0001
0000
0100
0000
0010
0000
0000
1000
0010
0000
0100
0000
,
0001
0000
0000
0001
0000
0000
0001
0000
1000
0000
0000
0000
0010
0000
1000
0000
,
0100
0001
0100
1000
0001
0000
1000
0100
,
0020
0000
0000
0000
0130
0000
0000
0000
0010
0000
0000
0001
0000
0000
0100
0000
,
0010
0000
0000
0100
0000
0000
0001
0000
1000
0000
0000
0000
0001
0000
0010
0000
,
0100
0000
0000
0100
0000
0000
0010
0000
0100
0000
0000
0000
0010
0000
0001
0000
,
0100
1000
0100
0010
1000
0000
0001
1000
,
0020
0000
0000
0000
0130
0000
0000
0000
0010
0000
0000
1000
0000
0000
0010
0000
,
0100
0000
0000
0001
0000
0000
1000
0000
0001
0000
0000
0000
1001
0000
0000
0000
,
0001
0000
0000
0010
0000
0000
0100
0000
0010
0000
0001
0000
0001
0000
0000
0000
,
1000
0000
0000
0010
0000
0000
0100
0000
0010
0000
1000
0000
1000
0000
0000
0000
,
0001
0000
0000
1000
0000
0000
0010
0000
1000
0000
0000
0000
0010
0000
0100
0000
,
0020
1000
1000
1030
,
0100
0000
0000
0010
0000
0000
1000
0000
0001
0000
0011
0000
1100
0000
0000
0000
,
0001
0000
0000
0100
0000
0000
0010
0000
1000
0000
1010
0000
0101
0000
0000
0000
,
0001
0000
0000
0100
0000
0000
0001
0000
1000
0000
0000
0000
0100
0000
0010
0000
,
0200
0000
0310
0001
,
1000
0000
0000
0000
1000
0000
0000
0000
1000
0000
0000
0000
0000
0000
0000
0000
0001
0000
0000
0000
0001
0000
0000
0000
0001
0000
0000
0000
0000
0000
0000
0000
0000
0100
0000
0000
0010
0000
0000
0000
0000
0000
1000
0000
0000
0000
0000
0000
,
0001
0000
0000
1000
0001
0000
1000
0000
0010
0000
0000
1000
0001
0000
1000
0000
,
0010
0000
0000
1000
0001
0000
1000
0000
0010
0000
0000
0000
1000
0000
0100
0000
,
0010
0000
0000
0100
0010
0000
0001
0000
0010
0000
0100
0000
0010
0000
0001
0000
,
0100
1000
0100
0010
1000
0000
0001
1000
,
0010
0000
0000
0100
0001
0000
1000
0000
0001
0000
0000
0100
0001
0000
1000
0000
,
0001
0000
0000
0100
0001
0000
1000
0000
0001
0000
0000
0000
0100
0000
0010
0000
,
1000
0000
0000
0001
0100
0000
0001
0000
1000
0000
0010
0000
0100
0000
0001
0000
,
1000
0100
0001
0100
1000
0000
1001
0000
,
0001
0000
0000
1000
0010
0000
0100
0000
0010
0000
0000
1000
0010
0000
0100
0000
,
0010
0000
0000
1000
0010
0000
0100
0000
0010
0000
0000
0000
0100
0000
0010
0000
,
1000
0000
0000
0001
0010
0000
0100
0000
0010
0000
0001
0000
0100
0000
0010
0000
,
1000
0010
0001
0010
1000
0000
0001
1000
,
1010
0000
0000
1000
0000
0000
1000
0000
0010
0000
0000
0010
0000
0000
0010
0000
,
0100
0000
0000
0100
0000
0000
0100
0000
0001
0000
0000
0000
1000
0000
0100
0000
,
0010
0000
0000
0100
1000
0000
0001
0000
0100
0000
0001
0000
0010
0000
0100
0000
,
0020
0000
0000
0031
,
1000
0000
0001
0100
,
0010
0000
0100
0010
,
1000
0100
0010
0001
0010
0100
0010
0001
,
1000
0000
0001
0100
,
0001
0000
0100
0010
,
0100
0000
0010
1000
,
0001
0010
0100
1000
0001
0000
0110
0000
;

//---------------dance-single - Pandemonium X-BSP----------------
#NOTEDATA:;
#CHARTNAME:Pandemonium X-BSP;
#STEPSTYPE:dance-single;
#DESCRIPTION:Pandemonium X-BSP;
#DIFFICULTY:Easy;
#METER:4;
#RADARVALUES:0.166880,0.199865,0.081122,0.024337,0.004056,144,134,10,3,0,0,0,0,0,0.166880,0.199865,0.081122,0.024337,0.004056,144,134,10,3,0,0,0,0,0;
#CREDIT:Pandemonium X;
#NOTES:
0000
0000
0000
0000
,
0000
0000
0000
0000
,
0000
0000
0000
0000
,
0000
0000
0000
0000
,
1000
0000
1000
0000
,
1000
0000
1000
0000
,
0001
0000
0001
1000
,
0110
0000
0000
0100
,
0010
0000
1000
0010
,
1000
0000
0001
0010
,
0001
0001
0100
0100
,
0010
0000
1000
0010
,
1000
0000
0001
0010
,
0001
0000
1000
0001
,
0100
0100
0100
0000
,
0010
0000
1000
0000
,
0001
1000
0100
1000
,
0000
0000
0010
0000
,
0100
0000
0001
0010
,
0001
0000
1000
0000
,
0010
0100
0010
1000
,
0000
0000
0001
0000
,
1000
0000
0100
0000
,
1000
0010
1000
0000
,
0001
0100
0001
0000
,
0010
0001
0010
0100
,
2000
0000
3000
0000
,
0001
1000
0110
0000
,
0100
0010
1001
0000
,
0001
1000
0010
1000
,
0200
0000
0000
0300
,
1001
0000
0000
0000
0110
0000
0000
0000
0000
0100
0000
0000
,
0010
0000
1000
0000
,
0010
0000
1000
0000
,
0001
0000
0010
0000
,
0001
1000
0001
0000
,
0100
0000
0010
0000
,
1000
0000
0001
0000
,
0010
0000
0001
0000
,
1000
1000
0001
0000
,
0100
0000
0010
0000
,
1000
0000
0010
0000
,
0100
0000
0001
0000
,
1000
0100
0010
0000
,
1001
0000
1001
0000
,
1001
0000
1001
0000
,
0010
0000
0100
0010
,
0200
0000
0300
0010
,
1000
0000
0001
1000
,
0001
0000
0010
0001
,
1000
1000
0100
0100
,
1000
0000
0010
0100
,
0010
0000
1000
0010
,
1000
0000
0001
0010
,
0001
0001
1000
0110
;

//---------------dance-single - Pandemonium X-DSP----------------
#NOTEDATA:;
#CHARTNAME:Pandemonium X-DSP;
#STEPSTYPE:dance-single;
#DESCRIPTION:Pandemonium X-DSP;
#DIFFICULTY:Medium;
#METER:7;
#RADARVALUES:0.273497,0.333108,0.073010,0.064898,0.016224,236,227,9,8,0,0,0,0,0,0.273497,0.333108,0.073010,0.064898,0.016224,236,227,9,8,0,0,0,0,0;
#CREDIT:Pandemonium X;
#NOTES:
0000
0000
0000
0000
,
0000
0000
0000
0000
,
0000
0000
0000
0000
,
0000
0000
0000
0000
,
1000
0010
1000
0010
,
1000
0010
0100
0001
,
1000
0000
0010
0000
0100
0001
0010
0100
,
2000
0000
0000
3001
,
0010
0000
0001
1000
,
0001
0000
0100
0010
,
0100
0001
0010
0100
,
1100
0000
0100
1000
,
0001
0000
0100
0010
,
0100
0000
0010
1000
,
0001
0001
1000
1001
,
0001
0100
0010
1000
,
0010
0000
0100
0000
0001
0000
1000
0100
,
0020
0130
0010
0001
,
1000
0000
1000
0000
1000
0000
0001
0100
,
0010
0100
0001
1000
,
0100
0000
1000
0000
0010
0000
0100
0001
,
0020
0130
0010
0100
,
1000
0001
1001
0110
,
0001
0000
1000
0000
0010
1000
0100
0000
,
0010
0000
0001
0000
0100
0010
0001
0000
,
0010
0000
0001
0000
1000
0000
0010
0100
,
0020
0000
0000
0030
,
0100
0000
0010
0000
1000
0001
1001
0000
,
0001
0000
0010
0000
0001
1000
1001
0000
,
0001
0000
0100
0000
0010
0000
1000
0010
,
0200
0000
0310
1000
,
0100
0000
0010
0000
0001
0000
0000
0000
0010
0000
0100
0000
1000
0000
0000
0000
0000
0000
1000
0000
0000
0001
0000
0000
,
0100
0000
0001
1000
0001
0000
1000
0001
,
1000
0000
0001
1000
0001
0000
1000
0000
,
0010
0000
1000
0010
1000
0000
0010
0000
,
0100
0000
0001
0000
1000
0000
0001
0010
,
0100
0000
0010
0100
0010
0000
0100
1000
,
0100
0000
1000
0001
1000
0000
0001
0000
,
0100
0000
0010
1000
0010
0000
0100
0000
,
0010
0000
1000
0000
0001
0000
0010
0001
,
0200
0000
0301
0100
0010
0000
0100
0010
,
1000
0000
0100
0010
0001
0000
0010
0000
,
0200
0000
0310
0001
1000
0000
0001
0000
,
1000
0100
0010
0001
1000
0000
0001
1000
,
1010
0000
0010
0100
0010
0000
0100
0001
,
1000
0000
0001
0010
0001
0000
0010
0100
,
1000
0000
0100
0010
0001
0100
0010
1000
,
0002
0000
0000
1003
,
0010
0000
0100
0001
,
0100
0000
0100
0001
,
1000
0100
0010
0001
,
1001
0000
0001
1000
,
0010
0000
0100
0010
,
0100
0000
0010
1000
,
0001
0100
0010
1000
0001
0000
1001
0000
;

//---------------dance-single - Pandemonium X-bSP----------------
#NOTEDATA:;
#CHARTNAME:Pandemonium X-bSP;
#STEPSTYPE:dance-single;
#DESCRIPTION:Pandemonium X-bSP;
#DIFFICULTY:Beginner;
#METER:1;
#RADARVALUES:0.085758,0.155450,0.048673,0,0,74,68,6,0,0,0,0,0,0,0.085758,0.155450,0.048673,0,0,74,68,6,0,0,0,0,0,0;
#CREDIT:Pandemonium X;
#NOTES:
0000
0000
0000
0000
,
0000
0000
0000
0000
,
0000
0000
0000
0000
,
0000
0000
0000
0000
,
0000
0000
0000
0000
,
0000
0000
0000
0000
,
0000
0000
0000
0000
,
0010
0000
0000
0000
,
1000
0000
0000
0000
,
0001
0000
0000
0000
,
0100
0000
0100
0000
,
0010
0000
0000
0000
,
0100
0000
0000
0000
,
0001
0000
0000
0000
,
1000
0000
1000
0000
,
0100
0000
0000
0000
,
1000
0000
0000
0000
,
0010
0000
0000
0000
,
0100
0000
0000
0000
,
0001
0000
0000
0000
,
1000
0000
0000
0000
,
0010
0000
0000
0000
,
0100
0000
0010
0010
,
1000
0000
0000
0000
,
0001
0000
0000
0000
,
0100
0000
0010
0000
,
0100
0000
0000
0000
,
0001
0000
0000
1001
,
0000
0000
0000
1001
,
1000
0000
0001
0000
,
1000
0000
0000
0000
,
0110
0000
0000
0000
,
0010
0000
0000
0000
,
1000
0000
0000
0000
,
0001
0000
0000
0000
,
0010
0010
0010
0000
,
0001
0000
0000
0000
,
1000
0000
0000
0000
,
0100
0000
0000
0000
,
1000
1000
1000
0000
,
1001
0000
0000
0000
,
0001
0000
0000
0000
,
0010
0000
0000
0000
,
0001
0001
0001
0000
,
1000
0000
1000
0000
,
1000
0000
1000
0000
,
0010
0000
0100
0100
,
1001
0000
0000
0000
,
0010
0000
0000
0000
,
1000
0000
0000
0000
,
0001
0000
0001
0000
,
0001
0000
0000
0000
,
0010
0000
0000
0000
,
0001
0000
0000
0000
,
1000
0000
1000
1001
;

//---------------dance-double - Pandemonium X-EDP----------------
#NOTEDATA:;
#CHARTNAME:Pandemonium X-EDP;
#STEPSTYPE:dance-double;
#DESCRIPTION:Pandemonium X-EDP;
#DIFFICULTY:Hard;
#METER:9;
#RADARVALUES:0.369685,0.421936,0.129795,0.316376,0.146020,319,303,16,39,0,0,0,0,0,0.369685,0.421936,0.129795,0.316376,0.146020,319,303,16,39,0,0,0,0,0;
#CREDIT:Pandemonium X;
#NOTES:
00000000
00000000
00000000
00000000
,
00000000
00000000
00000000
00000000
,
00000000
00000000
00000000
00000000
,
00000000
00000000
00000000
00000000
00000000
00000000
00010000
10000000
,
00010000
00100000
00010000
01000000
,
00010000
00000000
00100000
00000000
00010000
00000000
10000000
00010000
,
00100000
00000000
00000000
00000000
00001000
00000000
00000000
00000000
00100000
00000000
00000000
00001000
00010000
00000000
00000100
00000000
,
00002000
00000010
00003010
00000200
,
00000302
00000013
00000002
00002003
,
00003200
00001300
00000200
00002300
,
00003010
00010000
00001000
00100000
01000000
10000000
01000000
00010000
,
02000000
03100000
00020000
02030000
,
03200000
10300000
20000000
30020000
,
00230000
00310000
00200000
00320000
,
01030000
00000000
00001000
00000000
00010000
00000000
00000100
00000000
00001100
00000000
00000000
00000010
00000001
00000000
00001000
00000000
,
00000010
00000000
00000000
00000010
00000000
00000000
00001000
00000000
00000001
00000000
00000000
00000000
00000010
00000000
00000001
00000000
,
00001000
00000010
00001000
00000100
00000010
00000000
00000100
00001000
,
00000010
00000000
00000000
00010000
00000000
00000000
00001000
00000000
00100000
00000000
00000000
00100000
00000000
00000000
00001000
00000000
,
01000000
00000000
00000000
01000000
00000000
00000000
00100000
00000000
10000000
00000000
00000000
00000000
01000000
00000000
00100000
00000000
,
00010000
00000000
00000000
00010000
00000000
00000000
00100000
00000000
01000000
00000000
00000000
00000000
00100000
00000000
00001000
00000000
,
00010000
00000100
00010000
00001000
00100000
00000000
00001000
00010000
,
00000100
00000000
00000000
00000000
00000110
00000000
00000010
00000000
00000100
00000000
00000000
00001000
00000000
00000000
00000010
00000000
,
00000100
00000000
00000000
00000001
00000000
00000000
00001000
00000000
00001001
00000000
00000000
00000000
00000110
00000000
00000000
00000000
,
00000010
00000000
00000000
00001000
00000000
00000000
00000100
00000000
00010000
00000000
00000000
00000000
00000000
00000000
00001000
00000000
,
00100000
00000000
00000000
00010000
00000000
00000000
01000000
00000000
00100000
00000000
00000000
00000000
00000000
00000000
01000000
00000000
,
00100000
00000000
00000000
10000000
00000000
00000000
00010000
00000000
00100000
00000000
00000000
00000000
01000000
00000000
00100000
00000000
,
00020000
00230000
00302000
00023000
,
00030100
00000000
00000000
00001000
00000000
00000000
00000010
00000000
00000100
00000000
00001001
00000000
00001001
00000000
00000000
00000000
,
00001000
00000000
00000000
00000010
00000000
00000000
00010000
00000000
00001000
00000000
00011000
00000000
00011000
00000000
00000000
00000000
,
00001000
00000000
00000000
00100000
00000000
00000000
00010000
00000000
01000000
00000000
00000000
00000000
00100000
00000000
10000000
00000000
,
02000000
00000000
00100000
03100000
,
01000000
00000000
00000000
00000000
00100000
00000000
00000000
00000000
00010000
00000000
00000000
00000000
00000000
00000000
00000000
00000000
00100000
00000000
00000000
00000000
00001000
00000000
00000000
00000000
00010000
00000000
00000000
00000000
00000000
00000000
00000000
00000000
00000000
00010000
00000000
00000000
00000010
00000000
00000000
00000000
00000000
00000000
00000100
00000000
00000000
00000000
00000000
00000000
,
00000001
00000000
00000000
00001000
00000001
00000000
00001000
00000000
00000010
00000000
00000000
00001000
00000001
00000000
00001000
00000000
,
00000010
00000000
00000000
00001000
00000001
00000000
00001000
00000000
00000010
00000000
00000000
00000000
00000100
00000000
00000010
00000000
,
00001000
00000000
00000000
00000100
00010000
00000000
00001000
00000000
00010000
00000000
01000000
00000000
10000000
00000000
01000000
00000000
,
00010000
01000000
10000000
01000000
00100000
00000000
01000000
00100000
,
00010000
00000000
00000000
00010000
10000000
00000000
00100000
00000000
10000000
00000000
00000000
00010000
10000000
00000000
00100000
00000000
,
10000000
00000000
00000000
00010000
10000000
00000000
00100000
00000000
10000000
00000000
00000000
00000000
00010000
00000000
00100000
00000000
,
01000000
00000000
00000000
00100000
00010000
00000000
01000000
00000000
00001000
00000000
00010000
00000000
00000100
00000000
00000001
00000000
,
00000100
00000010
00000001
00001000
00000010
00000000
00001001
00000000
,
00000001
00000000
00000000
00000010
00000100
00000000
00001000
00000000
00000100
00000000
00000000
00000100
00001000
00000000
00000100
00000000
,
00010000
00000000
00000000
00010000
00001000
00000000
00100000
00000000
01000000
00000000
00000000
00000000
00100000
00000000
00010000
00000000
,
01000000
00000000
00000000
00100000
10000000
00000000
00010000
00000000
00100000
00000000
10000000
00000000
00100000
00000000
00010000
00000000
,
01000000
00001000
00010000
00000100
00001000
00000000
00000010
00000100
,
00000101
00000000
00000000
00000101
00000000
00000000
00000001
00000000
00001001
00000000
00000000
00001001
00000000
00000000
00001000
00000000
,
00001100
00000000
00000000
00001100
00000000
00000000
00000100
00000000
00010000
00000000
00000000
00000000
00001000
00000000
00100000
00000000
,
00010000
00000000
00000000
00100000
00001000
00000000
00010000
00000000
00000100
00000000
00000001
00000000
00000100
00000000
00000010
00000000
,
00000002
00000010
00000013
00000002
,
00000203
00000310
00000200
00000320
,
00002030
00003100
00000200
00020300
,
00031000
00100000
01000000
00100000
00010000
01000000
00100000
10000000
,
00020000
00130000
02000000
23000000
,
30200000
01300000
00200000
02300000
,
03020000
10030000
02000000
23000000
,
31000000
00100000
00001000
00000010
00000001
00000000
00001001
00000000
;

//---------------dance-double - Pandemonium X-DDP----------------
#NOTEDATA:;
#CHARTNAME:Pandemonium X-DDP;
#STEPSTYPE:dance-double;
#DESCRIPTION:Pandemonium X-DDP;
#DIFFICULTY:Medium;
#METER:6;
#RADARVALUES:0.253796,0.266486,0.073010,0.154132,0.028393,219,210,9,19,0,0,0,0,0,0.253796,0.266486,0.073010,0.154132,0.028393,219,210,9,19,0,0,0,0,0;
#CREDIT:Pandemonium X;
#NOTES:
00000000
00000000
00000000
00000000
,
00000000
00000000
00000000
00000000
,
00000000
00000000
00000000
00000000
,
00000000
00000000
00000000
00000000
,
10000000
00100000
10000000
00100000
,
10000000
00000000
00100000
00000000
01000000
00000000
00010000
00100000
,
00001000
00000000
00010000
00000000
00000100
00000000
00001000
00000010
,
00000200
00000000
00000300
00000010
,
00002000
00003000
00000001
00000010
,
00000200
00000300
00000010
00000001
,
00000100
00000010
00001000
00000000
00000100
00010000
00001000
00000000
,
00200000
01300000
10000000
00100000
,
02000000
03000000
00100000
10000000
,
00020000
00030000
00100000
00010000
,
01000000
00001000
00010000
00000100
00001000
00000000
00000011
00000000
,
00000100
00000010
00001000
00000001
,
00000010
00000000
00000100
00000000
00000010
00000000
00000001
00001000
,
00000200
00010300
00001000
00010000
,
00000100
00000000
00010000
00000000
00001000
00000000
00010000
00100000
,
01000000
00000000
01000000
00000000
00100000
00000000
01000000
10000000
,
00100000
00000000
01000000
00000000
00010000
00000000
00100000
00001000
,
00010000
00011000
00010000
00000100
,
00001000
00000010
00000100
00000000
,
00000010
00000000
00000000
00001000
00000000
00000000
00000001
00000000
00001000
00000000
00000000
00000000
00000000
00000000
00000000
00000000
,
00000100
00000000
00000000
00010000
00000000
00000000
00001000
00000000
00100000
00000000
00000000
00000000
00000000
00000000
01000000
00000000
,
10000000
00000000
00000000
00100000
00000000
00000000
01000000
00000000
00010000
00000000
00000000
00000000
10000000
00000000
01000000
00000000
,
00200000
00000000
00300000
00000000
,
01000000
00000000
00000000
00100000
00000000
00000000
00010000
00000000
01000000
00000000
00000000
00000000
00000000
00000000
00000000
00000000
,
00010000
00000000
00000000
00100000
00000000
00000000
00001000
00000000
00010000
00000000
00000000
00000000
00000000
00000000
00000000
00000000
,
00000100
00000000
00000000
00001000
00000000
00000000
00000010
00000000
00000100
00000000
00000000
00000000
00000010
00000000
00001000
00000000
,
00000001
00000000
00001000
00001000
,
00001010
00000000
00000000
00000000
00000000
00000000
00000000
00000000
00010100
00000000
00000000
00000000
00000000
00000000
00000000
00000000
00000000
00000000
00001000
00000000
00000000
00100000
00000000
00000000
,
01000000
10000000
00100000
01000000
,
00010000
00000000
10000000
00000000
01000000
00000000
10000000
00100000
,
01000000
00010000
00100000
01000000
,
00100000
00001000
00010000
00000100
00001000
00000000
00000100
00000000
,
00001000
00000010
00000100
00000001
,
00000010
00000100
00000010
00000001
,
00001000
00000010
00000100
00000010
,
00001000
00000100
00010000
00001000
00010000
00000000
00001000
00100000
,
00020000
01030000
00200000
10300000
,
02000000
00000000
03100000
00000000
00010000
00000000
00100000
00001000
,
00020000
00030100
00002000
00003010
,
00000100
00000010
00001000
00000100
00010000
00000000
00100000
00000000
,
00110000
00000000
11000000
00000000
,
10100000
00000000
01010000
00000000
,
00010000
00000000
00100000
00000000
00001000
00010000
00000100
00001000
,
00000020
00000000
00000030
00000100
,
00000002
00000000
00000013
00000001
,
00002000
00000000
00003100
00001000
,
00000100
00010000
00001000
01000000
,
00200000
00000000
01300000
00010000
,
20000000
00000000
30010000
00100000
,
02000000
00000000
03100000
00010000
,
00100000
00001000
00010000
00000100
00000010
00000000
00000011
00000000
;

//---------------dance-double - Pandemonium X-BDP----------------
#NOTEDATA:;
#CHARTNAME:Pandemonium X-BDP;
#STEPSTYPE:dance-double;
#DESCRIPTION:Pandemonium X-BDP;
#DIFFICULTY:Easy;
#METER:3;
#RADARVALUES:0.156450,0.222072,0.081122,0.105459,0,135,125,10,13,0,0,0,0,0,0.156450,0.222072,0.081122,0.105459,0,135,125,10,13,0,0,0,0,0;
#CREDIT:Pandemonium X;
#NOTES:
// measure 0
00000000
00000000
00000000
00000000
,  // measure 1
00000000
00000000
00000000
00000000
,  // measure 2
00000000
00000000
00000000
00000000
,  // measure 3
00000000
00000000
00000000
00000000
,  // measure 4
00000000
00000000
00000000
00000000
,  // measure 5
00000000
00000000
00000000
00000000
,  // measure 6
00000000
00000000
00000000
00000000
,  // measure 7
00200000
00000000
00000000
01300000
,  // measure 8
00020000
00000000
00130000
00010000
,  // measure 9
02000000
00000000
03100000
10000000
,  // measure 10
00010000
00100000
00001000
00010000
,  // measure 11
00000200
00000000
00001300
00000010
,  // measure 12
00000200
00000000
00000310
00000100
,  // measure 13
00000002
00000000
00001003
00000001
,  // measure 14
00001000
00000100
00000010
00000000
,  // measure 15
00000100
00000000
00001000
00000000
,  // measure 16
00000100
00000000
00010000
00000000
,  // measure 17
00001000
00100000
00010000
00000000
,  // measure 18
01000000
00000000
00010000
10000000
,  // measure 19
01000000
00000000
00100000
00000000
,  // measure 20
00010000
00000000
00100000
00000000
,  // measure 21
00000000
10010000
00010000
00000000
,  // measure 22
00100000
00000000
00001000
00000000
,  // measure 23
00010000
00000100
00010000
00000000
,  // measure 24
00000010
00001000
00000010
00000000
,  // measure 25
00000100
00000001
00000100
00000010
,  // measure 26
00002000
00000000
00000000
00003000
,  // measure 27
00000100
00010000
00011000
00000000
,  // measure 28
00001000
00100000
00110000
00000000
,  // measure 29
00010000
00000000
10000000
00000000
,  // measure 30
00100000
00000000
01000000
00100000
,  // measure 31
10010000
00000000
00000000
10000000
,  // measure 32
00010000
00000000
00100000
00000000
,  // measure 33
00001000
00000000
00010000
00000000
,  // measure 34
00000100
00000000
00001000
00000000
,  // measure 35
00000010
00000100
00000001
00000000
,  // measure 36
00001000
00000000
00000100
00000000
,  // measure 37
00001000
00000000
00000010
00000000
,  // measure 38
00001000
00000000
00000100
00000000
,  // measure 39
00010000
00001000
00010000
00000000
,  // measure 40
00001000
00000000
00100000
00000000
,  // measure 41
01000000
00000000
10000000
00000000
,  // measure 42
00100000
00000000
01000000
00000000
,  // measure 43
00100000
10000000
00010000
00000000
,  // measure 44
10010000
00000000
01100000
00000000
,  // measure 45
10010000
00000000
01100000
00000000
,  // measure 46
01000000
00000000
00010000
00100000
,  // measure 47
00002000
00000000
00000000
00013000
,  // measure 48
00000200
00000000
00001300
00000010
,  // measure 49
00000200
00000000
00000310
00001000
,  // measure 50
00000001
00000001
00001000
00001000
,  // measure 51
00000200
00000000
00001300
00000100
,  // measure 52
00020000
00000000
00031000
00100000
,  // measure 53
00020000
00000000
00130000
01000000
,  // measure 54
10000000
10000000
10010000
01100000
;
