#VERSION:0.83;
#TITLE:Saturday Night Love -Phunk Disco Mix-;
#ARTIST:Sota Fujimori;
#BANNER:Saturday Night Love -Phunk Disco Mix--banner.png;
#BACKGROUND:Saturday Night Love -Phunk Disco Mix--bg.png;
#JACKET:Saturday Night Love -Phunk Disco Mix--jacket.png;
#MUSIC:Saturday Night Love -Phunk Disco Mix-.ogg;
#OFFSET:1.751778;
#SAMPLESTART:60.47;
#SAMPLELENGTH:15;
#BPMS:0=135;

//---------------dance-single - NewbStepper-ESP----------------
#NOTEDATA:;
#CHARTNAME:NewbStepper-ESP;
#STEPSTYPE:dance-single;
#DESCRIPTION:NewbStepper-ESP;
#DIFFICULTY:Hard;
#METER:11;
#RADARVALUES:0.485521,0.551714,0.317207,0.208450,0.081568,375,340,35,23,0,0,0,0,0,0.485521,0.551714,0.317207,0.208450,0.081568,375,340,35,23,0,0,0,0,0;
#CREDIT:NewbStepper;
#NOTES:
0000
0000
0000
0000
,
0000
0000
0000
0000
,
0000
0000
0000
0000
,
0000
0000
0000
0000
,
0000
0000
0000
0000
,
0001
0000
0000
0010
0000
0010
0100
0000
1000
0000
0000
0000
1010
0000
0000
0000
,
1000
0000
0000
0010
0000
0010
0100
0000
0001
0000
0000
0000
0011
0000
0000
0000
,
0100
0000
0000
1000
0000
1000
0100
0000
0010
0000
0000
0001
0000
0001
1000
0000
,
0010
0000
0000
0010
1000
0000
0000
1000
0001
0000
0100
0000
0110
0000
0000
0000
,
2001
0000
0100
0000
0001
0001
3001
0000
,
0010
0001
0100
1000
0100
0001
0010
0000
,
1002
0000
0010
0000
1000
1000
1003
0000
,
0100
0000
0000
1000
0000
0000
0010
0000
0100
0000
0000
0000
0110
0000
0000
0000
,
1002
0000
0100
0000
1000
1000
1003
0000
,
0010
1000
0100
0001
0100
1000
0010
0000
,
2001
0000
0010
0000
0001
0001
3001
0000
,
0100
0001
0010
0000
1100
0000
0101
0000
,
1002
0100
0000
0103
,
2001
0100
0000
3100
,
0010
0001
0100
0000
1000
0100
0001
0100
,
0010
0000
0000
0000
1000
0000
0001
0000
0010
0000
0000
0100
0000
0000
1000
0000
,
0010
0001
1000
0100
0001
0010
0100
0000
,
1000
0000
0000
0010
0000
0000
0100
0000
0001
0000
0000
0010
0000
0000
0100
0000
,
0010
1000
0001
0100
1000
0010
0100
0000
,
0001
0010
1000
0000
1000
0010
0001
0000
,
0102
0000
0000
0000
1000
0000
0000
0000
0013
0000
0000
0001
0000
0000
0100
0000
,
0020
0000
0000
0200
0000
0000
0330
0000
,
0010
1000
0100
0000
0001
0100
1000
0100
,
0010
0000
0000
0000
0001
0000
1000
0000
0010
0000
0000
0100
0000
0000
0001
0000
,
0010
1000
0001
0100
1000
0010
0100
0000
,
0001
0000
0000
0010
0000
0000
0100
0000
1000
0000
0000
0010
0000
0000
0100
0000
,
0010
0001
1000
0100
0001
0010
0100
0000
,
1000
0010
0001
0000
0001
0010
1000
0000
,
2100
0001
0100
3001
,
0102
1000
0100
1003
,
0010
1000
0100
0001
1000
0001
0100
0010
,
0002
0100
1000
0103
,
0010
1000
0100
0100
0001
0100
0100
0010
,
0001
0001
0100
1000
0200
0000
0310
0000
,
1000
0001
0001
0100
1000
1000
0100
0001
,
1000
0100
0010
0001
0000
0100
0010
0100
,
0102
1000
0010
1003
,
0100
0000
0110
0000
1001
1001
1001
0000
,
0010
1000
0100
0001
1000
0010
0001
0100
,
0001
0010
1000
0010
0001
0100
0001
0000
,
0010
0001
0100
1000
0001
0010
1000
0100
,
1000
0010
0001
0010
1000
0100
1000
0000
,
0001
1000
1000
0100
0001
0001
0100
1000
,
0001
0100
0010
1000
0000
0100
0010
0100
,
2100
0001
0010
3001
,
0100
0000
0110
0000
1001
1001
1001
0000
,
0011
0001
0100
0100
1000
0100
0010
0100
,
0001
0010
1000
0010
0001
0100
0110
0000
,
1010
1000
0100
0100
0001
0100
0010
0100
,
1000
0010
0001
0010
1000
0100
0110
0000
,
0011
0100
1000
0200
0000
1300
0010
2000
,
0000
3010
0001
0020
0000
0031
0100
0002
,
0000
0103
1000
0200
0000
0310
0001
0020
,
0000
0031
0100
0002
0000
1003
0100
2000
,
0000
3001
0100
0101
0000
1000
0100
1100
,
0000
0010
0100
0110
0000
1001
0000
1010
;

//---------------dance-single - NewbStepper-DSP----------------
#NOTEDATA:;
#CHARTNAME:NewbStepper-DSP;
#STEPSTYPE:dance-single;
#DESCRIPTION:NewbStepper-DSP;
#DIFFICULTY:Medium;
#METER:8;
#RADARVALUES:0.367701,0.386200,0.244703,0.299081,0.045315,284,257,27,33,0,0,0,0,0,0.367701,0.386200,0.244703,0.299081,0.045315,284,257,27,33,0,0,0,0,0;
#CREDIT:NewbStepper;
#NOTES:
0000
0000
0000
0000
,
0000
0000
0000
0000
,
0000
0000
0000
0000
,
0000
0000
0000
0000
,
0000
0000
0000
0000
,
0010
0000
0000
0010
0000
0000
0010
0000
1000
0000
0000
0000
1001
0000
0000
0000
,
0010
0000
0000
0010
0000
0000
0010
0000
0001
0000
0000
0000
1001
0000
0000
0000
,
0100
0000
0000
0100
0000
0000
0100
0000
0010
0000
0000
0000
0110
0000
0000
0000
,
0001
1000
0001
1001
,
0010
0001
0010
0000
0100
0200
0000
0000
,
0320
1000
0031
1001
,
0010
1000
0010
0000
0100
0200
0000
0000
,
0320
0001
1030
1001
,
0010
0000
1100
0000
0001
1000
0010
0100
,
0000
0100
0000
0010
0000
1000
0000
0000
,
0010
0000
0101
0000
1000
0001
0010
0100
,
0000
1000
0010
1000
0001
0010
0001
0000
,
2000
0000
0000
3000
,
0002
0000
0000
0003
,
0100
0000
1010
0000
0001
0000
0100
0010
,
2000
0000
0000
0000
0000
0000
3100
0000
0010
0000
0000
0001
0000
0000
0100
0000
,
0020
0100
2030
0100
,
3001
0000
0000
0001
0000
0000
0001
0000
1000
0000
0000
1000
0000
0000
1000
0000
,
0020
0000
0000
0100
0000
0000
1030
0000
,
0002
0100
0023
0100
,
0032
0000
0000
0000
0100
0000
0000
0000
1003
0000
0000
0001
0000
0000
0010
0000
,
0200
0000
0000
0020
0000
0000
0330
0000
,
0100
0000
0011
0000
1000
0000
0100
0010
,
0002
0000
0000
0000
0000
0000
0103
0000
0010
0000
0000
1000
0000
0000
0100
0000
,
0020
0100
0032
0100
,
1003
0000
0000
1000
0000
0000
1000
0000
0001
0000
0000
0001
0000
0000
0001
0000
,
0020
0000
0000
0100
0000
0000
0031
0000
,
2000
0100
3020
0100
,
2030
0001
0001
3001
,
0020
0100
0100
0130
,
1000
0101
1000
0101
,
0020
1000
0001
1030
,
0001
1100
0001
1100
,
0010
0001
0010
0000
0100
1000
0100
0000
,
0010
0101
0010
0101
,
1000
0100
0010
0001
0000
0001
0100
0000
,
0010
0020
0000
0030
0100
0200
0000
0300
,
0000
1001
0000
0000
0010
0010
0010
0000
,
0001
1100
0001
1100
,
0020
0001
1000
0031
,
1000
0101
1000
0101
,
0010
1000
0010
0000
0100
0001
0100
0000
,
0010
1100
0010
1100
,
0001
0100
0010
1000
0000
1000
0100
0000
,
0010
0020
0000
0030
0100
0200
0000
0300
,
0000
1001
0000
0000
0010
0010
0010
0000
,
1000
0100
1000
0100
1000
0100
1000
0002
,
0000
0003
1000
0020
0000
0130
0000
0000
,
0001
0100
0001
0100
0001
0100
0001
2000
,
0000
3000
0001
0020
0000
0000
0130
0000
,
1000
0010
1000
0000
0001
0010
0001
0000
,
0100
0010
0100
0000
0001
0000
1001
0000
,
0001
0010
0001
0000
1000
0010
1000
0000
,
0100
0010
0100
0000
1000
0000
1001
0000
,
1000
0001
0100
1000
0000
1000
0100
0001
,
0000
0010
0100
0010
0000
0100
0000
1001
;

//---------------dance-single - NewbStepper-BSP----------------
#NOTEDATA:;
#CHARTNAME:NewbStepper-BSP;
#STEPSTYPE:dance-single;
#DESCRIPTION:NewbStepper-BSP;
#DIFFICULTY:Easy;
#METER:5;
#RADARVALUES:0.226577,0.303443,0.108757,0.190324,0,175,163,12,21,0,0,0,0,0,0.226577,0.303443,0.108757,0.190324,0,175,163,12,21,0,0,0,0,0;
#CREDIT:NewbStepper;
#NOTES:
0000
0000
0000
0000
,
0000
0000
0000
0000
,
0000
0000
0000
0000
,
0000
0000
0000
0000
,
0000
0000
0000
0000
,
1000
0001
1000
0000
,
0001
0100
0001
0000
,
1000
0010
1000
0000
,
0010
0010
0010
0000
,
1001
0000
0000
0000
0100
0100
0000
0000
,
0001
1000
0001
1000
,
1001
0000
0000
0000
0100
0100
0000
0000
,
0010
0010
0100
0100
,
0110
0000
0000
0000
0001
0001
0000
0000
,
0010
0010
0100
0100
,
0110
0000
0000
0000
1000
1000
0000
0000
,
0001
1000
0001
1000
,
0000
0000
0000
0000
,
0000
0000
0000
0000
,
0020
0000
0000
0030
,
2000
0000
0000
3000
,
0001
0001
0100
0000
,
1000
1000
0100
0001
,
0020
0000
0130
0000
,
2000
3000
0002
0003
,
0100
0000
0010
0010
,
0020
0000
0000
0030
0000
0000
1001
0000
,
0020
0000
0000
0030
,
0002
0000
0000
0003
,
1000
1000
0100
0000
,
0001
0001
0100
1000
,
0020
0000
0130
0000
,
0002
0003
2000
3000
,
0100
0000
0010
0010
,
0020
0000
0030
0000
,
0001
0100
0001
0001
,
0020
0000
0100
0130
,
1000
0100
1000
1000
,
0020
0000
0100
0130
,
0001
1000
0001
1000
,
0010
0100
0010
0100
,
0002
0000
2000
3003
,
0000
0000
0110
0110
,
1000
0001
1000
0010
,
0001
0010
1000
1000
,
0001
1000
0001
0010
,
1000
0010
0001
0001
,
1000
0100
0010
0001
,
0100
0001
0100
0010
,
2000
3000
0002
0003
,
0000
0000
0110
0110
,
1000
1000
0001
0001
,
0200
0300
0020
0030
,
1000
0100
0010
0001
,
1000
0010
2000
3000
,
0001
0001
1000
1000
,
0100
0010
0110
0000
,
0001
0001
1000
1000
,
0100
0010
0110
0000
,
1000
0000
0000
0001
0000
0000
1000
0000
,
0000
0010
0000
0100
0000
0100
0000
0110
;

//---------------dance-single - NewbStepper-bSP----------------
#NOTEDATA:;
#CHARTNAME:NewbStepper-bSP;
#STEPSTYPE:dance-single;
#DESCRIPTION:NewbStepper-bSP;
#DIFFICULTY:Beginner;
#METER:1;
#RADARVALUES:0.089336,0.136796,0.018126,0.108757,0,69,67,2,12,0,0,0,0,0,0.089336,0.136796,0.018126,0.108757,0,69,67,2,12,0,0,0,0,0;
#CREDIT:NewbStepper;
#NOTES:
0000
0000
0000
0000
,
0000
0000
0000
0000
,
0000
0000
0000
0000
,
0000
0000
0000
0000
,
0000
0000
0000
0000
,
0001
0000
0000
0000
,
1000
0000
0000
0000
,
0001
0000
0000
0000
,
0001
0000
0000
0000
,
2000
0000
0000
0000
,
0000
0000
3000
0000
,
0002
0000
0000
0000
,
0000
0000
0003
0000
,
2000
0000
0000
0000
,
0000
0000
3000
0000
,
0002
0000
0000
0000
,
0000
0000
0003
0000
,
0000
0000
0000
0000
,
0000
0000
0000
0000
,
0010
0000
0000
0000
,
0100
0000
0100
0000
,
0200
0000
0300
0000
,
0001
0000
0000
0000
,
1000
0000
0000
0000
,
0001
0000
1000
0000
,
0001
0000
0000
0000
,
0000
0000
0000
0000
,
0010
0000
0000
0000
,
0100
0000
0100
0000
,
0200
0000
0300
0000
,
1000
0000
0000
0000
,
0001
0000
0000
0000
,
1000
0000
0001
0000
,
2000
0000
3000
0000
,
0001
0000
1000
0000
,
0010
0010
0000
0000
,
0200
0000
0300
0000
,
1000
1000
0000
0000
,
0002
0000
0003
0000
,
0100
0100
0000
0000
,
0010
0010
0000
0000
,
1000
0000
0001
0000
,
0000
0000
1001
0000
,
0010
0010
0000
0000
,
0200
0000
0300
0000
,
0001
0001
0000
0000
,
2000
0000
3000
0000
,
0100
0100
0000
0000
,
0010
0010
0000
0000
,
0001
0000
1000
0000
,
0000
0000
1001
0000
,
0001
0000
0001
0000
,
0100
0000
0000
0000
,
1000
0000
1000
0000
,
0100
0000
0000
0000
,
0001
0000
0001
0000
,
0010
0000
0000
0000
,
1000
0000
1000
0000
,
0010
0000
0000
0000
,
0002
0000
0000
0000
,
0000
0000
0000
0003
0000
0000
0000
0000
;

//---------------dance-double - NewbStepper-EDP----------------
#NOTEDATA:;
#CHARTNAME:NewbStepper-EDP;
#STEPSTYPE:dance-double;
#DESCRIPTION:NewbStepper-EDP;
#DIFFICULTY:Hard;
#METER:11;
#RADARVALUES:0.451858,0.468957,0.199387,0.199387,0.058910,349,327,22,22,0,0,0,0,0,0.451858,0.468957,0.199387,0.199387,0.058910,349,327,22,22,0,0,0,0,0;
#CREDIT:NewbStepper;
#NOTES:
// measure 0
00000000
00000000
00000000
00000000
,  // measure 1
00000000
00000000
00000000
00000000
,  // measure 2
00000000
00000000
00000000
00000000
,  // measure 3
00000000
00000000
00000000
00000000
,  // measure 4
00000000
00000000
00000000
00000000
,  // measure 5
00010000
00000000
00000000
00000010
00000000
00000000
00000100
00000000
00001000
00000000
00000000
00000000
00010100
00000000
00000000
00000000
,  // measure 6
00001000
00000000
00000000
00100000
00000000
00000000
01000000
00000000
00010000
00000000
00000000
00000000
01001000
00000000
00000000
00000000
,  // measure 7
00010000
00000000
00000000
00000100
00000000
00000000
00000010
00000000
00001000
00000000
00000000
01000000
00000000
00000000
00100000
00000000
,  // measure 8
00010000
00000000
00000000
00010000
00001000
00000000
00000000
00001000
00000100
00000000
00000001
00000000
00000010
00000000
00000000
00000000
,  // measure 9
00000200
00000000
00000010
00000000
00010000
00010000
00010300
00000000
,  // measure 10
00001000
00100000
00010000
00000000
10000000
00100000
00010000
00001000
,  // measure 11
00200000
00000000
01000000
00000000
00001000
00001000
00301000
00000000
,  // measure 12
00010000
00000000
00000000
00100000
00000000
00000000
10000000
00000000
01000000
00000000
00000000
00000000
10010000
00000000
00000000
00000000
,  // measure 13
02000000
00000000
00100000
00000000
00001000
00001000
03001000
00000000
,  // measure 14
00010000
00000010
00001000
00000000
00000001
00000010
00001000
00010000
,  // measure 15
00000020
00000000
00000100
00000000
00010000
00010000
00010030
00000000
,  // measure 16
00010010
00101000
00010100
01001000
,  // measure 17
00021000
00000100
00000000
00030100
,  // measure 18
00012000
01000000
00000000
01003000
,  // measure 19
00100000
10000000
01000000
00000000
00010000
00001000
00010000
00000100
,  // measure 20
00000010
00000000
00000000
00000000
00001000
00000000
00010000
00000000
00000100
00000000
00000000
00000010
00000000
00000000
00000001
00000000
,  // measure 21
00000100
00001000
00010000
01000000
10000000
00000000
00010000
00000000
,  // measure 22
00100000
00000000
00000000
00001000
00000000
00000000
00010000
00000000
01000000
00000000
00000000
00010000
00000000
00000000
00001000
00000000
,  // measure 23
00000100
00000001
00000010
00000000
00000100
00001000
00000010
00000000
,  // measure 24
00002000
00000100
00000001
00000010
,  // measure 25
00023000
01000000
10000000
00100000
,  // measure 26
00031000
00000010
00000100
00000000
00000001
00000010
00000100
00000000
,  // measure 27
00000010
00000001
00000100
00000000
00001000
00010000
00001000
01000000
,  // measure 28
00100000
00000000
00000000
00000000
00010000
00000000
00001000
00000000
01000000
00000000
00000000
00100000
00000000
00000000
10000000
00000000
,  // measure 29
01000000
00010000
00001000
00000100
00000001
00000000
00001000
00000000
,  // measure 30
00000010
00000000
00000000
00010000
00000000
00000000
00001000
00000000
00000100
00000000
00000000
00001000
00000000
00000000
00010000
00000000
,  // measure 31
01000000
10000000
00100000
00000000
01000000
00010000
00100000
00000000
,  // measure 32
00020000
01000000
10000000
00100000
,  // measure 33
00032000
00000100
00000001
00000010
,  // measure 34
00013000
00100000
01000000
00000000
10000000
00100000
01000000
00010000
,  // measure 35
10000000
01000000
00010000
00001000
00000000
00000100
00000010
00000100
,  // measure 36
00002000
00100000
00000010
00103000
,  // measure 37
00001000
01000000
00010000
00010000
00100000
01000000
01000000
00010000
,  // measure 38
00001000
00001000
00000010
00000001
00000200
00000000
00000310
00000000
,  // measure 39
00010000
00000100
00001000
00001000
00000010
00000100
00000100
00001000
,  // measure 40
00010000
01000000
10000000
00100000
00000000
00100000
01000000
00000000
,  // measure 41
01020000
00001000
01000000
10000000
,  // measure 42
00130000
00000000
01100000
00000000
00001000
00010000
00011000
00000000
,  // measure 43
00000010
00000001
00000100
00001000
00010000
00001000
00000010
00001000
,  // measure 44
00010000
00100000
10000000
01000000
00010000
01000000
10000000
00000000
,  // measure 45
00100000
10000000
01000000
00010000
00001000
00010000
00100000
00010000
,  // measure 46
00001000
00000010
00000001
00000100
00001000
00000100
00000001
00000000
,  // measure 47
00000010
00001000
00010000
00100000
10000000
01000000
00010000
00000000
,  // measure 48
00001000
00000100
00000001
00000010
00000000
00000010
00000100
00000000
,  // measure 49
00002100
00010000
00000100
00000001
,  // measure 50
00003010
00000000
00000110
00000000
00010000
00001000
00011000
00000000
,  // measure 51
00010000
00001000
00100000
00010000
01000000
00100000
00010000
00001000
,  // measure 52
00000010
00000001
00001000
00000001
00000100
00000000
00000110
00000000
,  // measure 53
00001000
00010000
00000010
00001000
00000100
00000010
00001000
00010000
,  // measure 54
00100000
10000000
00010000
10000000
01000000
00000000
01100000
00000000
,  // measure 55
00010000
10000000
01000000
20000000
00000000
31000000
00010000
02000000
,  // measure 56
00000000
03010000
00001000
00020000
00000000
00031000
00000010
00002000
,  // measure 57
00000000
00003010
00000001
00000020
00000000
00000031
00001000
00000002
,  // measure 58
00000000
00000103
00001000
00000200
00000000
00001300
00010000
00002000
,  // measure 59
00000000
00013000
00000100
00010100
00000000
00001000
01000000
01001000
,  // measure 60
00000000
00100000
10000000
11000000
00000000
01010000
00000000
00011000
;

//---------------dance-double - NewbStepper-DDP----------------
#NOTEDATA:;
#CHARTNAME:NewbStepper-DDP;
#STEPSTYPE:dance-double;
#DESCRIPTION:NewbStepper-DDP;
#DIFFICULTY:Medium;
#METER:8;
#RADARVALUES:0.361228,0.413785,0.163135,0.290018,0.045315,279,261,18,32,0,0,0,0,0,0.361228,0.413785,0.163135,0.290018,0.045315,279,261,18,32,0,0,0,0,0;
#CREDIT:NewbStepper;
#NOTES:
// measure 0
00000000
00000000
00000000
00000000
,  // measure 1
00000000
00000000
00000000
00000000
,  // measure 2
00000000
00000000
00000000
00000000
,  // measure 3
00000000
00000000
00000000
00000000
,  // measure 4
00000000
00000000
00000000
00000000
,  // measure 5
00000010
00000000
00000000
00000010
00000000
00000000
00000010
00000000
00001000
00000000
00000000
00000000
00011000
00000000
00000000
00000000
,  // measure 6
00100000
00000000
00000000
00100000
00000000
00000000
00100000
00000000
00010000
00000000
00000000
00000000
00011000
00000000
00000000
00000000
,  // measure 7
00000100
00000000
00000000
00000100
00000000
00000000
00000100
00000000
00000010
00000000
00000000
00000000
00000110
00000000
00000000
00000000
,  // measure 8
00001000
00010000
00100000
10000000
,  // measure 9
00020000
00000000
10000000
00000000
01000000
02000000
00030000
00000000
,  // measure 10
03002000
00010000
00003010
00000110
,  // measure 11
00002000
00000000
00000001
00000000
00000100
00000200
00003000
00000000
,  // measure 12
00020300
00001000
00130000
01100000
,  // measure 13
10000000
00000000
01010000
00000000
00100000
10000000
01000000
00010000
,  // measure 14
00000000
00010000
00000000
00001000
00000000
00000010
00000000
00000000
,  // measure 15
00000001
00000000
00001100
00000000
00000010
00000001
00000100
00001000
,  // measure 16
00000000
00010000
00001000
00100000
00010000
10000000
00010000
00000000
,  // measure 17
20000000
00000000
00000000
30000000
,  // measure 18
00020000
00000000
00000000
00030000
,  // measure 19
01000000
00000000
01001000
00000000
00010000
00000000
00001000
00000010
,  // measure 20
00000002
00000000
00000000
00000000
00000000
00000000
00000103
00000000
00000010
00000000
00000000
00001000
00000000
00000000
00010000
00000000
,  // measure 21
02000000
00100000
03020000
00100000
,  // measure 22
10030000
00000000
00000000
10000000
00000000
00000000
01000000
00000000
00010000
00000000
00000000
00010000
00000000
00000000
00001000
00000000
,  // measure 23
00000020
00000000
00000000
00000100
00000000
00000000
00001030
00000000
,  // measure 24
00000200
00010000
00002300
00000010
,  // measure 25
00023000
00000000
00000000
00000000
01000000
00000000
00000000
00000000
10030000
00000000
00000000
00100000
00000000
00000000
00010000
00000000
,  // measure 26
00002000
00000000
00000000
00020000
00000000
00000000
00033000
00000000
,  // measure 27
00000100
00000000
00010100
00000000
00001000
00000000
00010000
00100000
,  // measure 28
20000000
00000000
00000000
00000000
00000000
00000000
31000000
00000000
00100000
00000000
00000000
00010000
00000000
00000000
00001000
00000000
,  // measure 29
00000200
00000010
00002300
00000010
,  // measure 30
00003001
00000000
00000000
00000001
00000000
00000000
00000100
00000000
00001000
00000000
00000000
00001000
00000000
00000000
00010000
00000000
,  // measure 31
00200000
00000000
00000000
01000000
00000000
00000000
00310000
00000000
,  // measure 32
02000000
00001000
03020000
00100000
,  // measure 33
00032000
00000100
00000001
00003010
,  // measure 34
00001001
00000000
00000110
00000000
,  // measure 35
00000001
00000100
00000001
00000010
00000000
00001000
00010000
00001000
,  // measure 36
00020000
00000010
00001000
00030010
,  // measure 37
00001000
00100000
00001000
00000000
00100000
01000000
00100000
00000000
,  // measure 38
10000000
00100000
00010000
01010000
,  // measure 39
00100000
00001000
00100000
00000000
00010000
01000000
00010000
00000000
,  // measure 40
00100000
00001000
00010000
00000100
00000000
00000100
00000010
00000000
,  // measure 41
00000002
00000000
00002003
00000000
,  // measure 42
00003000
00001001
00000000
00000000
00000010
00000100
00000010
00000000
,  // measure 43
00000001
00000100
00000001
00000000
00001000
00000100
00001000
00000000
,  // measure 44
00000020
00010000
00001000
00010030
,  // measure 45
00001000
00100000
00001000
00010000
00100000
00000000
01000000
00010000
,  // measure 46
01000000
00001000
00010000
00000100
00000010
00000000
00001001
00000000
,  // measure 47
00000010
00010000
00000010
00000000
00010000
00000100
00010000
00000000
,  // measure 48
00000010
00010000
00001000
01000000
00000000
01000000
00100000
00000000
,  // measure 49
20000000
00000000
30020000
00000000
,  // measure 50
00030000
10010000
00000000
00000000
00100000
01000000
00100000
00000000
,  // measure 51
10000000
01000000
10000000
01000000
00000000
00100000
00010000
00100000
,  // measure 52
00000000
00001000
00010000
00002000
00000000
00003010
00000000
00000000
,  // measure 53
00000001
00000100
00000001
00000100
00000000
00000010
00001000
00000010
,  // measure 54
00000000
00010000
00001000
00020000
00000000
00130000
00000000
00000000
,  // measure 55
01000000
00010000
01000000
00000000
00010000
00100000
00010000
00000000
,  // measure 56
00100000
00001000
00100000
00000000
00001000
00000000
00011000
00000000
,  // measure 57
00000100
00001000
00000100
00000000
00001000
00000010
00001000
00000000
,  // measure 58
00000010
00010000
00000010
00000000
00010000
00000000
00011000
00000000
,  // measure 59
00100000
00001000
00100000
00010000
00000000
00100000
00001000
00010000
,  // measure 60
00000000
00000100
00001000
00000010
00000000
00000100
00000000
00000110
;

//---------------dance-double - NewbStepper-BDP----------------
#NOTEDATA:;
#CHARTNAME:NewbStepper-BDP;
#STEPSTYPE:dance-double;
#DESCRIPTION:NewbStepper-BDP;
#DIFFICULTY:Easy;
#METER:5;
#RADARVALUES:0.223987,0.303443,0.099694,0.217513,0,173,162,11,24,0,0,0,0,0,0.223987,0.303443,0.099694,0.217513,0,173,162,11,24,0,0,0,0,0;
#CREDIT:NewbStepper;
#NOTES:
// measure 0
00000000
00000000
00000000
00000000
,  // measure 1
00000000
00000000
00000000
00000000
,  // measure 2
00000000
00000000
00000000
00000000
,  // measure 3
00000000
00000000
00000000
00000000
,  // measure 4
00000000
00000000
00000000
00000000
,  // measure 5
00010000
00001000
00010000
00000000
,  // measure 6
00001000
00000001
00001000
00000000
,  // measure 7
00010000
00001000
00010000
00000000
,  // measure 8
10000000
00010000
10000000
00000000
,  // measure 9
10010000
00000000
00000000
00000000
01000000
01000000
00000000
00000000
,  // measure 10
00010000
00001000
00010000
00001000
,  // measure 11
00011000
00000000
00000000
00000000
00000100
00000100
00000000
00000000
,  // measure 12
00000010
00000010
00000100
00000100
,  // measure 13
00000110
00000000
00000000
00000000
00001000
00001000
00000000
00000000
,  // measure 14
00100000
00100000
01000000
01000000
,  // measure 15
01100000
00000000
00000000
00000000
00010000
00010000
00000000
00000000
,  // measure 16
00001000
00000010
00000001
00000100
,  // measure 17
00000000
00000000
00000000
00000000
,  // measure 18
00000020
00000000
00000000
00000030
,  // measure 19
00002000
00000000
00000000
00003000
,  // measure 20
00000001
00000001
00000100
00000000
,  // measure 21
00001000
00001000
00010000
01000000
,  // measure 22
20000000
00000000
30010000
00000000
,  // measure 23
00200000
00300000
00002000
00003000
,  // measure 24
00010000
00000100
00000010
00000010
,  // measure 25
00002000
00000000
00003001
00000000
,  // measure 26
00000200
00000300
00002000
00003000
,  // measure 27
00020000
00000000
00000000
00030000
,  // measure 28
10000000
10000000
01000000
00000000
,  // measure 29
00010000
00010000
00001000
00000100
,  // measure 30
00000002
00000000
00001003
00000000
,  // measure 31
00000020
00000030
00020000
00030000
,  // measure 32
00001000
01000000
00100000
00100000
,  // measure 33
00020000
00000000
10030000
00000000
,  // measure 34
02000000
03000000
00020000
00030000
,  // measure 35
10000000
00000000
01000000
00000000
,  // measure 36
00020000
00000000
00030000
00000000
,  // measure 37
00000001
00000000
00000100
00000000
,  // measure 38
00002000
00000000
00003000
00000000
,  // measure 39
10000000
00100000
10000000
00010000
,  // measure 40
00100000
00001000
00010000
00001000
,  // measure 41
00200000
00000000
00301000
00000000
,  // measure 42
00011000
00011000
00010000
00000100
,  // measure 43
00010000
00001000
00000010
00000001
,  // measure 44
00000010
00001000
00001000
01000000
,  // measure 45
00001000
00010000
00100000
10000000
,  // measure 46
00100000
00010000
00001000
00001000
,  // measure 47
00010000
00001000
00000100
00000010
,  // measure 48
00000001
00000010
00001000
00000010
,  // measure 49
00020000
00030000
00002000
00003000
,  // measure 50
00000000
00000000
00011000
00011000
,  // measure 51
00100000
00001000
00010000
00001000
,  // measure 52
00200000
00300000
02000000
03000000
,  // measure 53
00010000
00001000
00010000
00000100
,  // measure 54
00000020
00000030
00000200
00000300
,  // measure 55
00010000
00001000
00000100
00000001
,  // measure 56
00000010
00000100
00000110
00000000
,  // measure 57
00001000
00010000
01000000
10000000
,  // measure 58
00100000
01000000
01100000
00000000
,  // measure 59
10000000
00000000
00000000
00010000
00000000
00000000
01000000
00000000
,  // measure 60
00000000
00100000
00000000
00010000
00000000
00010000
00000000
00011000
;
