#TITLE:Sakura Luminance;
#ARTIST:Ryu☆;
#MUSIC:Sakura Luminance.ogg;
#BANNER:Sakura Luminance.png;
#BACKGROUND:Sakura Luminance-bg.png;
#SAMPLESTART:96.552;
#SAMPLELENGTH:15;
#OFFSET:-13.256;
#BPMS:0=170;
#STOPS:132=9.882;
#BGCHANGES:-37.75=Sakura Luminance.avi=1=0=0=0=StretchNoLoop====,
99999=-nosongbg-=1=0=0=0=StretchNoLoop====;

//--------------- dance-single - Pandemonium X-bSP----------------
#NOTES:
     dance-single:
     Pandemonium X:
     Beginner:
     2:
     0.114147,0.161204,0.055932,0,0,100,93,7,0,0,0,0,0,0,0.114147,0.161204,0.055932,0,0,100,93,7,0,0,0,0,0,0:
0000
0000
0000
0000
,
1000
0000
0000
0000
,
0001
0000
0000
0000
,
1000
0000
0000
0000
,
0001
0000
0001
0000
,
0100
0000
0000
0000
,
0001
0000
0001
0000
,
0001
0000
0000
0000
,
1000
0000
0000
0000
,
0010
0000
0000
0010
,
0000
0000
0010
0000
,
0100
0000
0100
0000
,
0000
0100
0100
0000
,
0001
0000
0000
1000
,
0000
0000
0001
0000
,
1000
0000
0001
0000
,
0000
1000
1000
0000
,
0000
0110
0000
0000
,
0000
0000
0000
0000
,
0000
0000
0000
0000
,
0000
0100
0100
0100
,
0000
1001
0000
0000
,
0000
0000
0000
0000
,
0000
0000
0000
0000
,
0001
0001
0001
0001
,
0000
1001
0000
0000
,
0000
0000
0000
1000
,
1000
0000
0000
0000
,
0000
0010
0010
0010
,
0000
1001
0000
0000
,
0000
0000
0000
0100
,
0100
0000
0000
0000
,
0010
0000
1000
0000
,
1001
0000
0000
0000
,
0001
0000
0000
0000
,
0100
0000
0000
0000
,
0001
0000
0000
0000
,
1000
0000
0000
0000
,
0100
0000
0000
0000
,
1000
0000
0000
0000
,
0001
0000
0000
0000
,
0100
0000
0000
0000
,
1001
0000
0000
0000
,
0001
0000
0000
0000
,
1000
0000
0000
0000
,
0100
0000
0000
0000
,
1000
0000
0000
0000
,
0001
0000
0000
0000
,
0100
0000
0001
0000
,
1000
0000
0000
0000
,
0100
0000
0000
0000
,
0000
0000
0000
0000
,
1000
0000
0000
0000
,
0001
0000
1000
0000
,
0100
0000
0000
0000
,
0010
0010
0010
0000
,
0100
0000
0000
0000
,
0010
0000
0001
0000
,
1000
0000
0001
0000
,
0100
0100
0100
0000
,
0010
0000
0000
1000
,
0000
0000
0100
0000
,
1000
0000
0010
0000
,
0000
0100
0100
0000
,
0010
0000
0000
0100
,
0000
0000
0001
0000
,
1000
0000
0001
0000
,
0000
0010
0010
0000
,
1001
0000
0000
0000
;

//--------------- dance-single - Pandemonium X-BSP----------------
#NOTES:
     dance-single:
     Pandemonium X:
     Easy:
     6:
     0.275094,0.349275,0.119854,0,0,241,226,15,0,0,0,0,0,0,0.275094,0.349275,0.119854,0,0,241,226,15,0,0,0,0,0,0:
0000
0000
0000
0000
,
1000
0001
0100
0001
,
1000
0100
1000
0001
,
0100
0001
1000
0100
,
0010
0010
0010
0000
,
0100
1000
0100
1000
,
0010
0100
0001
0001
,
1000
0010
0100
0001
,
0100
0100
0100
0000
,
0001
1000
0100
1000
,
0001
0100
0001
0001
,
1000
0100
1000
0001
,
0000
1000
0010
0110
,
0010
0010
0100
0010
,
0010
0100
0010
0010
,
1000
0001
0010
0100
,
0000
0100
0010
0000
,
0001
0101
0000
0100
,
0000
0010
0000
1000
,
0000
0001
0000
0010
,
0000
0100
0100
0100
,
0010
0110
0000
0100
,
0000
1000
0000
0100
,
0000
1000
0000
0010
,
0100
0100
0100
0000
,
1001
0001
0000
1000
,
0000
0100
0000
1000
,
0010
0100
0000
0010
,
0000
0100
0100
0100
,
0001
0010
0000
0010
,
0000
0100
0000
1000
,
0001
0100
0000
0001
,
1000
1000
1000
0000
,
1001
0000
0000
0000
,
0100
0010
1000
1000
,
0001
0010
0100
1000
,
0100
1000
0010
0010
,
0100
0001
0100
0000
,
0001
1000
0010
0010
,
1000
0100
0010
0100
,
1000
0001
0100
0100
,
0001
0010
0100
0000
,
0010
0100
1000
0001
,
0100
0100
0001
0001
,
1000
0010
0100
0100
,
0010
1000
0001
0000
,
1000
0100
0010
0010
,
0100
1000
0001
0100
,
0001
0100
0010
0100
,
0001
0001
0001
0000
,
1001
0110
0110
1001
,
0000
0000
0000
0010
,
1001
0001
0100
0001
,
0010
0010
0100
0100
,
1000
0100
1000
0010
,
0100
0100
0100
0000
,
0110
0010
0110
0100
,
0110
0010
1000
0001
,
1001
1000
0001
1000
,
0001
0001
0001
0000
,
0001
0001
0001
1000
,
1000
1000
0001
1000
,
0010
0010
0100
0010
,
0000
0100
0100
0000
,
0010
1000
1000
0010
,
0100
0100
0001
0010
,
0100
0100
0010
0001
,
0000
1000
0010
0000
,
1001
0000
0000
0000
;

//--------------- dance-single - Pandemonium X-DSP----------------
#NOTES:
     dance-single:
     Pandemonium X:
     Medium:
     8:
     0.348148,0.376143,0.111864,0,0,305,291,14,0,0,0,0,0,0,0.348148,0.376143,0.111864,0,0,305,291,14,0,0,0,0,0,0:
0000
0000
0000
0000
,
1000
0000
0001
0000
0100
0000
0001
0100
,
0000
0100
0010
0000
0100
0000
0001
0000
,
1000
0000
0100
0000
0010
0000
0100
1000
,
0000
1000
0100
0010
0001
0000
0011
0000
,
0001
0000
0100
0000
0010
0000
0100
0001
,
0000
0001
0010
0000
0100
0000
0010
0000
,
0001
0000
1000
0000
0010
0000
0100
0010
,
0000
0100
0001
1000
0010
0000
0000
0000
,
0100
0000
0001
0100
0001
0000
0100
0000
,
0001
0100
0001
0000
0100
0010
0100
0000
,
0010
0000
1000
0010
1000
0010
0100
0000
,
0000
0010
0100
0001
0010
0000
0000
0000
,
0100
0000
1000
0100
1000
0000
0100
0000
,
1000
0100
1000
0000
0100
0010
0001
0000
,
0010
0100
1000
0100
,
0000
0100
1000
0010
0100
0000
0000
0000
,
0001
0100
0010
0000
0100
0000
0010
0000
,
1000
0001
0010
0001
,
0100
0010
1000
0001
,
0100
0001
0001
0001
,
0001
1000
0010
0000
0010
0000
0010
0000
,
0100
0001
1000
0100
,
1000
0001
0100
0001
,
0010
0010
0010
0010
,
0010
0100
1000
0000
0100
0000
1000
0000
,
0010
0100
0001
1000
,
0001
1000
0100
1000
,
0010
0100
0100
0100
,
0100
0010
1000
0000
0010
0000
0100
0000
,
0001
1000
0100
1000
,
0001
0100
0010
1000
,
0001
0001
0001
0001
,
1001
0000
0000
0000
,
1000
0001
0100
0100
,
0001
1000
0001
1000
,
0001
1000
0010
0010
,
1000
0100
0010
0000
,
0100
0010
0001
0001
,
0010
0100
0010
0100
,
0010
0100
1000
1000
,
0100
0010
0001
0000
,
0001
1000
0100
1000
,
0001
0001
0100
0100
,
0010
1000
0010
0010
,
0100
0001
1000
0000
,
1000
0100
1000
1000
,
0010
0100
0001
0010
,
0100
1000
0100
1000
,
0010
0100
0010
0000
,
0100
0001
0100
0001
0100
0001
0100
0001
,
0000
0000
0000
0000
,
1001
0000
0001
0000
1000
0010
1000
0000
,
0010
0100
0001
0010
,
0110
0000
0010
0100
1000
0000
0100
0000
,
1100
0101
1100
0000
,
1100
0000
0100
1000
0010
0000
0100
0000
,
0010
0010
0100
0100
,
0110
0000
0010
0100
0001
0000
0100
0000
,
0001
0100
0010
1000
0001
0000
0000
0000
,
0001
0000
0100
0001
0100
0000
0101
0000
,
0001
0100
0001
0000
0001
0100
0010
0000
,
0110
0000
0010
0000
0100
0010
0100
0000
,
0000
0010
1000
0001
1000
0000
1001
0000
,
1000
0000
0010
1000
0010
0000
1010
0000
,
0010
1000
0010
0000
0100
0010
0100
0000
,
0010
0100
0001
1000
,
0000
1000
0001
0100
0001
0000
0000
0000
,
1001
0000
0000
0000
;

//--------------- dance-single - Pandemonium X-ESP----------------
#NOTES:
     dance-single:
     Pandemonium X:
     Hard:
     10:
     0.382392,0.429877,0.103874,0.015981,0,335,322,13,2,0,0,0,0,0,0.382392,0.429877,0.103874,0.015981,0,335,322,13,2,0,0,0,0,0:
0000
0000
0000
0000
,
1000
0000
0100
0000
1000
0010
0100
0010
,
0000
0100
0001
1000
0010
0100
0001
1000
,
0100
0000
1000
0000
0100
1000
0001
0100
,
0000
0001
0010
0001
1000
0000
0000
0000
,
0001
0000
0100
0000
0001
0100
0010
0100
,
0000
0100
0001
1000
0010
1000
0100
1000
,
0001
0000
1000
0000
1000
0100
0010
0100
,
0000
0010
0001
0100
0010
0000
1010
0000
,
0001
0100
0001
0100
0001
0000
1000
0001
,
1000
0001
1000
0000
0001
0100
0001
0010
,
0100
1000
0100
1000
0001
0100
0001
0000
,
0000
0010
0100
1000
0001
0000
1010
0000
,
0100
0001
0100
0001
0100
0000
0100
0010
,
0100
0010
0100
0000
0010
1000
0010
1000
,
0100
0010
0100
1000
0001
0100
0010
0000
,
0000
0100
0100
0001
0020
0000
0001
0000
,
0130
1000
0100
0001
,
0100
1000
0010
0001
,
0010
1000
0100
1000
,
0001
0101
0101
0101
,
0001
0100
0010
1000
,
0001
0010
0001
0100
,
0010
1000
0001
0010
,
0100
0100
0100
0000
,
0010
0001
1000
0010
,
0001
0010
0100
0001
,
1000
0100
1000
0010
,
0100
0101
1100
0101
,
0100
0010
0000
0100
,
0000
0001
0000
1000
,
0100
0010
0000
0100
,
1000
1000
1000
1000
,
1001
0000
0000
0000
,
0001
1000
0100
1000
,
0010
1000
0001
0010
,
0100
1000
0001
0100
,
0001
1000
1000
0000
,
0001
1000
0100
1000
,
0001
0001
1000
1000
,
0001
1000
0010
1000
,
0001
0100
0010
0000
,
0100
0010
1000
0001
,
0010
1000
0010
0100
,
1000
0010
0001
0100
,
0001
0001
0001
0000
,
1000
0001
0100
0001
,
0010
0010
0001
0001
,
0010
0100
1000
0010
,
0100
0010
1000
0000
,
0001
0001
1000
1000
0010
0010
0100
0200
,
0000
0000
0000
0300
,
0001
0000
1000
0010
0100
0000
0010
0000
,
0100
0000
0001
0000
1000
0001
0100
0010
,
0100
0000
0010
0000
1000
0001
0010
0000
,
0100
1000
0010
0100
0001
0000
0000
0000
,
0101
0000
0001
0100
0010
0000
1000
0000
,
0100
0000
1000
0000
0010
0100
0001
1000
,
0001
0000
0100
0000
1000
0010
0100
0000
,
0001
0010
1000
0010
0001
0000
0000
0000
,
0001
0100
0001
0100
0001
0000
0010
0100
,
0010
0100
0010
0000
0010
1000
0010
1000
,
0010
0100
0001
1000
0001
0010
0100
0000
,
0000
0100
0010
0001
1000
0000
1001
0000
,
0001
0100
0010
1000
0001
0000
0001
0010
,
0100
1000
0100
0000
0100
1000
0010
0001
,
0010
0100
0001
1000
0100
0001
0100
0000
,
0000
0010
0001
0010
0001
0000
0011
0000
,
0101
0000
0000
0000
;

//--------------- dance-single - Pandemonium X-CSP----------------
#NOTES:
     dance-single:
     Pandemonium X:
     Challenge:
     13:
     0.541056,0.537347,0.455446,0.111864,0.091888,474,417,57,14,0,0,0,0,0,0.541056,0.537347,0.455446,0.111864,0.091888,474,417,57,14,0,0,0,0,0:
0000
0000
0000
0000
,
1100
0000
0101
0000
0101
0001
0010
0100
,
0000
0100
0010
0001
1000
0100
0010
0100
,
1100
0000
0011
0000
0101
0001
0100
0010
,
0000
0100
0001
0010
0100
0000
0100
0000
,
0110
0000
1100
0000
1001
0001
0010
0001
,
0000
0011
0010
0100
0010
0001
1000
0010
,
1010
0000
0101
0000
0011
0010
0100
1000
,
0000
0100
1000
0100
0010
0000
0110
0000
,
1001
0001
0010
0001
1001
0000
1001
1000
,
0010
1000
1001
0000
0001
0100
0010
1000
,
1010
0010
0100
0001
0100
0010
0200
0000
,
0000
0301
0010
0100
1000
0000
1001
0000
,
0101
0001
0010
0100
1100
0000
1100
0100
,
0010
0001
0011
0000
0101
0001
0100
0010
,
1000
0100
0001
0100
0010
0001
0020
0000
,
0000
0130
1000
0002
0020
0000
0033
0000
,
0001
0000
0010
0100
1000
0000
0000
0000
0100
0000
1000
0000
0010
0000
0000
0000
,
0100
0001
1000
0000
1000
0100
0010
0000
,
0100
1000
0010
0000
0100
0001
1000
0000
,
0001
0100
0101
0000
1010
0000
0101
0000
,
1000
0000
0100
0010
0100
0000
0000
0000
0010
0000
0001
0000
0100
0000
0000
0000
,
0100
0010
0100
0000
0010
0001
1000
0000
,
0001
0100
0010
0000
0100
0001
1000
0000
,
1001
0101
1001
0101
,
0001
0000
0100
0010
1000
0000
0000
0000
0010
0000
0100
0000
0001
0000
0000
0000
,
1000
0100
0010
0000
0100
0010
0100
0000
,
0100
1000
0010
0000
0100
0001
0010
0000
,
0010
0100
1100
0000
0011
0000
0101
0000
,
1001
0000
0001
0100
0001
0000
0000
0000
0001
0000
0010
0000
0100
0000
0000
0000
,
0010
0100
0010
0000
0010
0001
0100
0000
,
0100
0010
1000
0000
0001
1000
0100
0000
,
1100
0011
1100
0101
,
2002
3003
0000
0000
0000
0000
0000
0000
0000
0000
0000
0000
0000
0000
0000
0000
,
2100
0100
0010
3001
,
0001
0100
0001
1000
0100
1000
0001
0010
,
0012
0010
0100
1003
,
1000
0100
1000
0001
1000
0000
0000
0000
,
0120
1000
0100
0031
,
0001
0100
0010
1000
0100
0001
0100
0010
,
0200
0010
1000
0310
,
0010
0100
1000
0001
1000
0000
0000
0000
,
0001
0100
0010
0100
0001
0100
0010
1000
,
0001
0001
1000
1000
0100
0100
0010
0010
,
0100
1000
0010
0100
0001
0010
0100
1000
,
0100
0100
0010
0010
0100
0000
0000
0000
,
0100
0010
0001
0010
0100
1000
0100
0001
,
0100
0100
0010
0010
0001
0001
1000
1000
,
0001
0100
0010
1000
0001
0010
0100
1000
,
0100
0001
0100
1000
0020
0000
0000
0000
,
0130
0000
0100
0000
0100
0010
0100
0000
0100
0010
0100
0000
0100
0010
0100
0000
,
0000
0000
0000
1001
,
0120
0000
0000
0000
0130
0000
0001
0000
1000
0100
0000
0010
0000
0100
0000
0100
,
1000
0100
1000
0001
0010
0100
0010
0001
,
1001
0000
0000
0000
0001
0000
0100
0000
0010
1000
0000
0010
0000
0100
0000
0001
,
0010
0100
1000
0100
0010
0000
0000
0000
,
1100
0000
0000
0000
0100
0000
0010
0000
0001
0010
0000
0100
0000
0010
0000
0001
,
0100
0010
1000
0001
0010
0100
0010
0001
,
1001
0000
0000
0000
0001
0000
0010
0000
0001
0100
0000
0010
0000
0100
0000
0001
,
1000
0100
0010
0001
0010
0000
0000
0000
,
0011
0010
0100
1000
0100
0000
1100
0100
,
0010
0001
0010
0000
0101
0001
0100
0010
,
0110
0010
1000
0001
0010
0100
1000
0000
,
0000
1000
0100
0010
0001
0000
0011
0000
,
0101
0010
0100
0010
0100
0000
1010
0010
,
1000
0010
1000
0000
0101
0001
0100
0001
,
1000
0100
0001
0100
1000
0010
0100
0000
,
0000
0100
0001
1000
0020
0000
0002
0003
,
0130
0000
0000
0000
;

//--------------- dance-double - Pandemonium X-BDP----------------
#NOTES:
     dance-double:
     Pandemonium X:
     Easy:
     5:
     0.24884,0.322408,0.071913,0.039951,0,218,209,9,5,0,0,0,0,0,0.24884,0.322408,0.071913,0.039951,0,218,209,9,5,0,0,0,0,0:
00000000
00000000
00000000
00000000
,
10000000
00000000
00010000
00000000
,
10000000
00010000
00100000
01000000
,
10000000
00000000
00010000
00000000
,
00100000
00001000
00010000
00000000
,
00001000
00000000
00100000
00000000
,
00001000
00010000
00000100
00001000
,
00000010
00000000
00000100
00000000
,
00000001
00001000
00000100
00000000
,
00001000
00000100
00000100
00001000
,
00000010
00000010
00000100
00000001
,
00001000
00000100
00000100
00020000
,
00000000
00031000
00010000
00011000
,
00001000
00100000
00100000
01000000
,
10000000
10000000
01000000
10000000
,
00100000
01000000
00010000
00100000
,
00000000
01000000
10010000
00000000
,
10000000
00200000
01300000
00010000
,
00100000
00001000
00010000
00000100
,
00001000
00000010
00000100
00000001
,
00001000
00000100
00000100
00000100
,
00001000
00000020
00000130
00000010
,
00001000
00000001
00000010
00000001
,
00001000
00000010
00010000
00001000
,
00100000
00100000
00100000
00100000
,
01000000
20000000
30100000
01000000
,
00010000
00100000
01000000
00100000
,
00010000
01000000
00010000
00100000
,
00001000
00010000
00010000
00010000
,
00001000
02000000
03000000
00100000
,
00000000
10000000
00000000
00010000
,
00100000
00010000
00000000
00100000
,
00001000
00010000
00001000
00000000
,
00011000
00000000
00000000
00000000
,
00010000
00000000
00001000
00000000
,
01000000
00000000
00100000
00000000
,
10000000
00000000
01000000
00000000
,
00100000
01000000
10000000
00000000
,
00010000
00000000
01000000
00000000
,
00010000
00000000
00100000
00000000
,
00001000
00000000
00010000
00000000
,
00000100
00001000
00000010
00000000
,
00000100
00000000
00000010
00000000
,
00001000
00000001
00000010
00000001
,
00001000
00000000
00000100
00000000
,
00010000
00001000
00100000
00000000
,
00010000
00000000
01000000
00000000
,
00100000
10000000
00010000
00100000
,
01000000
00000000
00100000
00000000
,
00010000
00100000
00001000
00000000
,
00011000
00010000
00010000
00010000
,
00000000
00000000
00000000
00000000
,
00000100
00000000
00001000
00000000
,
00000010
00000100
00000001
00001000
,
00000100
00000000
00010000
00000000
,
00001000
00100000
01000000
00000000
,
00100000
00000000
01000000
00000000
,
10000000
00010000
01000000
00010000
,
00100000
00000000
00001000
00000000
,
00010000
00000100
00000010
00000000
,
00000110
00000100
00001000
00001001
,
00000001
00000100
00000010
00000010
,
00001001
00000001
00000100
00000010
,
00000000
00001000
00000100
00010100
,
00001000
00100000
00100000
00001000
,
00100000
00100000
00001000
01000000
,
00100000
10000000
00010000
00100000
,
00000000
01000000
00100000
00010000
10000000
00000000
00000000
00000000
,
01100000
00000000
00000000
00000000
;

//--------------- dance-double - Pandemonium X-DDP----------------
#NOTES:
     dance-double:
     Pandemonium X:
     Medium:
     8:
     0.332168,0.349275,0.039951,0.00799,0,291,286,5,1,0,0,0,0,0,0.332168,0.349275,0.039951,0.00799,0,291,286,5,1,0,0,0,0,0:
00000000
00000000
00000000
00000000
,
10000000
00000000
00100000
00000000
01000000
00000000
00010000
00100000
,
00000000
00100000
00001000
00000000
00010000
00000000
00000100
00000000
,
00001000
00000000
00000010
00000000
00000100
00000000
00000001
00000010
,
00000000
00000100
00000010
00000001
00001000
00000000
00000000
00000000
,
00000001
00000000
00000100
00000000
00000010
00000000
00001000
00000100
,
00000000
00000100
00010000
00000000
00001000
00000000
01000000
00000000
,
00100000
00000000
10000000
00000000
00010000
00000000
00100000
00001000
,
00000000
00010000
00000100
00001000
00000010
00000000
00000100
00000000
,
00000001
00000000
00000100
00000001
00000100
00000000
00000010
00000000
,
00001000
00000010
00001000
00000000
00000100
00001000
00000100
00010000
,
00001000
00000000
00010000
00000000
00001000
00100000
00001000
00000000
,
00000000
00100000
00010000
01000000
00100000
00000000
10010000
00000000
,
10000000
00000000
00010000
01000000
00010000
00000000
00100000
00000000
,
01000000
10000000
01000000
00000000
10000000
00000000
00010000
00000000
,
00100000
00000000
00001000
00000000
00010000
00000100
00001000
00000000
,
00000000
00000100
00010000
00001000
01000000
00000000
00000000
00000000
,
00100000
10000000
00010000
00000000
00100000
00000000
01000000
00000000
,
10000000
00010000
01000000
00010000
,
00100000
00010000
10000000
01000000
,
00100000
00001000
00010000
00000100
,
00001000
00000010
00000100
00000000
00000001
00000000
00000010
00000000
,
00000001
00001000
00000100
00001000
,
00000010
00000100
00000001
00001000
,
00000100
00000100
00000100
00000100
,
00000100
00010000
00001000
00000000
00010000
00000000
00001000
00000000
,
00100000
00010000
01000000
00100000
,
10000000
00010000
00100000
01000000
,
00100000
00010000
00010000
10000000
,
00010000
01000000
00200000
00000000
00000000
00000000
01300000
00000000
,
00000000
01000000
00000000
00100000
,
00000000
01000000
00000000
00100000
,
10000000
00010000
00100000
00000000
,
00011000
00000000
00000000
00000000
,
00001000
00000000
00010000
00000000
,
00000100
00001000
00000010
00000100
,
00000001
00000000
00001000
00000000
,
00000100
00001000
00000010
00010000
00001000
00000000
00000000
00000000
,
00010000
00000000
00001000
00000000
,
00100000
00010000
01000000
00100000
,
10000000
00000000
00010000
00000000
,
00100000
00001000
00010000
00000100
00001000
00000000
00000000
00000000
,
00000100
00001000
00000010
00000010
,
00000100
00000001
00000010
00001000
,
00000010
00000100
00001000
00001000
,
00000100
00010000
00001000
00010000
00000100
00000000
00000000
00000000
,
00010000
00001000
00100000
00010000
,
01000000
00100000
10000000
00010000
,
00100000
01000000
00100000
00010000
,
10000000
00010000
01000000
00010000
00100000
00000000
00000000
00000000
,
01000000
00100000
00010000
10000000
00100000
01000000
00010000
10000000
,
00000000
00000000
00000000
00000000
,
10000000
00010000
00100000
00001000
,
00010000
00000100
00001000
00000000
00000100
00001000
00000010
00000000
,
00000100
00000001
00001000
00000010
,
00000100
00000010
00001000
00000100
00010000
00000000
00000000
00000000
,
00001000
00100000
00010000
01000000
,
00100000
00000000
10000000
00000000
00010000
00000000
00100000
01000000
,
10000000
01000000
10000000
00100000
,
00000000
01000000
00010000
00100000
00001000
00000000
00000000
00000000
,
00010000
00000000
00000010
00001000
00000010
00000000
00000100
00000000
,
00000001
00000100
00000001
00000000
00001000
00000000
00000100
00000000
,
00000010
00000000
00000100
00000000
00001000
00000100
00001000
00000000
,
00000000
00000100
00010000
00001000
00010000
00000000
00011000
00000000
,
00001000
00000000
00100000
00010000
00100000
00000000
00010000
00000000
,
01000000
00100000
01000000
00000000
00100000
00000000
10000000
00000000
,
00010000
00000000
00100000
00000000
00001000
00010000
00000100
00000000
,
00000000
00010000
00001000
01000000
00100000
00000000
01100000
00000000
,
10010000
00000000
00000000
00000000
;

//--------------- dance-double - Pandemonium X-EDP----------------
#NOTES:
     dance-double:
     Pandemonium X:
     Hard:
     11:
     0.40408,0.429877,0.191767,0.127845,0.031961,354,330,24,16,0,0,0,0,0,0.40408,0.429877,0.191767,0.127845,0.031961,354,330,24,16,0,0,0,0,0:
00000000
00000000
00000000
00000000
,
10000000
00000000
00010000
00000000
00100000
00001000
00010000
00000100
,
00000000
00001000
00000010
00000100
00000001
00000000
00000010
00000000
,
00000100
00000000
00000010
00000000
00000001
00000100
00000010
00001000
,
00000000
00000100
00010000
00001000
01000000
00000000
00000000
00000000
,
00100000
00000000
10000000
00000000
00010000
00100000
00001000
00010000
,
00000000
00001000
00010000
01000000
00100000
00010000
01000000
00100000
,
10000000
00000000
10000000
00000000
00010000
00100000
00001000
00010000
,
00000000
00000010
00000100
00000001
00001000
00000000
00000000
00000000
,
00000001
00000100
00000001
00000100
00000010
00000000
00001000
00000010
,
00001000
00000010
00001000
00000000
00000100
00010000
00001000
00100000
,
00010000
01000000
00010000
01000000
00010000
00100000
02000000
00000000
,
00000000
03100000
00010000
10000000
00100000
00000000
10010000
00000000
,
10000000
00010000
00100000
01000000
00100000
00000000
01000000
00100000
,
00001000
00010000
00000100
00000000
00010000
00000100
00001000
00000010
,
00000100
00000010
00001000
00000001
00000010
00000100
00000020
00000000
,
00000000
00000130
00000100
00000010
00000001
00000000
00001001
00000000
,
00000001
00000100
00001000
00000000
00000100
00000000
00000010
00000000
,
00001000
00000100
00010000
00001000
,
00100000
00010000
01000000
00100000
,
10000000
01010000
10100000
01010000
,
10000000
01000000
00010000
00000000
01000000
00000000
00100000
00000000
,
00001000
00010000
00000100
00001000
,
00000010
00000100
00000001
00000010
,
00001001
00000110
00001001
00000000
,
00000001
00000010
00001000
00000000
00010000
00000000
00001000
00000000
,
00010000
00000100
00001000
00000010
,
00000100
00000001
00000010
00000100
,
00001000
00001001
00000110
00001001
,
00000001
00000010
00001000
00000000
00000010
00000000
00000100
00000000
,
00010000
00001000
00010000
01000000
,
10000000
01000000
00010000
01000000
,
01100000
01100000
01100000
00000000
,
00101000
00000000
00000000
00000000
,
00010000
00000000
00000100
00000000
,
00001000
00000010
00000100
00000001
,
00000010
00000000
00000100
00000000
,
00000010
00000001
00001000
00000000
,
00000010
00000000
00001000
00000000
,
00000100
00010000
00001000
00100000
,
01000000
00000000
00100000
00000000
,
00010000
01000000
00100000
00000000
,
02000000
03010000
00100000
00001000
,
00020000
00030100
00002000
00003010
,
00000200
00000301
00000100
00000010
,
00002000
00003200
00020000
00030300
,
00002000
00013000
01000000
00100000
,
00020000
01030000
02000000
03001000
,
00200000
00301000
00010000
00000100
,
00001000
00000010
00000100
00000001
00000010
00000000
00000000
00000000
,
00000100
00000100
00001000
00000010
00000100
00000001
00001000
00000010
,
00002000
00000000
00000000
00003100
,
00011000
00000000
00000000
00000000
01000000
00000000
00010000
00000000
00100000
00000000
00000000
01000000
00000000
00100000
00000000
00000000
,
01000000
00100000
00001000
00010000
00000100
00001000
00000010
00000100
,
00000001
00000000
00000000
00000000
00000010
00000000
00000000
00000000
00000100
00000000
00000000
00000010
00000000
00000001
00000000
00000000
,
00001000
00000010
00001010
00000000
00010100
00000000
00001010
00000000
,
00011000
00000000
00000000
00000000
00001000
00000000
00100000
00000000
00010000
00000000
00000000
01000000
00000000
01000000
00000000
00000000
,
00100000
01000000
00010000
00100000
00001000
00010000
00000100
00001000
,
00000010
00000000
00000000
00000000
00000100
00000000
00000001
00000000
00000010
00000000
00000000
00000100
00000000
00000100
00000000
00000000
,
00000010
00000001
00001000
00000001
00000010
00000000
00001001
00000000
,
00000001
00000100
00000010
00001000
00000100
00000000
00001000
00000100
,
00010000
00001000
00100000
00000000
00001000
00100000
00010000
00100000
,
00001000
00100000
00010000
01000000
00100000
10000000
02000000
00000000
,
00000000
03100000
00010000
10000000
00100000
00000000
10010000
00000000
,
10000000
00010000
00100000
00001000
00010000
00000000
00010000
00000100
,
00001000
00000010
00000100
00000000
00000001
00000100
00000010
00000100
,
00000001
00000010
00001000
00000010
00000100
00001000
00000200
00000000
,
00000000
00010300
00001000
00100000
00001000
00000000
00011000
00000000
,
01100000
00000000
00000000
00000000
;

//--------------- dance-double - Pandemonium X-CDP----------------
#NOTES:
     dance-double:
     Pandemonium X:
     Challenge:
     13:
     0.51252,0.564214,0.327602,0.063922,0.219733,449,408,41,8,0,0,0,0,0,0.51252,0.564214,0.327602,0.063922,0.219733,449,408,41,8,0,0,0,0,0:
00000000
00000000
00000000
00000000
,
10000000
00000000
00010000
00000000
00100000
00001000
00010000
00000100
,
00000000
00000100
00010000
00001000
00100000
10000000
00100000
00010000
,
01000000
00000000
00010000
00000000
00100000
00001000
00010000
00000100
,
00000000
00001000
00000010
00000100
00000001
00000000
00000000
00000000
,
00001000
00000000
00000010
00000000
00001000
00000100
00010000
00001000
,
00000000
00100000
00001000
00010000
00000100
00000001
00000100
00001000
,
00000010
00000000
00000100
00000000
00000010
00001000
00000100
00010000
,
00000000
00001000
01000000
00100000
10000000
00000000
00000000
00000000
,
00010000
00010000
00100000
00001000
00010000
00000000
00001000
00001000
,
00010000
00000100
00001000
00000000
00000100
00010000
00001000
00100000
,
00010000
00010000
01000000
10000000
01000000
00100000
10000000
00000000
,
00000000
00010000
00100000
00001000
00010000
00000000
00011000
00000000
,
00010000
00010000
00000100
00001000
00000010
00000000
00000100
00000100
,
00000010
00001000
00000001
00000000
00000010
00000001
00001000
00000100
,
00001000
00001000
00000100
00010000
00001000
01000000
00100000
00000000
,
00000000
01100000
01000000
00010000
10010000
00000000
00000000
00000000
,
10000000
00000000
00010000
00100000
02000000
00000000
00000000
00000000
03100000
00000000
00000000
00000000
00010000
00000000
00000000
00000000
,
00100000
00001000
00010000
00001000
,
00010000
00000100
00001000
00000010
,
00000100
00000101
00001010
00000101
,
00001001
00000000
00000001
00001000
00000020
00000000
00000000
00000000
00000130
00000000
00000000
00000000
00000010
00000000
00000000
00000000
,
00001000
00000100
00010000
00011000
,
01001000
01000000
00010000
00100000
,
01100000
10010000
01100000
10010000
,
10000000
00000000
00010000
00100000
02000000
00000000
00000000
00000000
03100000
00000000
00000000
00000000
01000000
00000000
00000000
00000000
,
10000000
00100000
01000000
00010000
,
00100000
00001000
00010000
00000100
,
00010000
00010010
00001010
00000110
,
00000100
00000000
00000010
00001000
00000002
00000000
00000000
00000000
00001003
00000000
00000000
00000000
00000100
00000000
00000000
00000000
,
00010000
00001000
00100000
01100000
,
11000000
01000000
00100000
00010000
,
00110000
00011000
00001010
00001000
,
00022000
00033000
00000000
00000000
00000000
00000000
00000000
00000000
00000000
00000000
00000000
00000000
00000000
00000000
00000000
00000000
,
00010000
00000000
00000000
00000000
00001000
00000000
00100000
00000000
00010000
01000000
00000000
01000000
00000000
00100000
00000000
01000000
,
00010000
00100000
00001000
00010000
00000100
00001000
00000010
00000100
,
00000001
00000000
00000000
00000000
00001000
00000000
00000100
00000000
00000010
00000100
00000000
00000010
00000000
00000010
00000000
00000100
,
00001000
00000010
00000100
00000001
00001000
00000000
00000000
00000000
,
00000010
00000000
00000000
00000000
00001000
00000000
00000100
00000000
00010000
00001000
00000000
00100000
00000000
00001000
00000000
00010000
,
00001000
00100000
00010000
01000000
00100000
10000000
01000000
10000000
,
00010000
00000000
00000000
00000000
01000000
00000000
00010000
00000000
00100000
00001000
00000000
00010000
00000000
00000100
00000000
00001000
,
00000010
00000100
00000001
00001000
00000100
00000000
00000000
00000000
,
00001001
00000000
00000000
00000000
00000001
00000000
00000100
00000000
00000010
00001000
00000000
00000010
00000000
00000001
00000000
00000010
,
00000100
00000001
00001000
00000100
00010000
00001000
00100000
01000000
,
10000000
00000000
00000000
00000000
01000000
00000000
10000000
00000000
00100000
10000000
00000000
00010000
00000000
01000000
00000000
00010000
,
00100000
00001000
00010000
00000100
00001000
00000000
00000000
00000000
,
00000010
00000000
00000000
00000000
00000100
00000000
00000001
00000000
00001000
00000010
00000000
00001000
00000000
00000100
00000000
00001000
,
00000100
00000010
00000001
00000010
00000100
00000010
00000001
00001000
,
00000010
00000000
00000000
00000000
00001000
00000000
00000010
00000000
00001000
00000100
00000000
00010000
00000000
00001000
00000000
00010000
,
00100000
10000000
00100000
00010000
10000000
00000000
00000000
00000000
,
10000000
00000000
10000000
00000000
10000000
00010000
00100000
00000000
01000000
10000000
00100000
00000000
01000000
00010000
00200000
00000000
,
00000000
00000000
00000000
00300000
,
00110000
00000000
00000000
00000000
00100000
00000000
00001000
00000000
00010000
00000100
00000000
00010000
00000000
00001000
00000000
00100000
,
00010000
01000000
10000000
01000000
00100000
10000000
00010000
00100000
,
01000000
00000000
00000000
00000000
00100000
00000000
00001000
00000000
00010000
00000100
00000000
00001000
00000000
00000010
00000000
00000100
,
00000001
00000010
00001000
00000010
00000001
00000000
00000000
00000000
,
00001001
00000000
00000000
00000000
00000001
00000000
00000100
00000000
00000010
00001000
00000000
00000100
00000000
00010000
00000000
00001000
,
00010000
00100000
10000000
00100000
00010000
01000000
00001000
00010000
,
00000100
00000000
00000000
00000000
00010000
00000000
00001000
00000000
00100000
00010000
00000000
01000000
00000000
00100000
00000000
10000000
,
00010000
00110000
01100000
11000000
10010000
00000000
00000000
00000000
,
01010000
00010000
01000000
00001000
00010000
00000000
00011000
00010000
,
00000100
00001000
00000010
00000000
00000100
00000010
00001000
00000001
,
00001001
00000001
00001000
00000010
00001000
00000100
00002000
00000000
,
00000000
00003100
00010000
00001000
00100000
00000000
00011000
00000000
,
00101000
00100000
00010000
01000000
00100000
00000000
10100000
00100000
,
01000000
00010000
00100000
00000000
01000000
00100000
01000000
10000000
,
00010000
00100000
00001000
00010000
00000100
00001000
00000010
00000000
,
00000000
00000110
00000101
00000011
00000110
00000000
00001001
00000000
,
00000110
00000000
00000000
00000000
;
