#VERSION:0.83;
#TITLE:SWEET THIRD SEVEN;
#ARTIST:dj VERTICAI;
#BANNER:SWEET THIRD SEVEN.png;
#BACKGROUND:SWEET THIRD SEVEN-bg.png;
#JACKET:SWEET THIRD SEVEN-jacket.png;
#MUSIC:SWEET THIRD SEVEN.ogg;
#OFFSET:-0.103;
#SAMPLESTART:78.747;
#SAMPLELENGTH:15;
#BPMS:0=177;

//--------------- dance-single - Talkion-bSP----------------
#NOTEDATA:;
#CHARTNAME:Talkion-bSP;
#STEPSTYPE:dance-single;
#DESCRIPTION:Talkion-bSP;
#DIFFICULTY:Beginner;
#METER:5;
#RADARVALUES:0,0,0,0,0;
#CREDIT:Talkion;
#NOTES:
0000
0000
0000
0000
,
0000
0000
0000
0000
,
0000
0000
0000
0000
,
0000
0000
0000
0000
,
0000
0000
0000
0000
,
0001
0000
0100
0000
,
0010
0000
1000
0000
,
0001
0001
0001
0002
,
0003
0000
0000
0000
,
1000
0000
0100
0000
,
1000
0000
0000
1000
0000
0000
0000
0000
,
0001
0001
0001
0000
,
0100
0000
0000
0200
0000
0000
0300
0000
,
0001
0000
0010
0000
,
0001
0000
1000
0000
,
0010
0010
0010
0000
,
0100
0100
0100
0000
,
0000
0001
0000
0001
,
0000
1000
0000
1000
,
0000
0001
0000
0001
,
0100
0000
0000
0010
0000
0010
0000
0010
,
0000
1000
0000
1000
,
0000
0001
0000
0001
,
0000
0010
0000
0020
,
0000
0000
0000
0030
,
1001
0000
0000
0000
,
2000
0000
3000
0000
,
1001
0000
0000
0000
,
0002
0000
0000
0003
,
1001
0000
0000
0110
0000
0000
0000
0000
,
2000
0000
0000
3000
,
1001
0000
0000
0110
0000
0000
2002
0000
,
0000
0000
0000
0000
,
0000
0000
0000
3003
,
0000
0001
0000
0001
,
0000
1000
0000
1000
,
0000
0010
0000
0100
,
0000
0010
0000
0100
,
0000
0001
0000
0001
,
0000
1000
0000
1000
,
0000
0100
0000
0010
,
0000
0001
0000
2000
,
3001
0000
0000
0000
,
1001
0000
0000
1001
0000
0000
0000
0000
,
0110
0000
0000
0000
,
1001
0000
0000
1001
0000
0000
0000
0000
,
0000
0000
1001
0000
0000
0000
0000
0001
,
0000
0001
0000
0002
0000
0000
0003
0000
,
1000
0000
1000
0000
1000
0000
0000
0001
,
0000
0001
0000
0001
0000
0000
0000
0000
,
0200
0000
0000
0000
,
0000
0000
0000
0300
,
0020
0000
0000
0000
,
0000
0000
0000
0030
,
1000
0000
1000
0000
,
0001
0000
0001
0000
,
1000
0001
1000
0001
,
1000
0000
0000
0000
,
0001
0001
0010
0000
,
1000
1000
0010
0000
,
0002
0000
0000
0000
,
0000
0000
0000
0003
,
1000
1000
0100
0000
,
0001
0001
0100
0000
,
2000
0000
0000
0000
,
0000
0000
0000
3000
,
0001
0000
0100
0000
,
0010
0010
0010
0000
,
1000
1000
1000
0000
,
0001
0001
0001
0000
,
1000
1000
0000
0000
,
0001
0000
0001
0001
,
0020
0000
0000
0030
,
0010
0010
0010
0000
,
0001
0000
1000
0000
,
0010
0000
0100
0000
,
0001
0000
1000
0000
,
0100
0000
0010
0000
,
0001
0000
1000
0000
,
0010
0000
0100
0000
,
0001
0000
0000
0000
1000
0000
0000
0100
,
0000
0100
0000
1000
0000
0000
0000
0000
,
1001
0000
0001
0000
,
0100
0000
0100
0000
,
1001
0000
1000
0000
,
0100
0000
0100
0000
,
0000
2002
0000
0000
,
0000
0000
0000
0000
,
0000
0000
0000
0000
,
0000
0000
0000
0000
,
3003
1001
0000
0000
;

//--------------- dance-single - Talkion-BSP----------------
#NOTEDATA:;
#CHARTNAME:Talkion-BSP;
#STEPSTYPE:dance-single;
#DESCRIPTION:Talkion-BSP;
#DIFFICULTY:Easy;
#METER:11;
#RADARVALUES:0,0,0,0,0;
#CREDIT:Talkion;
#NOTES:
0000
0000
0000
0000
,
0000
0000
0000
0000
,
0000
0000
0000
0000
,
0000
0000
0000
0000
,
0000
0000
0000
0000
,
0001
0001
0100
0100
,
0010
0010
1000
1000
,
0001
0100
0010
1000
0001
0100
0010
2000
,
0000
0000
0000
3000
,
0001
1000
0200
0320
,
1030
0000
0010
0100
0010
0000
0001
0000
,
1000
0010
0000
0000
1000
0010
0000
0000
0200
0000
0000
0000
0302
0000
0000
0000
,
2003
0000
3100
1100
0000
1100
0000
0001
,
1001
0000
1000
0000
0010
0000
0100
0001
,
0000
0100
0010
0100
0010
0000
0001
0000
,
0010
1000
0010
0100
0010
1000
0010
0100
,
0002
0000
2003
0000
3100
1000
0000
0001
,
0100
0000
0100
0010
1000
0010
0100
0000
,
0001
1000
0100
0000
1000
0001
0100
0000
,
0001
1000
0010
0000
1000
0001
0010
0000
,
0002
0000
0013
0011
0000
0011
0000
1001
,
0000
0000
1000
0010
0100
0010
1000
0000
,
0001
0010
0100
0000
1000
0010
0100
0000
,
0001
1000
0001
1000
0010
1000
0010
2000
,
0002
0000
0000
3003
,
0001
0000
0000
0001
0000
0000
0001
0000
0000
0000
0000
0000
0000
0000
0000
0000
,
1000
0000
0100
1000
0000
0100
1000
0000
,
0010
0000
0000
0010
0000
0000
0010
0000
0000
0000
0000
0000
0000
0000
0000
0000
,
0100
0000
0000
0001
0000
0000
0000
0000
0100
0000
0000
0001
0000
0000
0000
0000
,
1000
0000
0000
1000
0000
0000
1000
0000
0000
1000
0000
0000
0000
0000
0000
0000
,
0001
0000
0010
0000
0100
0000
1000
0000
0100
0000
0010
0000
,
0001
0000
0000
0001
0000
0000
0001
0000
0000
0001
0000
0000
2000
0000
0000
0000
,
0000
0000
0000
0000
,
0000
0000
0000
3000
,
0001
0000
0100
0000
0000
0000
0010
0000
0100
0000
0000
0000
,
0001
0000
1000
0000
0000
0000
0200
0000
0000
0300
0000
0000
,
1000
0000
0100
0000
0000
0000
0010
0000
0100
0000
0000
0000
,
1000
0000
0001
0000
0000
0000
0200
0000
0000
0300
0000
0000
,
0001
0000
0100
0000
0000
0000
0010
0000
0100
0000
0000
0000
,
0001
0000
1000
0000
0000
0000
0200
0000
0000
0300
0000
0000
,
1000
0000
0001
0000
0000
0100
0000
0000
0100
0000
0000
0100
,
0000
0000
0010
0000
0000
2000
0000
0000
0000
3000
0000
0000
,
1001
0000
0000
0000
,
0001
0000
1000
0100
0000
0010
0001
0000
,
1001
0000
0000
0000
,
1000
0000
0001
0100
0000
0010
2000
0000
,
3000
0000
1001
0000
0000
0000
0000
0011
,
0000
0110
0000
0011
0000
0000
0000
0000
,
1001
0000
1010
0000
1001
0000
0001
0101
,
0000
1100
0000
1001
0000
0001
0002
0000
,
0103
0001
1000
0100
,
0010
0000
0001
1000
0000
0100
1000
0000
,
0002
0103
0010
1000
,
0001
0000
0010
0100
0000
1000
0001
0000
,
0100
0010
1000
0000
0010
0100
0001
0000
,
1000
0100
0010
0000
0001
0010
0100
0000
,
1000
0001
0100
0010
1000
0100
0010
0001
,
1000
0000
1000
0000
1000
0001
0010
0000
,
0001
0100
0010
0100
1000
0100
0010
0000
,
1000
0010
0100
0010
0001
0010
0100
0000
,
0002
0000
1003
0000
0100
1000
0000
0001
,
0000
0001
0000
0100
0000
0010
1000
0000
,
0001
0010
0100
0010
1000
0010
0100
0000
,
1000
0100
0010
0100
0001
0100
0010
0000
,
0001
0000
1000
0000
0000
0010
0000
0000
,
0100
0000
0000
0001
0000
0000
1000
0000
,
0001
0010
0100
0001
,
1000
0010
0001
1000
,
0001
0100
1000
0001
,
0010
0100
0001
1000
,
1100
0000
0000
0000
0001
0000
0000
0001
0000
0000
0110
0000
0000
0110
0000
0000
,
1000
0000
0000
1000
0000
0000
0010
0000
0100
0000
0010
0000
0100
0000
0000
0000
,
0002
2003
3200
0320
,
0031
0000
0110
0000
0010
0100
1001
0000
,
0002
0203
0320
0032
,
0023
0000
1030
0002
0000
0013
0100
0000
,
1000
0200
0320
2030
,
3020
0000
0031
2000
0000
3010
0100
0000
,
0002
0203
0320
0032
,
0023
0000
1030
0002
0000
0013
0100
1000
,
0002
0000
0203
0000
2300
0000
3100
0010
,
0000
0110
0000
1001
0000
1000
2000
3000
,
0000
0001
0000
0010
0000
1000
0000
0010
,
0000
0001
0000
0100
0000
1000
0000
0100
,
0000
0001
0000
0010
0000
1000
0000
0010
,
0000
0001
0000
0100
0000
0010
0000
2000
,
3000
1001
0001
0010
,
0100
0000
0000
0000
1000
0000
0000
0001
0000
0000
1000
0000
0000
0001
0000
0000
,
1000
0000
0000
0001
0000
0000
0100
0000
0010
0000
0100
0000
0010
0000
1000
0000
,
0002
0000
0000
0000
,
0003
1001
0000
0000
;

//--------------- dance-single - Talkion-DSP----------------
#NOTEDATA:;
#CHARTNAME:Talkion-DSP;
#STEPSTYPE:dance-single;
#DESCRIPTION:Talkion-DSP;
#DIFFICULTY:Medium;
#METER:15;
#RADARVALUES:0,0,0,0,0;
#CREDIT:Talkion;
#NOTES:
0000
0000
0000
0000
,
0000
0000
0000
0000
,
0000
0000
0000
0000
,
0000
0000
0000
0000
,
0000
0000
0000
0000
,
0001
0001
1000
1000
,
0010
0010
0100
0100
,
0001
0000
0100
0000
0010
0000
1000
0000
0001
0000
0100
0000
0010
0100
0010
0100
,
0020
0030
0020
0030
0020
0030
0000
0000
,
1001
0000
0000
0000
1000
0001
1000
0000
0200
0000
0000
0000
0301
0000
0100
0000
,
2000
0000
0001
0000
3010
0000
2000
0000
0001
0000
0000
0000
3100
0010
0001
0000
,
1000
0100
0000
0000
1000
0100
0000
0000
0020
0000
0100
0000
0032
0000
0000
0000
,
2003
0000
3010
0202
0303
0101
0000
0110
,
1000
0000
0000
0000
0001
1000
0001
0000
0020
0000
0000
0000
0130
0010
0100
0010
,
0000
0000
0001
0010
0001
0000
0000
1000
0020
0000
0000
0000
0130
0010
1000
0000
,
0001
0100
1000
0100
0001
0100
1000
0100
,
0020
0000
0000
0000
2030
0000
0000
0000
3001
0000
0010
0000
0000
0010
0001
0000
,
2000
0000
0000
0000
3010
0000
1000
0000
0001
0000
0010
0100
0010
0000
0001
0000
,
2000
0000
0000
0000
3010
0000
1000
0000
0001
0000
0100
0000
0010
0100
0001
1000
,
0020
0000
0000
0000
1030
0000
0010
0000
0100
0000
0001
1000
0001
0000
0100
0000
,
0020
0000
1030
0022
0033
0011
0000
1001
,
0000
0000
0000
0000
1000
0000
0001
0000
0100
0000
0010
1000
0010
0000
0100
0000
,
0002
0000
0000
0000
1003
0000
0001
0000
0010
0000
0100
0000
1000
0001
1000
0001
,
1000
0000
0010
0000
0010
0000
0100
0000
0001
1000
0001
0000
0100
0000
0020
0000
,
1000
0000
1000
0000
0130
0010
0100
0001
,
1001
0000
0000
1001
0000
0000
1001
0000
0000
0000
0000
0000
0000
0000
0000
0000
,
1000
0000
0001
0000
0010
0001
0000
0001
1000
0000
0010
0000
0100
0010
0000
0000
,
1010
0000
0000
1010
0000
0000
1010
0000
0000
0000
0000
0000
0000
0000
0000
0000
,
1000
0000
0001
0000
0100
0001
0000
0001
1000
0000
0100
0000
0010
0100
0000
0000
,
1100
0000
0000
1100
0000
0000
0101
0000
0000
0101
0000
0000
0000
0000
0000
0000
,
0001
0100
0010
1000
0001
0000
1000
0100
0010
0001
1000
0000
,
1001
0000
0000
1001
0000
0000
0110
0000
0000
0110
0000
0000
2002
0000
0000
0000
,
0000
0000
0000
0000
,
0000
0000
0000
3003
,
0001
0010
0100
1000
,
0001
0000
0000
0100
0000
0020
0000
0000
1030
0001
0000
0000
,
1000
0100
0010
0001
,
1000
0000
0000
0010
0000
0200
0000
0000
0301
1000
0000
0000
,
0100
0000
0000
0000
0000
0000
0100
0000
0010
0000
0000
0001
,
1000
0000
0000
1000
0000
0000
0010
0000
0200
0000
0000
0000
,
0300
0000
0000
0001
0000
0000
1000
0000
0100
0000
0000
0001
,
0000
0000
0101
0000
0000
2100
0000
0000
0000
3002
0000
0000
,
0103
0000
0100
0000
0010
0000
0000
0000
1000
0000
0000
1000
0000
0000
1000
0000
,
1010
0000
0001
0011
0000
1000
1010
0000
,
0001
0000
0001
0000
1000
0000
0000
0000
0100
0000
0000
0100
0000
0000
0100
0000
,
1100
0000
0001
0101
0000
1000
2200
0000
,
3300
0000
1001
0000
0001
0000
1000
1010
,
0000
0011
0000
1010
0000
1000
0001
0100
,
0110
0000
1010
0000
0011
0000
0001
1001
,
0000
0000
0110
0000
0000
0000
1001
0000
0000
0000
1000
0000
0001
0100
0001
0100
,
0001
1000
0100
0010
1000
0010
0100
1000
,
0001
0100
0010
0001
0010
0100
0001
1000
,
0200
0000
0310
0100
1000
0001
0100
0010
,
1000
0000
0001
0000
0010
0000
1000
0000
0010
0000
0100
0000
1000
0100
1000
0100
,
1000
0001
0100
0001
1000
0001
0100
0001
,
1000
0000
0100
0010
0100
0000
0010
0001
0010
0000
0001
1000
0001
0000
1000
0000
,
0010
0100
0001
0000
1000
0010
0100
0000
0001
1000
0001
1000
0100
1000
0100
1000
,
0001
0000
0000
0000
0001
0000
0000
1000
0001
0000
0100
0000
0010
1000
0010
1000
,
0001
0000
0010
0100
0000
1000
0000
0001
0000
0100
0000
0010
0000
0010
0001
0000
,
0010
0000
1000
0001
0000
0010
0000
0100
0000
1000
0000
0100
0000
0100
0001
0000
,
0200
0000
1300
0000
0001
0100
0001
0100
,
0000
0100
0001
1000
0100
0010
0001
0001
,
1000
0000
0010
0100
0000
0001
0000
1000
0000
0100
0000
0010
0000
0010
1000
0000
,
0010
0000
0001
1000
0000
0010
0000
0100
0000
0001
0000
0100
0000
0100
1000
0000
,
0200
0000
0301
0000
2000
0001
0000
3100
,
1000
0000
0001
2000
0020
0000
3030
0000
,
1000
0001
0010
0000
0100
0010
0001
1000
,
0010
0001
1000
0200
0000
0301
0100
1000
,
0001
0000
0010
0000
1000
0001
0000
0002
0000
0000
0013
0000
0100
0000
1000
0000
,
0010
0000
0100
0000
0001
1000
0000
2000
0000
0000
0000
0000
3100
0010
0001
1000
,
0100
0000
0000
0000
1001
0000
0000
0110
0000
0000
1001
0000
0000
0110
0000
0000
,
1100
0000
0000
0101
0000
0000
1000
0000
1000
0000
0001
0000
0010
0000
0100
0000
,
1000
0000
0001
0100
0001
0000
1000
0100
1000
0000
0001
0100
0001
0000
1000
0010
,
0100
0000
0101
0000
1000
0110
1001
0000
,
0001
0100
0001
0000
1000
0100
1000
0000
,
0001
0100
0010
0001
0010
1000
0001
0000
,
1000
0010
1000
0000
0001
0010
0001
0000
,
1000
0010
0100
1000
0100
0001
1000
0000
,
0001
0100
0001
0000
1000
0100
1000
0000
,
0001
0100
0010
0001
0010
1000
0001
0010
,
0100
1000
0010
0100
0001
0010
0100
1100
,
0000
0000
1001
0000
0000
0000
0101
0000
0100
0000
0001
0000
1000
0001
1000
0001
,
0010
0110
0000
1100
0000
0101
0000
0011
,
0000
1010
0000
1100
0000
0101
0000
0001
,
0200
1300
0000
0110
0000
1100
0000
0101
,
0000
0011
0000
1010
0000
1001
0000
0002
,
0100
0003
1010
0000
0011
0000
0101
0000
,
1100
0000
0000
0000
1001
0000
0000
0011
0000
0000
1001
0000
0000
1010
0000
0000
,
1001
0000
0000
0011
0000
0000
1001
0000
2000
0000
3020
0000
0230
0000
0302
0000
,
1003
0000
0000
0000
0001
0000
0000
0000
1000
0000
0000
0000
0001
0000
0000
0000
1000
0000
0000
0000
0001
0000
0000
0000
1000
0000
0000
0100
0000
0000
1000
0000
0000
0100
0000
0000
1000
0000
0000
0100
0000
0000
1000
0000
0000
0100
0000
0000
,
0000
1001
0000
0000
;

//--------------- dance-single - Talkion-ESP----------------
#NOTEDATA:;
#CHARTNAME:Talkion-ESP;
#STEPSTYPE:dance-single;
#DESCRIPTION:Talkion-ESP;
#DIFFICULTY:Hard;
#METER:17;
#RADARVALUES:0,0,0,0,0;
#CREDIT:Talkion;
#NOTES:
0000
0000
0000
0000
,
0000
0000
0000
0000
,
0000
0000
0000
0000
,
0000
0000
0000
0000
,
0000
0000
0000
0000
,
0001
0001
1000
1000
,
0010
0010
0100
0100
,
0001
0000
1000
0000
0100
0000
1000
0000
0001
0100
0010
0100
0001
1000
0100
0010
,
0002
0003
0002
0003
0002
0003
0000
0000
,
0100
0000
0000
0001
1000
0010
1000
0010
0100
0000
0001
0000
0010
0000
0001
0000
,
0200
0000
1000
0000
0310
0000
0200
0000
1000
0000
0000
0000
0301
0100
0010
1000
,
0001
0010
0001
0000
0001
0010
0001
0000
2000
0000
0010
0000
3002
0000
0000
0000
,
0023
0000
0031
2200
3300
1100
0000
1100
,
0001
0000
0000
1000
0001
0100
0001
0100
0020
0000
0000
0000
1030
0010
0100
0010
,
1000
0000
0001
0100
0001
0000
0001
0100
0001
0000
0000
0000
1000
0100
0010
0001
,
1000
0100
1000
0100
0010
0100
0010
0100
0010
0001
0010
0001
1000
0001
1000
0001
,
0200
0000
0000
0000
0302
0000
0000
0000
1003
0000
0020
0000
0030
0010
0100
0000
,
0002
0000
0000
0000
1003
0000
0001
0010
0100
0010
0001
0000
0100
0000
0010
0100
,
0001
0000
1100
0000
0001
0000
1000
0100
0000
0000
0100
0000
1000
0001
0100
0010
,
1000
0000
0010
0000
0001
0000
0010
0100
0001
0100
0010
0000
1000
0000
1000
0100
,
0020
0000
0031
2020
3030
1010
0000
2002
,
3003
0000
0001
0010
0100
0000
1000
0100
0010
0100
1000
0000
0001
0000
0100
0010
,
1000
0000
0011
0000
1000
0000
0001
0010
0001
1000
0010
0000
0100
0000
0010
0100
,
0001
1000
0100
1000
0001
1000
0100
1000
0001
0010
0001
1000
0010
0100
0010
1000
,
0002
0000
0000
0000
0010
0000
0000
0000
0013
0000
0001
1000
0100
0000
0000
0000
,
1100
0000
0000
0101
0000
0000
1100
0000
0000
0000
1000
0001
1000
0001
1000
0001
,
0100
0000
0010
0000
1000
0010
0000
0010
0100
0000
0001
0000
1000
0100
0000
0100
,
0010
0000
0000
0000
0000
0000
0000
0000
0000
0011
0000
0000
0000
0000
0000
0000
0000
0000
1010
0000
0000
0000
0000
0000
0000
0000
0000
0000
0000
0000
1000
0000
0000
0000
0000
0000
0001
0000
0000
0000
0100
0000
0000
0000
0010
0000
0000
0000
,
1000
0000
0001
0000
0010
0100
0000
0100
0002
0000
0103
0000
1000
0200
0000
0000
,
1300
0000
0000
0000
0000
0000
0000
0000
0000
0101
0000
0000
0000
0000
0000
0000
0000
0000
1100
0000
0000
0000
0000
0000
0000
0000
0000
0101
0000
0000
0000
0000
0000
0000
0000
0000
0000
0000
0000
0000
0001
0000
0000
0000
1000
0000
0000
0000
,
0100
0001
1000
0001
0100
1000
0001
0100
1000
0001
1000
0100
,
0001
0000
0000
1001
0000
0000
0110
0000
0000
1001
0000
0000
1200
0000
0000
0000
,
0000
0000
0000
1000
0000
0000
0001
0000
0010
0000
1000
0000
,
0310
0000
0000
0000
0100
0000
0000
0000
1000
0000
0001
0000
0100
0000
0000
0100
0000
0000
0010
0000
0000
0100
0000
0000
,
0001
2000
3200
0320
,
0032
0000
0000
1003
0000
0020
0000
0000
0130
0010
0000
0000
,
1000
0002
0023
0230
,
2300
0000
0000
3001
0000
0200
0000
0000
0310
0100
0000
0000
,
0101
0000
0000
0000
0000
0000
0002
0000
2003
0000
0000
3100
,
0010
0000
0000
0010
0000
0000
0002
0000
2003
0000
0000
0000
,
3010
0000
0000
0001
0000
0000
0010
0000
0200
0000
0000
0001
,
0000
0000
1000
0000
0000
0320
0000
0000
0000
0230
0000
0000
,
0301
0000
0001
0000
1000
0000
0000
0000
0100
0000
0000
0100
0000
0000
0100
0000
,
1100
0000
0101
1100
0000
0011
1010
0000
,
1000
0000
1000
0000
0001
0000
0000
0000
0100
0000
0000
0100
0000
0000
0100
0000
,
0101
0000
1100
0101
0000
1010
0011
0000
,
0002
0000
0000
0000
0103
0000
0000
0000
0010
0000
0000
0010
0000
0000
1010
0000
,
0000
0101
0000
1010
0000
1000
0100
0010
,
0011
0000
1100
0000
1001
0000
0101
1100
,
0000
0000
0110
0000
0000
0000
1002
0000
0000
0000
0013
0001
0010
0001
0010
0001
,
1000
0000
0010
0000
0010
0000
0100
0010
0100
0000
0001
0000
1000
0001
0010
0001
,
1000
0000
0010
0100
0010
0000
1000
0000
0100
0010
0100
0000
1000
0001
0100
0010
,
2000
0000
0000
0000
3001
0000
0010
0100
0010
0000
0001
0000
1000
0001
0100
0001
,
1000
0000
0100
0010
0100
0000
1000
0000
0010
0100
0010
0000
0100
0001
1000
0100
,
0010
0001
0010
0001
1000
0001
1000
0001
1000
0010
1000
0010
0100
0010
0100
0010
,
0000
0100
0001
0010
0000
0010
1000
0100
0000
0100
0001
0010
0000
0010
1000
0100
,
0010
0001
1000
0100
1000
0001
1000
0010
0100
0001
0010
0100
1000
0010
0100
0001
,
1000
0000
0000
0000
1000
0000
0000
0010
0100
0000
0001
0000
0010
0001
0010
0001
,
1000
0010
0100
1000
0000
0100
0000
0001
0000
1000
0010
1000
0001
0010
0001
0010
,
0100
1000
0001
0010
0000
1000
0010
0100
1000
0001
0000
0010
0000
0010
0001
1000
,
0020
0000
0000
0000
1030
0010
0100
0010
1000
0000
0001
0000
0010
0000
0100
0000
,
0010
0000
0001
0000
0001
0000
1000
0000
0010
0000
1000
0000
0001
0010
0100
1000
,
0001
0100
0010
0001
0000
0010
0000
1000
0000
0001
0100
0001
1000
0100
1000
0100
,
0010
0001
1000
0010
0000
0001
0010
0100
0001
1000
0000
0100
0000
0010
0100
1000
,
0002
0000
0103
0000
0002
0100
0000
1003
,
0001
0010
0100
1000
0010
0000
1001
0000
,
0002
0010
2003
0000
3010
1000
0001
0010
,
0100
0001
0100
2000
0000
3001
1000
0010
,
0001
0000
0010
0000
0100
0010
0000
0020
0000
0000
1030
0000
0001
0000
0010
0000
,
1000
0000
0010
0000
0100
0010
0000
0020
0000
0000
0000
0000
0031
0010
0100
1000
,
0001
0000
0000
0000
1010
0000
0000
0011
0000
0000
1010
0000
0000
0011
0000
0000
,
1001
0000
1000
0100
0000
0100
0001
0000
1000
0010
0001
0010
0100
0000
0000
0000
,
1000
0000
0001
0010
0001
0000
1000
0010
0100
0001
0010
0100
1000
0010
0100
0001
,
1000
0000
1010
0000
0101
0100
1001
0000
,
2000
0010
3002
0010
2003
0100
3002
0100
,
2003
0100
3001
0002
0100
1003
2000
0000
,
3100
0010
0002
1000
0203
0010
0302
1000
,
0203
1000
0310
0020
0001
0130
0010
0010
,
2000
0010
3002
0010
2003
0100
3002
0100
,
2003
0010
3001
0002
0010
1003
2000
0001
,
3200
0001
0320
1000
0130
0010
0001
1001
,
0000
0000
0110
0000
0000
0000
1001
0000
1000
0000
0010
0100
0001
1000
0100
0010
,
0001
1001
0000
1100
0010
1001
0000
0101
,
0010
0000
1001
0000
0000
0000
1100
0000
0001
0000
0100
0000
0010
0100
0010
0100
,
0001
1001
0000
1010
0100
1001
0000
0011
,
0100
0000
1001
0000
0000
0000
1010
0000
0001
0010
0000
0001
0010
0001
1000
0010
,
0100
0101
1100
1010
,
0011
0000
0000
0000
1001
0000
0000
1100
0000
0000
1001
0000
0000
0101
0000
0000
,
1001
0000
0000
1100
0000
0000
1001
0000
0002
0000
0203
0000
0320
0000
2030
0000
,
3001
0000
0000
0000
1000
0000
0000
0000
0100
0000
0000
0000
0001
0000
0000
0000
1000
0000
0000
0000
0010
0000
0000
0000
0001
0000
0000
1000
0000
0000
0010
0000
0000
0100
0000
0000
0001
0000
0000
0010
0000
0000
0100
0000
0000
1000
0000
0000
,
0000
1001
0000
0000
;

//--------------- dance-double - Talkion-BDP----------------
#NOTEDATA:;
#CHARTNAME:Talkion-BDP;
#STEPSTYPE:dance-double;
#DESCRIPTION:Talkion-BDP;
#DIFFICULTY:Easy;
#METER:11;
#RADARVALUES:0,0,0,0,0;
#CREDIT:Talkion;
#NOTES:
00000000
00000000
00000000
00000000
,
00000000
00000000
00000000
00000000
,
00000000
00000000
00000000
00000000
,
00000000
00000000
00000000
00000000
,
00000000
00000000
00000000
00000000
,
00001000
00001000
01000000
01000000
,
00100000
00100000
10000000
10000000
,
00010000
01000000
00010000
01000000
00001000
00010000
00001000
00020000
,
00000000
00000000
00000000
00030000
,
00000010
00001000
00000002
00000023
,
00000130
00000000
00010000
00001000
00010000
00000000
00000010
00000000
,
00001000
00000010
00000000
00000000
00001000
00000010
00000000
00000000
00020000
00000000
00000000
00000000
00032000
00000000
00000000
00000000
,
02003000
00000000
03100000
01100000
00000000
01100000
00000000
10000000
,
10010000
00000000
00010000
00000000
00100000
00000000
00001000
00010000
,
00000000
00000010
00001000
00000010
00001000
00000000
00000001
00000000
,
00001000
00000100
00010000
00000100
00001000
00000100
00010000
00000100
,
00000020
00000000
00002030
00000000
00013000
00001000
00000000
01000000
,
00100000
00000000
00100000
10000000
00100000
10000000
00010000
00000000
,
00100000
00001000
00010000
00000000
00000010
00010000
00001000
00000000
,
01000000
00001000
00010000
00000000
00000100
00010000
00001000
00000000
,
00020000
00000000
00031000
00011000
00000000
00011000
00000000
00010100
,
00000000
00000000
00000100
00001000
00000100
00001000
00000001
00000000
,
00000100
00000010
00010000
00000000
00000010
00010000
00001000
00000000
,
00010000
00001000
00010000
00001000
00100000
00010000
00100000
00020000
,
20000000
00000000
00000000
30030000
,
00010000
00000000
00000000
00010000
00000000
00000000
00010000
00000000
00000000
00000000
00000000
00000000
00000000
00000000
00000000
00000000
,
00100000
00000000
00001000
00010000
00000000
00001000
00010000
00000000
,
00000010
00000000
00000000
00000010
00000000
00000000
00000010
00000000
00000000
00000000
00000000
00000000
00000000
00000000
00000000
00000000
,
00010000
00000000
00000000
00001000
00000000
00000000
00000000
00000000
00010000
00000000
00000000
00001000
00000000
00000000
00000000
00000000
,
01000000
00000000
00000000
01000000
00000000
00000000
01000000
00000000
00000000
01000000
00000000
00000000
00000000
00000000
00000000
00000000
,
00001000
00000000
00010000
00000000
00000100
00000000
00000010
00000000
00000001
00000000
00001000
00000000
,
00000100
00000000
00000000
00000100
00000000
00000000
00000100
00000000
00000000
00000100
00000000
00000000
00020000
00000000
00000000
00000000
,
00000000
00000000
00000000
00000000
,
00000000
00000000
00000000
00030000
,
00001000
00000000
01000000
00000000
00000000
00000000
00100000
00000000
01000000
00000000
00000000
00000000
,
10000000
00000000
01000000
00000000
00000000
00000000
00020000
00000000
00000000
00030000
00000000
00000000
,
10000000
00000000
01000000
00000000
00000000
00000000
00100000
00000000
01000000
00000000
00000000
00000000
,
00001000
00000000
01000000
00000000
00000000
00000000
00020000
00000000
00000000
00030000
00000000
00000000
,
00001000
00000000
00010000
00000000
00000000
00000000
00000010
00000000
00000100
00000000
00000000
00000000
,
00000001
00000000
00001000
00000000
00000000
00000000
00000200
00000000
00000000
00000300
00000000
00000000
,
00010000
00000000
00001000
00000000
00000000
01000000
00000000
00000000
01000000
00000000
00000000
01000000
,
00000000
00000000
00100000
00000000
00000000
20000000
00000000
00000000
00000000
30000000
00000000
00000000
,
10010000
00000000
00000000
00000000
,
00010000
00000000
00100000
00001000
00000000
00010000
00000010
00000000
,
00001001
00000000
00000000
00000000
,
00001000
00000000
00000010
00010000
00000000
00001000
00200000
00000000
,
00300000
00000000
10010000
00000000
00000000
00000000
00000000
00101000
,
00000000
00011000
00000000
00101000
00000000
00000000
00000000
00000000
,
00011000
00000000
00010010
00000000
00011000
00000000
00000010
00000110
,
00000000
00000101
00000000
00001001
00000000
00001000
00002000
00000000
,
00003100
00010000
00001000
01000000
,
00100000
00000000
01000000
00010000
00000000
01000000
00010000
00000000
,
00100000
00001000
00010000
00000010
,
00000100
00000000
00000010
00010000
00000000
00000010
00010000
00000000
,
00001000
00010000
00000100
00000000
00010000
00001000
01000000
00000000
,
00001000
00010000
00000010
00000000
00010000
00001000
00100000
00000000
,
00001000
00010000
00000010
00001000
00000001
00000010
00000100
00010000
,
00001000
00000000
00001000
00000000
00001000
01000000
00010000
00000000
,
10000000
01000000
00100000
01000000
00010000
00001000
00010000
00000000
,
00001000
00000010
00000100
00000010
00000001
00001000
00000100
00000000
,
00020000
00000000
00031000
00000000
00010000
00000100
00000000
00000010
,
00000000
00000010
00000000
00000010
00000000
00000001
00001000
00000000
,
00000001
00000100
00000010
00000100
00001000
00010000
00001000
00000000
,
00010000
00100000
01000000
00100000
10000000
00010000
01000000
00000000
,
00001000
00000000
00010000
00000000
00000000
00000100
00000000
00000000
,
00000010
00000000
00000000
00000100
00000000
00000000
00010000
00000000
,
00001000
01000000
00100000
01000000
,
00001000
00010000
00000100
00000010
,
00000100
00010000
00001000
01000000
,
00100000
10000000
01000000
00100000
,
00101000
00000000
00000000
00000000
00001000
00000000
00000000
00001000
00000000
00000000
00010100
00000000
00000000
00010100
00000000
00000000
,
00000100
00000000
00000000
00000100
00000000
00000000
00000010
00000000
00000001
00000000
00000010
00000000
00000001
00000000
00000000
00000000
,
00000020
00002030
00023000
02030000
,
03100000
00000000
10010000
00000000
01000000
00001000
00011000
00000000
,
00020000
00030200
00000320
00002030
,
00023000
00000000
00030100
00002000
00000000
00003100
00010000
00000000
,
00002000
02003000
03200000
00320000
,
00032000
00000000
01003000
00020000
00000000
01030000
00001000
00000000
,
00020000
00030200
00000320
00000032
,
00000203
00000000
00000310
00020000
00000000
00030010
00000100
00000001
,
00002000
00000000
00003200
00000000
00020300
00000000
00031000
01000000
,
00000000
01100000
00000000
10010000
00000000
10000000
20000000
00000000
,
30000000
01000000
00000000
00001000
00000000
00000100
00000000
00001000
,
00000000
01000000
00000000
00001000
00000000
00000100
00000000
00001000
,
00000000
01000000
00000000
00100000
00000000
00001000
00000000
00000010
,
00000000
00001000
00000000
00100000
00000000
00001000
00000000
00020000
,
00030000
00011000
00000100
00001000
,
00000001
00000000
00000000
00000000
00000100
00000000
00000000
00000010
00000000
00000000
00000100
00000000
00000000
00000010
00000000
00000000
,
00000100
00000000
00000000
00000010
00000000
00000000
00010000
00000000
00000010
00000000
00010000
00000000
00000010
00000000
00010000
00000000
,
00002000
00000000
00000000
00000000
,
00003000
00011000
00000000
00000000
;

//--------------- dance-double - Talkion-DDP----------------
#NOTEDATA:;
#CHARTNAME:Talkion-DDP;
#STEPSTYPE:dance-double;
#DESCRIPTION:Talkion-DDP;
#DIFFICULTY:Medium;
#METER:15;
#RADARVALUES:0,0,0,0,0;
#CREDIT:Talkion;
#NOTES:
00000000
00000000
00000000
00000000
,
00000000
00000000
00000000
00000000
,
00000000
00000000
00000000
00000000
,
00000000
00000000
00000000
00000000
,
00000000
00000000
00000000
00000000
,
00001000
00001000
01000000
01000000
,
00100000
00100000
10000000
10000000
,
00010000
00000000
00100000
00000000
00001000
00000000
00010000
00000000
00000010
00000000
00001000
00000000
00000001
00001000
00000001
00001000
,
00000200
00000300
00000200
00000300
00000200
00000300
00000000
00000000
,
00011000
00000000
00000000
00000000
00001000
00010000
00001000
00000000
02000000
00000000
00000000
00000000
03100000
00000000
01000000
00000000
,
00002000
00000000
00010000
00000000
01003000
00000000
00002000
00000000
00010000
00000000
00000000
00000000
00103000
00010000
00100000
00000000
,
00001000
00010000
00000000
00000000
00001000
00010000
00000000
00000000
00000200
00000000
00000010
00000000
00002300
00000000
00000000
00000000
,
00003002
00000000
00000103
00020020
00030030
00010010
00000000
00011000
,
00100000
00000000
00000000
00000000
00010000
10000000
00010000
00000000
00200000
00000000
00000000
00000000
01300000
00100000
01000000
00100000
,
00000000
00000000
00001000
00010000
00001000
00000000
00000000
01000000
00020000
00000000
00000000
00000000
00130000
00001000
00010000
00000000
,
00000100
00000010
00001000
00000010
00000100
00000010
00001000
00000010
,
00000002
00000000
00000000
00000000
00000203
00000000
00000000
00000000
00000310
00000000
00010000
00000000
00000000
00010000
00001000
00000000
,
02000000
00000000
00000000
00000000
03100000
00000000
01000000
00000000
00001000
00000000
00100000
01000000
00100000
00000000
00001000
00000000
,
02000000
00000000
00000000
00000000
03010000
00000000
01000000
00000000
00001000
00000000
00010000
00000000
00000100
00001000
00000001
00000010
,
00000200
00000000
00000000
00000000
00001300
00000000
00000100
00000000
00010000
00000000
00000010
00000100
00000010
00000000
00010000
00000000
,
00002000
00000000
01003000
20200000
30300000
10100000
00000000
10010000
,
00000000
00000000
00000000
00000000
00010000
00000000
00100000
00000000
00001000
00000000
01000000
00100000
01000000
00000000
00001000
00000000
,
00020000
00000000
00000000
00000000
00030100
00000000
00000010
00000000
00000001
00000000
00001000
00000000
00000100
00010000
00000100
00010000
,
00000100
00000000
00010000
00000000
00010000
00000000
00001000
00000000
01000000
00010000
01000000
00000000
00100000
00000000
20000000
00000000
,
00010000
00000000
00010000
00000000
31000000
00100000
01000000
00010000
,
00011000
00000000
00000000
00011000
00000000
00000000
00011000
00000000
00000000
00000000
00000000
00000000
00000000
00000000
00000000
00000000
,
00000100
00000000
00001000
00000000
00000001
00000100
00000000
00000100
00000010
00000000
00010000
00000000
00001000
00010000
00000000
00000000
,
00011000
00000000
00000000
00011000
00000000
00000000
00011000
00000000
00000000
00000000
00000000
00000000
00000000
00000000
00000000
00000000
,
01000000
00000000
00010000
00000000
10000000
01000000
00000000
01000000
00010000
00000000
00001000
00000000
00000010
00000100
00000000
00000000
,
00000110
00000000
00000000
00000110
00000000
00000000
00000110
00000000
00000000
00000110
00000000
00000000
00000000
00000000
00000000
00000000
,
00000001
00000100
00000010
00010000
00001000
00000000
00010000
00001000
01000000
00100000
10000000
00000000
,
10010000
00000000
00000000
10010000
00000000
00000000
01100000
00000000
00000000
01100000
00000000
00000000
20020000
00000000
00000000
00000000
,
00000000
00000000
00000000
00000000
,
00000000
00000000
00000000
30030000
,
10000000
01000000
00010000
00001000
,
00000010
00000000
00000000
00000001
00000000
00002000
00000000
00000000
00003010
00001000
00000000
00000000
,
00000001
00000010
00001000
00010000
,
01000000
00000000
00000000
10000000
00000000
00020000
00000000
00000000
01030000
00010000
00000000
00000000
,
10000000
00000000
00000000
00000000
00000000
00000000
10000000
00000000
01000000
00000000
00000000
00100000
,
00001000
00000000
00000000
00001000
00000000
00000000
00010000
00000000
00000020
00000000
00000000
00000000
,
00000030
00000000
00000000
00000100
00000000
00000000
00000010
00000000
00010000
00000000
00000000
00000100
,
00000000
00000000
00000110
00000000
00000000
00001002
00000000
00000000
00000000
00000203
00000000
00000000
,
00001300
00000000
00001000
00000000
00010000
00000000
00000000
00000000
00001000
00000000
00000000
00001000
00000000
00000000
00001000
00000000
,
00101000
00000000
00100000
01100000
00000000
00001000
00101000
00000000
,
00100000
00000000
00100000
00000000
00001000
00000000
00000000
00000000
00010000
00000000
00000000
00010000
00000000
00000000
00010000
00000000
,
00010100
00000000
00000100
00000110
00000000
00010000
00020200
00000000
,
00030300
00000000
00001001
00000000
00000001
00000000
00000100
00000110
,
00000000
00010010
00000000
00101000
00000000
00100000
00010000
10000000
,
10010000
00000000
01001000
00000000
00010100
00000000
00000100
00000110
,
00000000
00000000
00001001
00000000
00000000
00000000
00000110
00000000
00000000
00000000
00010000
00000000
00001000
00010000
00001000
00010000
,
00001000
01000000
00100000
01000000
00001000
00100000
01000000
00100000
,
00001000
00010000
00000010
00000100
00000010
00010000
00000100
00000010
,
00002000
00000000
00013000
00001000
01000000
00100000
10000000
01000000
,
00100000
00000000
00001000
00000000
00010000
00000000
00000010
00000000
00000100
00000000
00000001
00000000
00001000
00000001
00001000
00000001
,
00001000
00000100
00010000
00000010
00001000
00000100
00010000
00000010
,
00001000
00000000
00000100
00010000
00000100
00000000
00010000
00001000
00010000
00000000
00001000
01000000
00001000
00000000
01000000
00000000
,
00100000
01000000
00010000
00000000
10000000
00100000
01000000
00000000
00010000
01000000
00010000
01000000
00001000
00010000
00001000
00010000
,
00000010
00000000
00000000
00000000
00000010
00000000
00000000
00000100
00000010
00000000
00001000
00000000
00000001
00001000
00000001
00001000
,
00000001
00000000
00000010
00000100
00000000
00001000
00000000
00010000
00000000
00100000
00000000
01000000
00000000
10000000
00010000
00000000
,
10000000
00000000
00100000
01000000
00000000
00010000
00000000
00001000
00000000
00000010
00000000
00000100
00000000
00000001
00001000
00000000
,
00000200
00000000
00010300
00000000
00001000
00100000
00001000
00100000
,
00000000
00100000
00010000
10000000
00100000
01000000
00010000
00010000
,
10000000
00000000
01000000
00100000
00000000
00010000
00000000
00001000
00000000
00000100
00000000
00000010
00000000
00000001
00001000
00000000
,
00000001
00000000
00000100
00000010
00000000
00001000
00000000
00010000
00000000
01000000
00000000
00100000
00000000
10000000
00010000
00000000
,
00200000
00000000
00301000
00000000
02000000
00001000
00000000
03010000
,
01000000
00000000
00001000
00020000
00000200
00000000
00030300
00000000
,
00000010
00000100
00001000
00000000
00000001
00000100
00001000
00010000
,
00000010
00001000
00010000
02000000
00000000
03100000
00010000
00001000
,
01000000
00000000
00010000
00000000
00001000
00000010
00000000
00000020
00000000
00000000
00010030
00000000
00001000
00000000
00100000
00000000
,
01000000
00000000
00010000
00000000
01000000
10000000
00000000
20000000
00000000
00000000
00000000
00000000
30010000
00100000
00001000
00100000
,
00010000
00000000
00000000
00000000
10010000
00000000
00000000
01001000
00000000
00000000
10010000
00000000
00000000
01001000
00000000
00000000
,
00011000
00000000
00000000
00010010
00000000
00000000
00000010
00000000
00000010
00000000
00001000
00000000
00000001
00000000
00000010
00000000
,
00000100
00000000
00010000
00001000
00010000
00000000
00000010
00001000
00000010
00000000
00010000
00001000
00010000
00000000
00001000
01000000
,
00010000
00000000
01010000
00000000
10000000
01100000
10010000
00000000
,
00010000
00100000
01000000
00000000
00100000
00001000
00010000
00000000
,
00001000
00010000
00000010
00000100
00001000
00010000
00000100
00000000
,
00001000
00000100
00000010
00000000
00000100
00010000
00001000
00000000
,
00010000
00001000
01000000
00100000
00010000
00001000
00100000
00000000
,
00010000
00100000
01000000
00000000
00100000
01000000
10000000
00000000
,
00010000
10000000
00100000
00010000
00001000
00010000
01000000
00010000
,
00001000
00000010
00001000
00010000
00001000
00000100
00000001
00001001
,
00000000
00000000
00010100
00000000
00000000
00000000
01001000
00000000
01000000
00000000
00010000
00000000
10000000
00100000
10000000
00100000
,
01000000
01001000
00000000
00010100
00000000
01001000
00000000
00010010
,
00000000
00101000
00000000
00010010
00000000
00011000
00000000
00000010
,
00002000
00003100
00000000
00010100
00000000
01001000
00000000
00010100
,
00000000
00001010
00000000
00101000
00000000
00010010
00000000
00000020
,
00000100
00000030
00001001
00000000
00010100
00000000
01001000
00000000
,
10010000
00000000
00000000
00000000
01100000
00000000
00000000
01001000
00000000
00000000
01100000
00000000
00000000
01001000
00000000
00000000
,
01100000
00000000
00000000
10100000
00000000
00000000
01100000
00000000
02000000
00000000
03002000
00000000
00023000
00000000
00030020
00000000
,
00000130
00000000
00000000
00000000
00000010
00000000
00000000
00000000
00000100
00000000
00000000
00000000
00000010
00000000
00000000
00000000
00000100
00000000
00000000
00000000
00000010
00000000
00000000
00000000
00000100
00000000
00000000
00000001
00000000
00000000
00000100
00000000
00000000
00000001
00000000
00000000
00000100
00000000
00000000
00000001
00000000
00000000
00000100
00000000
00000000
00000001
00000000
00000000
,
00000000
00001001
00000000
00000000
;

//--------------- dance-double - Talkion-EDP----------------
#NOTEDATA:;
#CHARTNAME:Talkion-EDP;
#STEPSTYPE:dance-double;
#DESCRIPTION:Talkion-EDP;
#DIFFICULTY:Hard;
#METER:17;
#RADARVALUES:0,0,0,0,0;
#CREDIT:Talkion;
#NOTES:
00000000
00000000
00000000
00000000
,
00000000
00000000
00000000
00000000
,
00000000
00000000
00000000
00000000
,
00000000
00000000
00000000
00000000
,
00000000
00000000
00000000
00000000
,
00001000
00001000
01000000
01000000
,
00100000
00100000
10000000
10000000
,
00010000
00000000
00100000
00000000
00001000
00000000
00010000
00000000
00000010
00001000
00000001
00001000
00000010
00000100
00000001
00001000
,
00000200
00000300
00000200
00000300
00000200
00000300
00000000
00000000
,
00010000
00000000
00000000
00001000
01000000
00010000
01000000
00010000
10000000
00000000
00100000
00000000
01000000
00000000
00100000
00000000
,
10000000
00000000
00020000
00000000
00130000
00000000
00002000
00000000
01000000
00000000
00000000
00000000
00013000
00000100
00001000
00000100
,
00010000
00000010
00001000
00000000
00000010
00001000
00000001
00000000
00000020
00000000
00000100
00000000
00000001
00000000
00000000
00000000
,
00002030
00000000
00013000
00202000
00303000
00202000
00303000
10010000
,
01000000
00000000
00000000
00001000
00010000
00000100
00010000
00000100
00002000
00000000
00000000
00000000
00003001
00000100
00000010
00000100
,
00000001
00000000
00001000
00000100
00010000
00000000
00000100
00010000
00001000
00000000
00000000
00000000
01000000
00010000
10000000
01000000
,
00100000
00001000
00100000
00001000
00010000
00001000
00010000
00001000
00010000
00000100
00010000
00000100
00001000
00000100
00001000
00000100
,
00000020
00000000
00000000
00000000
00000032
00000000
00000000
00000000
00000103
00000000
00002000
00000000
00003000
00001000
00010000
00000000
,
00000200
00000000
00000000
00000000
00010300
00000000
00001000
01000000
00010000
01000000
00001000
00000000
00100000
00000000
00010000
10000000
,
01000000
00000000
10010000
00000000
10000000
00000000
00010000
01000000
00000000
00000000
01000000
00000000
00001000
00010000
00000010
00010000
,
00001000
00000000
00010000
00000000
00000100
00000000
00000010
00000100
00001000
00000001
00000010
00000000
00000100
00000000
00000100
00010000
,
00002000
00000000
01003000
02200000
03300000
01100000
00000000
20020000
,
30030000
00000000
10000000
01000000
00100000
00000000
00010000
01000000
00001000
01000000
00010000
00000000
00100000
00000000
00001000
00010000
,
00000010
00000000
00000110
00000000
00001000
00000000
00000001
00000010
00000100
00001000
00000001
00000000
00000010
00000000
00000100
00010000
,
00001000
00010000
00000100
00010000
00001000
00010000
00000100
00010000
00001000
01000000
00010000
01000000
00100000
10000000
00010000
00100000
,
02000000
00000000
00000000
00000000
00100000
00000000
00000000
00000000
03100000
00000000
00001000
00010000
00001000
00000000
00000000
00000000
,
00010010
00000000
00000000
00000110
00000000
00000000
00010010
00000000
00000000
00000000
00010000
00001000
00010000
00001000
00010000
00001000
,
01000000
00000000
00100000
00000000
00010000
00001000
00000000
00001000
00010000
00000000
00000100
00000000
00010000
00001000
00000000
00001000
,
01000000
00000000
00000000
00000000
00000000
00000000
00000000
00000000
00000000
01100000
00000000
00000000
00000000
00000000
00000000
00000000
00000000
00000000
10010000
00000000
00000000
00000000
00000000
00000000
00000000
00000000
00000000
00000000
00000000
00000000
10000000
00000000
00000000
00000000
00000000
00000000
01000000
00000000
00000000
00000000
00100000
00000000
00000000
00000000
00001000
00000000
00000000
00000000
,
00010000
00000000
00000010
00000000
00000100
00000010
00000000
00000010
00001000
00000000
00000001
00000000
00000010
00000200
00000000
00000000
,
00010300
00000000
00000000
00000000
00000000
00000000
00000000
00000000
00000000
00101000
00000000
00000000
00000000
00000000
00000000
00000000
00000000
00000000
00011000
00000000
00000000
00000000
00000000
00000000
00000000
00000000
00000000
00101000
00000000
00000000
00000000
00000000
00000000
00000000
00000000
00000000
00000000
00000000
00000000
00000000
00100000
00000000
00000000
00000000
00010000
00000000
00000000
00000000
,
10000000
00100000
00010000
00001000
00000100
00000001
00001000
00000001
00000100
00000010
00010000
00001000
,
00100000
00000000
00000000
00101000
00000000
00000000
10010000
00000000
00000000
01100000
00000000
00000000
00102000
00000000
00000000
00000000
,
00000000
00000000
00000000
00010000
00000000
00000000
00100000
00000000
00010000
00000000
01003000
00000000
,
00001000
00000000
00000000
00000000
00010000
00000000
00000000
00000000
00000100
00000000
00000010
00000000
00000001
00000000
00000000
00000001
00000000
00000000
00001000
00000000
00000000
00000100
00000000
00000000
,
00010000
00002000
00003020
00000230
,
00020300
00000000
00000000
00031000
00000000
02000000
00000000
00000000
03100000
01000000
00000000
00000000
,
00001000
00020000
02030000
03200000
,
00302000
00000000
00000000
00013000
00000000
00000020
00000000
00000000
00000130
00000010
00000000
00000000
,
00010010
00000000
00000000
00000000
00000000
00000000
00020000
00000000
00032000
00000000
00000000
00103000
,
01000000
00000000
00000000
01000000
00000000
00000000
20000000
00000000
30020000
00000000
00000000
00000000
,
01030000
00000000
00000000
00001000
00000000
00000000
00010000
00000000
00000020
00000000
00000000
00000001
,
00000000
00000000
00000100
00000000
00000000
00020030
00000000
00000000
00000000
00032000
00000000
00000000
,
00103000
00000000
00100000
00000000
00010000
00000000
00000000
00000000
10000000
00000000
00000000
10000000
00000000
00000000
10000000
00000000
,
10100000
00000000
01010000
00011000
00000000
00011000
00001010
00000000
,
00000010
00000000
00000010
00000000
00001000
00000000
00000000
00000000
00000001
00000000
00000000
00000001
00000000
00000000
00000001
00000000
,
00000011
00000000
00001100
00011000
00000000
00011000
00110000
00000000
,
20000000
00000000
00000000
00000000
30100000
00000000
00000000
00000000
01000000
00000000
00000000
01000000
00000000
00000000
01001000
00000000
,
00000000
00010100
00000000
00011000
00000000
00000100
00000010
00000001
,
00001001
00000000
00010010
00000000
00101000
00000000
01100000
10010000
,
00000000
00000000
10100000
00000000
00000000
00000000
02010000
00000000
00000000
00000000
03001000
00010000
00001000
00010000
00001000
00010000
,
00000100
00000000
00000010
00000000
00000001
00000000
00001000
00000100
00001000
00000000
00000001
00000000
00000100
00000010
00000100
00000010
,
00001000
00000000
00000010
00010000
00001000
00000000
00100000
00000000
00001000
00010000
00000010
00000000
00010000
00001000
00010000
00001000
,
02000000
00000000
00000000
00000000
03100000
00000000
10000000
00010000
10000000
00000000
00100000
00000000
01000000
00001000
01000000
00001000
,
00010000
00000000
00001000
00010000
00000100
00000000
00000010
00000000
00000001
00000010
00000001
00000000
00001000
00000001
00000100
00000010
,
00001000
00000001
00001000
00000100
00010000
00001000
00010000
00000100
00010000
00001000
01000000
00001000
00010000
00001000
01000000
00010000
,
00000000
10000000
00100000
01000000
00000000
00100000
01000000
00001000
00000000
00010000
00000010
00000100
00000000
00000010
00000100
00000001
,
00001000
00000100
00001000
00000100
00010000
00001000
00010000
00001000
00100000
00010000
00100000
00010000
10000000
00100000
01000000
00001000
,
00010000
00000000
00000000
00000000
00010000
00000000
00000000
00001000
00010000
00000000
00000010
00000000
00000100
00000010
00000100
00000010
,
00001000
00000001
00000010
00000100
00000000
00000010
00000000
00001000
00000000
00010000
00001000
00010000
00000100
00001000
00000001
00000100
,
00000001
00001000
00000010
00000100
00000000
00001000
00010000
00001000
01000000
00010000
00000000
00100000
00000000
00100000
01000000
10000000
,
00020000
00000000
00000000
00000000
01030000
00001000
01000000
00001000
00010000
00000000
00000010
00000000
00000100
00000000
00000010
00000000
,
00010000
00000000
00001000
00000000
00100000
00000000
00010000
00000000
10000000
00000000
10000000
00000000
00010000
00100000
01000000
10000000
,
00010000
10000000
00100000
01000000
00000000
00100000
00000000
00010000
00000000
00001000
00010000
00001000
01000000
00010000
10000000
01000000
,
10000000
00010000
00100000
01000000
00000000
00010000
00001000
00010000
00000100
00001000
00000000
00000010
00000000
00000010
00000001
00000010
,
00000200
00000000
00001300
00000000
00002000
01000000
00000000
00013000
,
00001000
01000000
00100000
10000000
00010000
00000000
01100000
00000000
,
00002000
00010000
02003000
00000000
03001000
00010000
00000100
00000010
,
00001000
00000010
00000001
00002000
00000000
00003100
00010000
00001000
,
01000000
00000000
00100000
00000000
00010000
00100000
00000000
00200000
00000000
00000000
10300000
00000000
00010000
00000000
00100000
00000000
,
01000000
00000000
00010000
00000000
00001000
00010000
00000000
00020000
00000000
00000000
00000000
00000000
00030010
00001000
00000010
00000100
,
00000001
00000000
00000000
00000000
00001100
00000000
00000000
00010100
00000000
00000000
00011000
00000000
00000000
00101000
00000000
00000000
,
00110000
00000000
00010000
10000000
00000000
10000000
00100000
00000000
01000000
00001000
00010000
00001000
01000000
00000000
00000000
00000000
,
00001000
00000000
00010000
00000100
00010000
00000000
00000010
00001000
00000001
00000100
00000010
00001000
00000001
00000010
00000100
00010000
,
00001000
00000000
00101000
00000000
11000000
01000000
10010000
00000000
,
00002000
00010000
00203000
00010000
00302000
00010000
02003000
00010000
,
03002000
00010000
00003100
00000020
00000100
00010030
00002000
00000000
,
00013000
00001000
00200000
00010000
00302000
00010000
02003000
00010000
,
03002000
00010000
00003100
00000020
00000100
00010030
00001000
00001000
,
00020000
00001000
00030020
00001000
00020030
00001000
00030200
00001000
,
00020300
00001000
01030000
00200000
01000000
00310000
20000000
00100000
,
30020000
00100000
20030000
01000000
30010000
00100000
00001000
00101000
,
00000000
00000000
00010100
00000000
00000000
00000000
00001001
00000000
00000001
00000000
00000100
00000010
00001000
00000001
00000010
00000100
,
00010000
00010100
00000000
01001000
01000000
10010000
00000000
01001000
,
00010000
00000000
00011000
00000000
00000000
00000000
00010100
00000000
00000100
00000000
00001000
00000000
00000001
00000100
00000001
00000100
,
00000010
00010010
00000000
00101000
00100000
10010000
00000000
00101000
,
00010000
00000000
00011000
00000000
00000000
00000000
00010010
00000000
00001000
00000010
00000000
00001000
00000010
00001000
00000001
00000100
,
00000010
00010010
00011000
01001000
,
01100000
00000000
00000000
00000000
10010000
00000000
00000000
11000000
00000000
00000000
10010000
00000000
00000000
01010000
00000000
00000000
,
10010000
00000000
00000000
00101000
00000000
00000000
00011000
00000000
00020000
00000000
00030020
00000000
00002030
00000000
00003002
00000000
,
00000013
00000000
00000000
00000000
00001000
00000000
00000000
00000000
00010000
00000000
00000000
00000000
01000000
00000000
00000000
00000000
10000000
00000000
00000000
00000000
00010000
00000000
00000000
00000000
10000000
00000000
00000000
01000000
00000000
00000000
00100000
00000000
00000000
00010000
00000000
00000000
01000000
00000000
00000000
00100000
00000000
00000000
10000000
00000000
00000000
00010000
00000000
00000000
,
00000000
00101000
00000000
00000000
;
