#VERSION:0.83;
#TITLE:SUPER FURY;
#ARTIST:REDALiCE;
#BANNER:SUPER FURY.png;
#BACKGROUND:SUPER FURY-bg.png;
#JACKET:SUPER FURY-jacket.png;
#MUSIC:SUPER FURY.ogg;
#SAMPLESTART:40.696;
#SAMPLELENGTH:15;
#DISPLAYBPM:115:230;
#BPMS:0=230,43=460,44=230,149=115,150.5=230,331=115,357=230,406=115,419=460,421=230;
#STOPS:43=0.130,144=0.783,150.5=0.130,357=0.196,357.25=0.196,357.5=0.196,357.75=0.196,412.5=0.522,419=0.391,420=0.391;
#TIMESIGNATURES:0=4=4,144=1=4,145=4=4,149=2=4,151=4=4,355=3=4,358=4=4,410=3=4,413=4=4;

//---------------dance-single - Marten-bSP----------------
#NOTEDATA:;
#CHARTNAME:Marten-bSP;
#STEPSTYPE:dance-single;
#DESCRIPTION:Marten-bSP;
#DIFFICULTY:Beginner;
#METER:6;
#RADARVALUES:0.246878,0.454449,0.252022,0.360031,0,240,205,35,50,0,0,0,0,0,0.246878,0.454449,0.252022,0.360031,0,240,205,35,50,0,0,0,0,0;
#CREDIT:Marten;
#NOTES:
0000
0000
0000
0000
,
0000
0000
0000
0000
,
0000
0000
0000
0000
,
0000
0000
0000
0000
,
0000
0000
0000
0000
,
1000
0000
1000
0000
,
1000
0000
0000
0000
,
0001
0000
0001
0000
,
0001
0000
0000
0000
,
0100
0000
0100
0000
,
0010
0010
0010
0000
,
1000
0000
0100
0000
,
0001
0000
0100
0000
,
1000
0000
0000
0000
,
0001
0001
0001
0000
,
1000
0000
0010
0000
,
0100
0000
0001
0000
,
0010
0000
0100
0000
,
0010
0000
1001
0000
,
0001
0000
0100
0000
,
1000
0000
0100
0000
,
0001
0000
0000
0000
,
1000
1000
1000
0000
,
0001
0000
0010
0000
,
0100
0000
1000
0000
,
0010
0000
0100
0000
,
0010
0000
1001
0000
,
2000
0000
0100
0000
,
3100
0000
0000
0000
,
0002
0000
0100
0000
,
0000
0100
0103
0000
,
2000
0000
0010
0000
,
3010
0000
0000
0000
,
0002
0000
0010
0000
,
0000
0010
0013
0000
,
1000
0000
0010
0000
,
1001
0001
0000
0010
,
0000
0000
2002
0000
0000
3003
1000
0000
,
0000
0100
0000
0010
,
0000
0001
0000
1000
,
1000
1000
0000
0001
,
0001
0001
0000
0100
,
0000
1001
0000
0010
,
0000
1001
0000
0110
,
0000
1001
0000
0220
,
0000
0330
0000
2000
,
3000
0002
0003
0000
,
0010
0010
0000
0001
,
0000
0100
0000
0020
,
0000
0030
0000
1000
,
0000
0110
0000
0001
,
0000
0110
0000
1001
,
0000
0110
0000
2002
,
0000
3003
0000
1000
,
1000
0000
0001
0001
,
0000
0100
0000
0200
,
0000
0000
0000
0000
,
0000
0300
0000
0001
,
0001
0000
1000
1000
,
0000
0010
0000
2000
,
0000
0000
3000
0002
,
0000
0000
0003
1000
,
0000
0100
0000
0001
,
0000
0010
0000
1000
,
0000
0001
0000
0100
,
0100
0100
0000
0110
,
0000
1001
0000
0002
,
0000
0013
0000
2000
,
0000
3010
0000
0002
,
0000
2003
0000
3001
,
0000
1001
0000
2000
,
0000
3010
0000
0002
,
0000
0013
0000
0200
,
0000
0000
0300
2002
,
0000
3003
0000
0010
,
0000
0000
0010
0010
,
0000
0100
0000
0002
,
0000
2003
0000
3001
,
0000
0000
0000
1000
,
0000
0010
0000
0001
,
0000
0010
0000
2000
,
0000
0000
3000
0002
,
0000
0000
0003
0020
,
0000
0000
0000
0000
,
0000
0000
0000
0000
,
0000
0000
0030
0001
,
0001
0000
1000
0000
1000
0000
0010
0010
,
0010
0000
0000
0100
0110
0000
2000
0000
,
0000
3002
0000
0203
,
0000
0000
0310
0000
,
1001
0000
0100
0000
,
1001
0000
0110
0000
,
1001
0000
0220
0000
,
0330
0000
0002
0003
,
2000
3000
0000
0010
,
0010
0000
1000
0000
,
0100
0000
0020
0000
,
0030
0000
0001
0000
,
0110
0000
1000
0000
,
0110
0000
1001
0000
,
0110
0000
2002
0000
,
0000
0000
3003
0000
0002
0000
0003
2000
,
0000
3000
2002
0000
3003
0000
0000
0000
,
0000
0000
2000
0000
3000
0002
0000
0003
,
2002
3003
0000
0000
,
0000
0001
0000
0100
,
0000
1000
0000
0100
,
0000
0001
0000
0010
,
0000
1000
0000
0010
,
0000
0001
0001
0001
,
0000
1000
1000
1000
,
0000
0010
0000
0100
,
0000
1001
0000
0000
,
0000
0110
0000
1001
,
0000
0220
0000
0330
;

//---------------dance-single - Marten-BSP----------------
#NOTEDATA:;
#CHARTNAME:Marten-BSP;
#STEPSTYPE:dance-single;
#DESCRIPTION:Marten-BSP;
#DIFFICULTY:Easy;
#METER:10;
#RADARVALUES:0.400149,0.661017,0.345630,0.604852,0,389,341,48,84,0,0,0,0,0,0.400149,0.661017,0.345630,0.604852,0,389,341,48,84,0,0,0,0,0;
#CREDIT:Marten;
#NOTES:
0000
0000
0000
0000
,
0000
0000
0000
0000
,
0000
0000
0000
0000
,
0000
0000
0000
0000
,
0000
0000
0000
0000
,
1000
0000
0001
0000
0010
0000
0000
0110
,
0000
0000
0100
0010
,
0001
0000
1000
0000
0010
0000
0000
0110
,
0000
0000
0010
1000
,
1001
0000
1001
0000
0001
0000
1000
0001
,
0000
0001
1000
0000
1001
0000
0000
0000
,
2000
3002
0023
0032
,
0203
0320
2030
3002
,
1003
0001
0011
0000
,
0002
0100
0100
0103
,
0010
1000
0100
0000
,
0010
0001
0100
0000
,
0001
0000
0000
0010
0000
0010
0000
0100
,
0000
0100
0000
1000
0001
0000
0000
0000
,
0002
2003
3020
2030
,
3200
0320
0032
2003
,
3001
0000
1000
0100
,
0010
0110
1001
0110
,
0100
0000
1000
0000
0010
0000
0000
1010
,
0000
0010
1000
0001
,
0010
0000
0010
0000
0110
0000
0000
1100
,
0000
0101
0000
0000
1001
0000
0000
0000
,
0002
0000
0010
0000
0010
0000
0000
0010
,
0000
0000
0010
0010
,
0100
0000
0100
0000
0100
0000
0000
0103
,
0000
0110
0110
0000
,
2000
0000
0010
0000
0010
0000
0000
0010
,
0000
0000
0010
0010
,
0100
0000
0100
0000
0100
0000
0000
3100
,
0000
0110
0110
0000
,
0001
0000
0000
1000
0000
0000
0010
0000
,
0110
0000
1000
0000
0000
0001
0000
0000
,
0010
0000
0220
0000
0000
0330
0100
0000
,
0100
1000
1000
0001
,
0100
0001
0000
0100
,
0010
1000
0010
0100
,
0001
1000
0000
0001
,
0020
0000
0031
1000
,
0020
0000
1030
0100
,
0000
0010
0000
0220
,
0000
0330
0000
0020
,
0032
2003
3002
0003
,
0100
0100
0010
1000
,
0001
0010
0001
1000
,
0100
1000
0000
0001
,
0200
0000
0301
1000
,
0200
0000
1300
0001
,
0001
0000
1000
0000
1000
0000
0000
0110
,
0000
1001
0000
1000
,
1000
0000
0001
0001
,
0000
0010
0000
0001
,
0100
1000
0100
0001
,
0000
1001
0000
0001
,
0001
0000
1000
1000
,
0000
0010
0000
0000
,
1000
0100
0100
0010
,
0001
1000
0000
0010
,
0010
1000
1000
0001
,
0010
0100
1000
0001
,
0010
1000
0010
0001
,
0001
1000
1000
0020
,
0030
2002
3003
2000
,
0000
3200
0000
0301
,
0100
1000
0000
0002
,
2003
3002
2003
3002
,
2003
3000
0000
0002
,
0000
0203
0000
1300
,
0100
0001
0000
0010
,
0000
0100
0000
0220
,
0000
0330
0000
1000
,
1000
0000
0001
0100
,
0000
0100
0000
0002
,
2003
3002
2003
3002
,
2003
3000
0000
1010
,
0000
0011
0000
1100
,
0000
0101
0000
0110
,
0000
0010
1000
0100
,
0010
0001
0000
2000
,
0000
0000
0000
0000
,
0000
0000
0000
0000
,
0000
0000
0000
0000
3000
0000
0001
0100
,
0001
0000
1000
0100
1000
0000
0010
0010
,
0010
0010
0010
0110
0110
0000
0020
0000
,
2030
0000
3002
0000
0023
0000
0130
0100
,
0100
2000
3001
0200
,
0000
0301
1000
0200
,
0000
1300
0010
0000
,
0100
0000
0220
0000
,
0330
0000
0020
2030
,
3002
2003
3000
0100
,
0100
0010
0001
1000
,
0010
1000
0001
0010
,
0020
0030
0001
0020
,
0000
0031
1000
0020
,
0000
1030
0001
0001
,
1000
0000
1000
0000
0000
0110
0000
0000
,
1001
0000
0000
0000
2200
0000
3300
0202
,
0000
0303
0220
0000
0330
0000
0000
0000
,
0000
0000
0000
0000
0020
0030
0000
0000
2020
0000
0000
0000
0000
0000
0000
0000
3030
0000
0000
0000
0022
0000
0000
0000
0000
0000
0000
0000
0033
0000
0000
0000
,
2002
0000
0000
0000
0000
0000
0000
0000
3003
0000
0000
0000
0000
0000
0000
0000
0000
0000
0000
0000
0000
0000
0000
0000
2000
3000
0000
0000
0000
0000
0000
0000
,
0002
0003
0000
0000
0000
0000
0000
0000
1000
0000
0000
0000
0000
0000
0000
0000
0010
0000
0000
0000
0000
0000
0000
0000
1000
0000
0000
0000
0000
0000
0000
0000
,
1000
0001
0010
0001
,
0001
1000
0001
1000
,
0001
0100
0010
0110
,
0000
0010
1000
0100
,
0100
0010
0001
0100
,
0100
0001
0010
0100
,
1000
0001
1000
1001
,
0000
1001
0110
1001
,
0001
1000
0000
1000
0001
0000
1001
0000
;

//---------------dance-single - Marten-DSP----------------
#NOTEDATA:;
#CHARTNAME:Marten-DSP;
#STEPSTYPE:dance-single;
#DESCRIPTION:Marten-DSP;
#DIFFICULTY:Medium;
#METER:14;
#RADARVALUES:0.688173,0.950211,0.511244,0.676858,0.216018,669,598,71,94,0,0,0,0,0,0.688173,0.950211,0.511244,0.676858,0.216018,669,598,71,94,0,0,0,0,0;
#CREDIT:Marten;
#NOTES:
0000
0000
0000
0000
,
0000
0000
0000
0000
,
0000
0000
0000
0000
,
0000
0000
0000
0000
,
0000
0000
0000
0000
,
0002
0000
0103
0000
0010
1000
0100
1000
,
0000
1000
0001
0000
0010
0000
0100
0000
,
2000
0000
3100
0000
0010
0001
0100
0001
,
0000
0001
1000
0000
0010
0000
0100
0000
,
0110
0000
0110
0000
0100
0010
0100
0010
,
0000
0000
0000
0000
0010
0000
0000
0000
0010
0000
0000
0000
0000
0000
0000
0000
0100
0000
0000
0000
0001
0000
0000
0000
0020
0030
0000
0000
0000
0000
0000
0000
,
0021
0032
0203
2300
,
3200
0000
0320
0000
1030
0100
0010
0100
,
1000
0010
0100
0000
0110
0000
0010
1000
,
0002
0000
0013
0100
1000
0100
1000
0100
,
1100
0000
0101
0000
0120
0000
1030
0010
,
0001
0010
1000
0000
1001
0000
0110
0000
,
0010
1000
0000
0100
0010
0001
0000
0100
,
0000
0100
0000
0100
0010
0000
1001
0000
,
1020
2030
3200
0302
,
0203
0000
0320
0000
0031
0100
0010
0100
,
0001
0010
0100
0000
1000
0100
0001
0100
,
1000
1010
0011
1001
,
0001
0100
1000
0000
0001
0010
1000
0001
,
0000
0001
0010
0000
0110
0000
1001
0000
,
1100
0100
0000
0010
0001
0100
0000
0110
,
0000
0110
0000
0100
1001
0000
0000
0000
,
1020
0000
1000
0000
1000
0000
0000
1000
,
0000
0000
1000
1000
,
0001
0000
0001
0000
0001
0000
0000
0031
,
0000
0110
1001
0000
,
0021
0000
0001
0000
0001
0000
0000
0001
,
0000
0000
0001
0001
,
1000
0000
1000
0000
1000
0000
0000
1030
,
0000
0110
1001
0000
,
0011
0000
0000
0001
0000
0000
0101
0000
0000
0100
0000
0000
0010
0000
1000
0000
,
1001
0000
0000
0000
1010
0000
0000
1000
0000
0000
1100
0000
0000
0100
0000
0000
,
0010
0001
2000
0000
0000
3001
2000
0000
,
3020
0230
0302
0023
,
0230
0000
2300
0000
3002
0000
1003
0100
,
0010
0000
0001
0100
0010
1000
0100
1000
,
0002
0000
1003
0000
0100
0001
0100
1000
,
0001
2000
0000
3001
0100
1000
0100
0001
,
1000
0002
0000
1003
0100
0010
0001
0000
,
0100
0020
0000
0030
1000
0200
0010
0000
,
0001
1300
0000
0200
,
2300
3002
0203
0300
,
1010
0000
1001
0000
0011
0000
0001
0010
,
1000
0010
0001
0000
1000
0010
0000
1000
,
0200
0000
0310
0000
0001
1000
0001
0010
,
1000
0010
0100
1000
0001
0000
1000
0010
,
0001
0010
0100
0001
1000
0000
1000
1000
,
0001
0001
1000
0010
0001
0010
0000
0110
,
0000
0100
0110
0000
1001
0000
1010
0000
,
1010
0100
0011
0011
,
0001
1000
0200
0000
0300
0000
1000
0100
,
1000
0100
0010
0001
0010
0001
0100
1000
,
0200
0302
0013
0101
,
0101
0010
1100
1100
,
1000
0001
0020
0000
0030
0000
0100
1000
,
0001
1000
0001
0000
0100
0000
0010
1000
,
0100
0010
0001
0100
0020
0000
1030
0000
,
1000
0000
0001
0000
0001
0000
0010
0001
,
0010
0000
0000
0001
0000
0000
1000
0000
0000
0010
0000
0000
1000
0000
0000
0010
0000
0000
0100
0000
0001
0000
0100
0000
,
0001
0000
0000
1000
0001
1000
0001
0000
0000
0020
0000
0000
,
0032
0000
1003
0010
1000
0010
0200
0000
,
0300
2002
3003
0001
,
1000
0000
1000
0010
0000
0000
0100
0000
0000
0001
0000
0001
,
1000
0100
1000
0100
0000
0000
0010
0000
0000
0002
0000
0000
,
2003
3002
2003
3002
,
2003
0000
0000
3010
0000
0010
0100
0000
0100
0001
0000
0000
,
1000
0000
1000
0100
0000
0010
0000
0000
0011
0000
0000
0001
,
0100
0000
0010
0100
0000
0000
0010
0000
0000
1000
0000
1000
,
0100
0000
0000
0010
0000
0010
0001
0000
0001
0200
0000
0000
,
0000
0000
0000
0310
0000
0000
0000
0000
0000
1000
0000
0001
,
1000
0000
0001
0000
0000
0001
0010
0000
0100
1000
0000
0010
,
0100
0000
0100
0001
0000
0000
0010
0000
0010
0002
0000
0000
,
2003
3002
2003
3002
,
2003
0000
0000
3100
0000
0010
0001
0000
0000
0100
0000
0100
,
0000
0100
0000
0010
0000
0010
0000
0010
0000
1000
0000
1000
,
0000
1000
0000
0001
0000
0001
0000
0001
0000
1000
0000
0100
,
0010
0000
0001
0100
0000
0010
0100
0000
0001
0010
0000
1000
,
0010
0000
0001
1000
0000
0010
0100
0000
0000
0002
0000
0000
,
0000
0000
0000
0000
,
0000
0000
0000
0000
,
0000
0000
0000
0000
0003
0000
1000
0100
,
0001
0000
0100
0000
1000
0000
0010
0000
0001
0000
0010
0000
1000
0001
1000
0001
,
1000
0001
1000
0001
1000
0000
1001
0000
1001
0000
0010
0000
2000
0000
3200
0000
,
0320
0000
0032
0000
0003
0000
0200
0000
0302
0000
2003
0000
3010
0100
1000
0100
,
0001
0000
1000
0100
2000
3020
0230
0302
0013
0000
1000
0000
0010
0000
0002
0000
,
0000
1003
0001
1000
0010
0001
0010
2000
,
0000
3001
0010
0100
2000
0000
3100
0002
,
0000
0003
0100
1000
0020
0000
0100
0000
,
0001
1030
0002
0023
,
0230
2300
3000
1100
,
0101
0000
0110
0000
0010
1000
0100
0010
,
0001
0000
0100
0100
0000
0010
0020
0000
,
0130
0000
0001
1000
0010
1000
0100
0001
,
0100
1000
0001
0000
0010
0001
0100
1000
,
0100
0001
1000
0000
0001
0001
1000
1000
,
0010
0100
0001
0010
0000
0110
0000
0100
,
1001
0000
0000
0000
0021
0100
0031
0201
,
0010
0000
0301
0000
0100
0010
0001
0010
1000
0002
0000
0000
0000
0000
0000
0000
,
0003
0000
0000
0000
2000
3000
0000
0000
1020
0000
0000
0000
0100
0000
0000
0000
1030
0000
0000
0000
1200
0000
0000
0000
0010
0000
0000
0000
1300
0000
0000
0000
,
0100
0000
0010
0000
1000
0000
0010
0000
0001
0000
2000
0000
0000
0000
0000
0000
0000
0000
0000
0000
3000
0000
0000
0000
2002
3003
0000
0000
0000
0000
0000
0000
,
0220
0330
0000
0000
0000
0000
0000
0000
0001
0000
0000
0000
0010
0000
0000
0000
0001
0000
0000
0000
1000
0000
0000
0000
0100
0000
0000
0000
1000
0000
0000
0000
,
0010
0100
0001
0100
0010
1000
0100
0010
,
0001
1000
0100
1000
0001
0100
1000
0100
,
0001
1000
0100
0001
0100
1000
0001
0010
,
0100
0000
1100
0000
0011
0000
0001
0100
,
0010
1000
0010
0100
0100
0000
0110
0000
,
1010
0000
0101
0100
0000
0010
1000
0100
,
0010
0110
0000
0100
0000
0100
1001
0000
,
0000
0000
0011
0000
1100
0000
1000
0010
,
0001
0010
0000
0100
0110
0000
0110
0000
;

//---------------dance-single - Marten-ESP----------------
#NOTEDATA:;
#CHARTNAME:Marten-ESP;
#STEPSTYPE:dance-single;
#DESCRIPTION:Marten-ESP;
#DIFFICULTY:Hard;
#METER:17;
#RADARVALUES:0.817784,1.569914,0.561648,0.619253,0.522045,795,717,78,86,0,0,0,0,0,0.817784,1.569914,0.561648,0.619253,0.522045,795,717,78,86,0,0,0,0,0;
#CREDIT:Marten;
#NOTES:
0000
0000
0000
0000
,
0000
0000
0000
0000
,
0000
0000
0000
0000
,
0000
0000
0000
0000
,
0000
0000
0000
0000
,
0011
0000
0110
0000
0100
1000
0010
0100
,
0000
0100
0100
0000
0010
0000
1000
0000
,
1010
0000
0101
0000
0100
0001
0010
0100
,
0000
0100
0100
0000
0010
0000
0001
0000
,
1001
0000
0000
0000
1001
0000
0000
0000
0001
0000
0010
0000
0100
1000
0010
0000
,
0000
0000
0000
0000
0100
0000
0000
0000
0110
0000
0000
0000
0000
0000
0000
0000
0110
0000
0000
0000
0100
0000
0001
0000
0020
0030
0000
0000
0000
0000
0000
0000
,
0001
0010
0100
1000
0001
0100
1000
0100
,
0010
1000
0001
1000
0100
0001
0100
1000
,
0001
0000
0010
0000
0100
0000
0000
0000
1100
0000
0000
0000
1000
0000
0001
0010
,
0002
0000
0103
1000
0100
0001
0100
0010
,
1020
0000
2030
0000
3200
0000
0310
1000
,
0010
0001
0010
0100
0020
0000
0032
0000
,
0103
0000
0001
0000
1000
0000
0100
1000
0100
0000
0010
0000
0001
0000
0101
0000
,
0000
1100
0000
0100
0110
0000
0010
0001
,
1000
0010
0100
0001
1000
0100
0001
0100
,
0010
0001
1000
0001
0100
1000
0100
0001
,
1000
0000
0010
0000
0100
0000
0000
0000
0101
0000
0000
0000
0001
0000
1000
0010
,
1000
1200
0320
0031
,
0011
0000
0101
0000
0110
0010
1000
0001
,
0000
0000
0010
0000
0010
0000
0000
0000
0110
0000
0000
0000
0100
0000
1000
0001
,
0100
0000
0010
0000
0100
0000
0001
0010
0001
0010
0100
0000
1000
0000
1200
0000
,
0000
0001
0000
1300
1100
0000
1001
0000
,
0021
0000
0001
0000
0002
0000
0003
0001
,
0000
0000
0001
0001
,
1000
0000
1000
0000
2000
0000
3000
1030
,
0000
0110
1001
0000
,
1020
0000
1000
0000
2000
0000
3000
1000
,
0000
0000
1000
1000
,
0001
0000
0001
0000
0002
0000
0003
0031
,
0000
0110
1001
0000
,
1010
0000
0000
1100
0000
0000
0101
0000
0000
0011
0000
0000
0001
0000
1000
0000
,
1001
0000
0000
0000
0011
0000
0000
0101
0000
0000
1100
0000
0000
1010
0000
0000
,
1000
0001
2001
0000
0000
3010
1020
0000
,
2030
3200
0302
0203
,
0320
0000
0000
0000
0032
0000
0000
0000
2003
0000
0000
0000
3010
0000
1000
0001
,
0010
0100
1000
0100
0001
0200
0000
0310
,
0002
0000
0000
0000
0003
0000
0000
0000
0001
0100
0010
1000
0010
0000
1000
0000
,
0100
0000
0020
0000
0000
0000
0031
0000
1000
0000
0100
1000
0001
0000
1000
0000
,
0100
0000
0020
0000
0000
0000
0130
0000
1000
0000
0010
1000
0001
0000
0100
0000
,
0001
0000
0020
0000
0000
0000
0000
0000
0130
0000
1000
0000
0001
0100
0001
0000
,
1000
0100
1000
0000
0010
0100
0010
0100
0010
0000
0000
0000
0020
0000
0000
0000
,
2030
0000
3002
0000
0013
0110
0000
0100
,
0020
0000
0000
0000
0032
0000
0000
0000
2003
0000
0000
0000
3100
0010
0001
0010
,
0100
0000
2000
0000
3010
0100
0000
0001
,
2000
0000
0000
0000
3000
0000
0000
0000
1000
0100
0010
0001
0010
0000
0001
0000
,
0100
0000
0001
0000
0010
0000
0001
0000
0100
0000
0010
1000
0010
0000
1000
0000
,
0100
0000
1000
0000
0010
0000
1000
0000
0100
0000
0010
0001
1000
0000
1000
0000
,
0010
0010
0001
0010
1000
0001
0000
0011
,
0000
1100
1001
0000
0000
0000
0011
0000
,
1010
1000
1100
0101
,
0001
0000
1000
0001
0200
0000
0000
0000
0310
0000
0000
0000
1000
0000
0010
0000
,
1000
0000
0010
0000
0001
0000
0010
0000
0001
0000
0010
0000
1000
0100
0010
0000
,
0002
2003
3010
1010
,
0011
0001
0101
1100
,
1000
0000
0001
1000
0020
0000
0000
0000
0030
0000
0000
0000
1000
0000
0100
0000
,
1000
0000
0100
0000
0010
0000
0000
0000
0001
0000
0000
0000
0100
0010
0100
0000
,
0001
0010
1000
0010
0001
0000
1000
0000
,
0010
0000
0001
0000
0100
0000
1000
0100
,
1000
0000
0000
0100
0000
0000
0010
0000
0000
0001
0000
0000
0010
0000
0000
0001
0000
0000
0100
0000
0001
0000
0100
0000
,
0010
0100
1000
0100
0001
0100
0010
1000
0001
1000
0000
0000
,
1000
0000
0000
0000
1000
0000
0100
0010
0001
0000
0100
0000
0020
0000
0000
0000
,
0030
0000
0000
0200
0000
0000
0300
0000
0000
0001
0000
1000
,
0010
0000
1000
0100
0000
0010
0000
0000
0001
0000
0000
0100
,
0001
0100
0001
0010
0000
0000
0100
0000
1000
0002
0000
0000
,
2003
0000
0000
3002
0000
0000
2003
0000
0000
3010
0000
0010
,
1000
0000
1000
0001
0000
0001
0010
0000
0000
0100
0000
1000
,
0100
0000
0010
0100
0000
1000
0000
0000
1010
0000
0000
0010
,
1000
0010
1000
0001
0000
0000
0100
0000
0100
0010
0000
1000
,
0100
0000
0000
0010
0000
0001
0010
0000
0100
2000
0000
0000
,
0000
0000
0000
3100
0000
0000
0000
0000
0000
0010
0000
0001
,
1000
0000
0010
0000
0000
0010
0100
0000
0010
1000
0001
1000
,
0100
0010
0001
1000
0000
0000
0010
0000
1000
0002
0000
0000
,
2003
0000
0000
3002
0000
0000
2003
0000
0000
3100
0000
0100
,
1000
0000
1000
0001
0000
0001
0100
0000
0000
0100
0000
0001
,
0000
0011
0000
0100
0000
1000
0000
1010
0000
0100
0000
0001
,
0010
0001
0010
0001
0000
0101
0000
1100
0000
1000
0000
1000
,
0010
0000
0010
0100
0000
0100
0001
0000
1000
0100
0000
0010
,
0001
0010
0100
1000
0010
1000
0001
0010
0100
2000
0000
0000
,
0000
0000
0000
0000
,
0000
0000
0000
0000
,
0000
0000
0000
0000
0000
0000
0000
0000
3000
0000
0000
0000
1000
0100
1000
0100
,
0010
0000
0001
0000
0010
0000
0001
0000
1000
0000
0010
0000
1000
0000
0010
0000
0100
0000
0001
0000
0100
0000
0001
0000
1000
0001
1000
0001
1000
0001
1000
0001
,
1000
0001
1000
0001
1000
0001
1000
0001
1000
0000
0000
0000
0001
0000
0000
0000
1000
0000
0000
0000
1001
0000
0000
0000
0002
0000
0000
0000
0203
0000
0000
0000
,
0320
0000
2030
0000
3000
0000
0002
0000
2003
0000
3020
0000
1030
0100
0001
0000
,
0100
0000
1000
0001
2000
3200
0320
0032
1003
0000
0010
0000
0001
0000
0020
0000
,
0000
0000
0130
0000
0001
0000
1000
0001
0100
0000
0010
0000
0001
0000
0020
0000
,
0000
0000
1030
0000
0001
0000
0100
0001
1000
0000
0100
0000
0010
0000
0002
0000
,
0000
0000
0103
0000
0010
0000
1000
0000
0001
0010
0001
0000
1000
0010
1000
0000
,
0100
0010
0100
0010
0100
0000
0000
0000
1200
0000
0000
0000
0320
0000
0000
0000
,
0032
0000
1003
0010
0000
0010
0120
0000
,
2030
0000
0000
0000
3002
0000
0000
0000
1003
0100
0010
0001
0010
0000
0000
0000
,
0011
0000
0001
0100
0000
0010
1020
0000
,
0030
0000
0000
0000
0010
1000
0010
0100
0001
0000
0010
0000
0001
0000
0100
0000
,
0001
0000
0010
0000
0001
0000
0100
0010
1000
0000
0100
0000
1000
0000
0010
0000
,
1000
0000
0100
0000
1000
0000
0100
0010
0001
0000
0001
0000
0010
0000
0010
0000
,
1000
0010
0001
1000
0000
1010
0000
0101
,
1001
0000
0000
0000
2010
0100
3001
0012
,
0100
0000
1003
0000
1000
0100
0001
0100
1000
0020
0000
0000
0000
0000
0000
0000
,
0030
0000
0000
0000
0200
0300
0000
0000
0102
0000
0000
0000
0010
0000
0000
0000
1003
0000
0000
0000
2100
0000
0000
0000
0010
0000
0000
0000
3001
0000
0000
0000
,
0001
0000
0100
0000
1000
0000
0100
0000
0001
0000
0020
0000
0000
0000
0000
0000
0000
0000
0000
0000
0030
0000
0000
0000
0220
0330
0000
0000
0000
0000
0000
0000
,
2002
3003
0000
0000
0000
0000
0000
0000
0001
0000
0000
0000
0100
0000
0000
0000
0010
0000
0000
0000
0001
0000
0000
0000
0010
0000
0000
0000
1000
0000
0000
0000
,
0100
0000
0010
0000
1000
0000
0010
0000
0001
0000
1000
0000
0010
0000
0100
0010
,
0100
0010
0001
1000
0100
0001
1000
0100
,
0001
0000
1000
0000
0010
0000
0001
0010
0001
0000
1000
0010
1000
0000
0010
0100
,
0010
0000
1010
1000
0100
0000
0010
0001
,
0010
0000
0100
1000
0001
0000
0100
0000
0100
0000
0000
0000
0010
0000
0100
0001
,
1000
0000
0100
0000
0010
0001
0100
0000
0010
0000
1000
0000
0010
1000
0100
0000
,
0010
0011
0000
1010
0000
0010
0110
0000
,
0000
0000
0101
0000
1100
0000
1000
0001
,
0100
0001
0010
0000
0000
0000
0010
0000
0110
0000
0000
0000
0110
0000
0000
0000
;

//---------------dance-double - NewbStepper-EDP----------------
#NOTEDATA:;
#CHARTNAME:NewbStepper-EDP;
#STEPSTYPE:dance-double;
#DESCRIPTION:NewbStepper-EDP;
#DIFFICULTY:Hard;
#METER:17;
#RADARVALUES:0.793096,1.239406,0.496843,0.684059,0.475241,771,702,69,95,0,0,0,0,0,0.793096,1.239406,0.496843,0.684059,0.475241,771,702,69,95,0,0,0,0,0;
#CREDIT:NewbStepper;
#NOTES:
00000000
00000000
00000000
00000000
,
00000000
00000000
00000000
00000000
,
00000000
00000000
00000000
00000000
,
00000000
00000000
00000000
00000000
,
00000000
00000000
00000000
00000000
,
00001100
00000000
00000110
00000000
00000001
00001000
00000010
00000100
,
00000000
00000100
00000100
00000000
00001000
00000000
00010000
00000000
,
01010000
00000000
01100000
00000000
10000000
00010000
00100000
01000000
,
00000000
01000000
01000000
00000000
00010000
00000000
00001000
00000000
,
00011000
00000000
00000000
00000000
00011000
00000000
00000000
00000000
00010000
00000000
00001000
00000000
00000100
00000010
00000100
00000000
,
00000000
00000000
00000000
00000000
00000010
00000000
00000000
00000000
00000110
00000000
00000000
00000000
00000000
00000000
00000000
00000000
00000110
00000000
00000000
00000000
00000001
00000000
00001000
00000000
00000020
00000030
00000000
00000000
00000000
00000000
00000000
00000000
,
00001000
00000001
00000010
00001000
00010000
00000010
00001000
00010000
,
01000000
00100000
00010000
00001000
00010000
01000000
10000000
00010000
,
01000000
00000000
10000000
00000000
01000000
00000000
00000000
00000000
01100000
00000000
00000000
00000000
00010000
00000000
10000000
00100000
,
20000000
00000000
31000000
00010000
01000000
00100000
00001000
00010000
,
00021000
00000000
00032000
00000000
00003200
00000000
00000310
00001000
,
00000001
00000010
00000100
00010000
00002000
00000000
00023000
00000000
,
01030000
10000000
00000000
11000000
00000000
00110000
00000000
01001000
,
00000000
00011000
00000000
00001000
00101000
00000000
00110000
00000000
,
00010000
10000000
00100000
00010000
00001000
00100000
00010000
00001000
,
00000100
00000010
00001000
00010000
00001000
00000100
00000001
00001000
,
00000100
00000000
00000001
00000000
00000100
00000000
00000000
00000000
00000110
00000000
00000000
00000000
00001000
00000000
00000001
00000010
,
00000002
00000000
00000103
00001000
00000100
00000010
00010000
00000000
,
00001000
00100000
00101000
00000000
00110000
00010000
10000000
01000000
,
00000000
00000000
00010000
00000000
00010000
00000000
00000000
00000000
00011000
00000000
00000000
00000000
00001000
00000000
00000010
00000100
,
00000010
00000001
00000100
00001000
00010000
00000010
00001000
00001200
,
00000000
00000010
00000000
00010300
00010100
00000000
00011000
00000000
,
00201000
00000000
00001000
00000000
00002000
00000000
00003000
00001000
,
00000000
00000000
10000000
10000000
,
00010000
00000000
00010000
00000000
00020000
00000000
00030000
00310000
,
00000000
01001000
00011000
00000000
,
00010020
00000000
00010000
00000000
00020000
00000000
00030000
00010000
,
00000000
00000000
00000001
00000001
,
00001000
00000000
00001000
00000000
00002000
00000000
00003000
00001030
,
00000000
00010100
00011000
00000000
,
01010000
00000000
00000000
11000000
00000000
00000000
10100000
00000000
00000000
00110000
00000000
00000000
00001000
00000000
00010000
00000000
,
00011000
00000000
00000000
00000000
00001100
00000000
00000000
00000101
00000000
00000000
00000011
00000000
00000000
00001010
00000000
00000000
,
00001000
00010000
00012000
00000000
00000000
00103000
00120000
00000000
,
20030000
30020000
00230000
02300000
,
03020000
00000000
00000000
00000000
00032000
00000000
00000000
00000000
00003200
00000000
00000000
00000000
00000301
00000000
00001000
00000100
,
00000010
00001000
00010000
00001000
00000100
00002000
00000000
01003000
,
02000000
00000000
00000000
00000000
03100000
00000000
10000000
00000000
01000000
00000000
00010000
00001000
00010000
00000000
00001000
00000000
,
00000010
00000000
00000002
00000000
00000003
00000000
00000001
00000000
00000100
00000000
00001000
00010000
00001000
00000000
00010000
00000000
,
00100000
00000000
20000000
00000000
30000000
00000000
10000000
00000000
01000000
00000000
00100000
01000000
10000000
00000000
00100000
00000000
,
00010000
00000000
00002000
00000000
00000000
00000000
00103000
00000000
00010000
00000000
00001000
00000000
00000100
00001000
00000100
00001000
,
00000001
00000100
00001000
00010000
00000000
00000000
00010200
00000000
,
00002300
00000000
00003002
00000000
00000103
00000110
00000000
00000010
,
00020000
00000000
00000000
00000000
00032000
00000000
00000000
00000000
00023000
00000000
00000000
00000000
00031000
00100000
00001000
00100000
,
00010000
00000000
20000000
00000000
30100000
01000000
00000000
00010000
,
00020000
00000000
00000000
00000000
00030000
00000000
00000000
00000000
10000000
01000000
00100000
00010000
00100000
00000000
00001000
00000000
,
00010000
00000000
00001000
00000000
01000000
00000000
00001000
00000000
00010000
00000000
00001000
00010000
00000010
00000000
00010000
00000000
,
00001000
00000000
00010000
00000000
00000100
00000000
00010000
00000000
00001000
00000000
00000100
00000010
00000100
00000000
00000001
00000000
,
00000010
00001000
00010000
00100000
10000000
11000000
00000000
01010000
,
00000000
01100000
10010000
00000000
00000000
00000000
20000000
00000000
,
32000000
03020000
02030000
03100000
,
00001000
00000000
00010000
00000100
00002000
00000000
00000000
00000000
00003001
00000000
00000000
00000000
00000010
00000000
00000001
00000000
,
00000100
00000000
00001000
00000000
00010000
00000000
01000000
00000000
10000000
00000000
00010000
00000000
00100000
00010000
00100000
00010000
,
00200000
00300000
00000000
00000002
,
00000203
00002300
00003200
00000310
,
00010000
00000000
00001000
01000000
00020000
00000000
00000000
00000000
00030000
00000000
00000000
00000000
10000000
00000000
00000000
00000000
,
00000000
00000000
00000000
00000000
00000000
00000000
00000000
00000000
00000000
00000000
00000000
00000000
00010000
01000000
00100000
01000000
,
00010000
00000000
00100000
00001000
00010000
00000000
00001000
00000010
,
00000001
00000100
00000010
00000100
00000001
00000010
00001000
00010000
,
00100000
00000000
00000000
10000000
00000000
00000000
01000000
00000000
00000000
00100000
00000000
00000000
01000000
00000000
00000000
10000000
00000000
00000000
01000000
00000000
10000000
00000000
00100000
00000000
,
01000000
00010000
00100000
00001000
00010000
00000100
00001000
00000010
00000100
00000001
00000000
00000000
,
00000001
00000000
00000001
00000100
00000010
00010000
00002000
00000000
,
00003000
00000000
00000000
00020000
00000000
00000000
00030000
00000000
00000000
00001000
00000000
00100000
,
00010000
00000000
01000000
00001000
00000000
00010000
00000000
00000000
00100000
00000000
00000000
10000000
,
01000000
10000000
01000000
00100000
00000000
00000000
00010000
00000000
01000000
00002000
00000000
00000000
,
00023000
00032000
00023000
00030010
,
00001000
00000000
00000000
00000001
00000000
00000000
00000010
00000000
00001000
00010000
00000000
00000010
,
00001000
00000000
00000100
00010000
00000000
00001000
00000000
00000000
00000010
00000000
00000000
00000001
,
00000100
00000001
00000100
00000010
00000000
00000000
00001000
00000000
00000100
00010000
00000000
00010000
,
00001000
00000000
00000000
00010000
00000000
00010000
00100000
00000000
00100000
20000000
00000000
00000000
,
00000000
00000000
00000000
30010000
00000000
00000000
00000000
00000000
00000000
10000000
00000000
10000000
,
01000000
00000000
00010000
00000000
00000000
00010000
00001000
00000000
00000010
00000100
00000010
00000001
,
00000100
00000010
00001000
00000001
00000000
00000000
00000100
00000000
00001000
00020000
00000000
00000000
,
00032000
00000000
00000000
00023000
00000000
00000000
00032000
00000000
00000000
00103000
00000000
00100000
,
00010000
00000000
00010000
10000000
00000000
10000000
00100000
00000000
00100000
01000000
00000000
00010000
,
00000000
00110000
00000000
00100000
00000000
00001000
00000000
00011000
00000000
00010000
00000000
00000100
,
00001000
00000100
00001000
00000100
00000000
00000010
00000001
00000010
00000001
00001000
00000010
00000100
,
00000001
00000000
00000001
00000100
00000000
00000100
00001000
00000000
00001000
00010000
00000000
00010000
,
01000000
00000000
01000000
10000000
01000000
00100000
00010000
01000000
00100000
20000000
00000000
00000000
,
00000000
00000000
00000000
00000000
,
00000000
00000000
00000000
00000000
,
00000000
00000000
00000000
00000000
00000000
00000000
00000000
00000000
30000000
00000000
00000000
00000000
10000000
01000000
10000000
01000000
,
00100000
00010000
00100000
00010000
00001000
00000100
00001000
00000100
00000010
00000001
00000010
00000001
00000100
00001000
00010000
00100000
,
10000000
01000000
00010000
00001000
00000010
00000000
00000110
00000000
00000110
00000000
00000000
00000000
00000002
00000000
00000203
00000000
,
00000320
00000000
00000000
00000000
00002030
00000000
00000000
00000000
00003000
00000000
00000000
00000000
00000200
00000000
00000000
00000000
00000320
00000000
00000000
00000000
00000230
00000000
00000000
00000000
00010300
00000000
00001000
00100000
00020000
00000000
00000000
00000000
,
20030000
00000000
31000000
00100000
00020000
20030000
32000000
03020000
00031000
00000000
00010000
00000000
00100000
00000000
20000000
00000000
,
30000000
00000000
10000000
00000000
01000000
00000000
00010000
00001000
00010000
00000000
00001000
00000000
00000010
00000000
00000002
00000000
,
00000003
00000000
00000001
00000000
00000100
00000000
00000010
00000100
00000001
00000000
00000010
00000000
00001000
00000000
00020000
00000000
,
00000000
00000000
00030010
00000000
00001000
00000000
00010000
00000000
01000000
00010000
01000000
00010000
10000000
00000000
01000000
00000000
,
00010000
00001000
00000000
00000000
02001000
00000000
03020000
00000000
,
20030000
00000000
31000000
01100000
00000000
00100000
00002000
00000000
,
00023000
00000000
00000000
00000000
00032000
00000000
00000000
00000000
00013000
00000010
00010000
00000010
00001000
00000000
00000000
00000000
,
00000002
00000000
00000013
00000100
00000000
00001000
00002000
00000000
,
00003000
00000000
00000000
00000000
00000001
00000100
00000010
00001000
00000010
00000000
00010000
00000000
00001000
00000000
00010000
00000000
,
00000100
00000000
00010000
00000000
00001000
00000000
00010000
00001000
00100000
00000000
00001000
00000000
00010000
00000000
00001000
00000000
,
01000000
00000000
00001000
00000000
00010000
00000000
01000000
00100000
01000000
00000000
10000000
00000000
00100000
00000000
00010000
00000000
,
00001000
00000010
00000001
00000101
00000000
00001100
00000000
00000110
,
00001001
00000000
00000000
00000000
00000012
00000100
00001003
00002010
,
00000100
00000000
00003001
00000000
00000010
00001000
00010000
00100000
10000000
02000000
00000000
00000000
00000000
00000000
00000000
00000000
,
03000000
00000000
00000000
00000000
20000000
30000000
00000000
00000000
20100000
00000000
00000000
00000000
01000000
00000000
00000000
00000000
30010000
00000000
00000000
00000000
00120000
00000000
00000000
00000000
01000000
00000000
00000000
00000000
10030000
00000000
00000000
00000000
,
00100000
00000000
00010000
00000000
00001000
00000000
00000010
00000000
00000001
00000000
00000200
00000000
00000000
00000000
00000000
00000000
00000000
00000000
00000000
00000000
00000300
00000000
00000000
00000000
00000220
00000330
00000000
00000000
00000000
00000000
00000000
00000000
,
00002002
00003003
00000000
00000000
00000000
00000000
00000000
00000000
00000001
00000000
00000000
00000000
00000100
00000000
00000000
00000000
00001000
00000000
00000000
00000000
00010000
00000000
00000000
00000000
00000010
00000000
00000000
00000000
00001000
00000000
00000000
00000000
,
00010000
00000000
00100000
00000000
00001000
00000000
00000010
00000000
00000100
00000000
00001000
00000000
00000010
00000000
00010000
00001000
,
00010000
00100000
01000000
00100000
10000000
01000000
00100000
00010000
,
00001000
00000000
00000100
00000000
00000001
00000000
00000100
00001000
00000100
00000000
00010000
00001000
00100000
00000000
00010000
01000000
,
00100000
00000000
10000000
01000000
00010000
00001000
00100000
00010000
,
00001000
00000000
00000010
00000000
00010000
00000000
00100000
00000000
01000000
00000000
00010000
00000000
00100000
00000000
00001000
00010000
,
00001000
00000000
00000010
00000100
00001000
00000000
00000001
00000100
00000010
00000000
00000100
00000001
00001000
00000000
00000100
00010000
,
00001000
00010000
00000000
00011000
00000000
00101000
00110000
00000000
,
00000000
00000000
11000000
00000000
01010000
00000000
00010000
00001000
,
00000100
00000010
00000100
00000000
00000000
00000000
00000010
00000000
00000110
00000000
00000000
00000000
00000110
00000000
00000000
00000000
;

//---------------dance-double - NewbStepper-DDP----------------
#NOTEDATA:;
#CHARTNAME:NewbStepper-DDP;
#STEPSTYPE:dance-double;
#DESCRIPTION:NewbStepper-DDP;
#DIFFICULTY:Medium;
#METER:15;
#RADARVALUES:0.674801,0.908898,0.403235,0.511244,0.208818,656,600,56,71,0,0,0,0,0,0.674801,0.908898,0.403235,0.511244,0.208818,656,600,56,71,0,0,0,0,0;
#CREDIT:NewbStepper;
#NOTES:
// measure 0
00000000
00000000
00000000
00000000
,  // measure 1
00000000
00000000
00000000
00000000
,  // measure 2
00000000
00000000
00000000
00000000
,  // measure 3
00000000
00000000
00000000
00000000
,  // measure 4
00000000
00000000
00000000
00000000
,  // measure 5
00000002
00000000
00000103
00000000
00000010
00001000
00000100
00010000
,  // measure 6
00000000
00010000
00001000
00000000
00100000
00000000
01000000
00000000
,  // measure 7
20000000
00000000
31000000
00000000
00100000
00010000
01000000
00001000
,  // measure 8
00000000
00001000
00010000
00000000
00000010
00000000
00001000
00000000
,  // measure 9
00001001
00000000
00001001
00000000
00000001
00000100
00001000
00010000
,  // measure 10
00000000
00000000
00000000
00000000
00100000
00000000
00000000
00000000
00100000
00000000
00000000
00000000
00000000
00000000
00000000
00000000
01000000
00000000
00000000
00000000
00010000
00000000
00000000
00000000
00200000
00300000
00000000
00000000
00000000
00000000
00000000
00000000
,  // measure 11
00002000
00023000
00230000
20300000
,  // measure 12
30020000
00000000
00230000
00000000
10300000
00100000
00010000
00100000
,  // measure 13
00001000
00010000
00000100
00000000
00000110
00000000
00000010
00001000
,  // measure 14
00020000
00000000
00031000
00000100
00001000
00000100
00000001
00000100
,  // measure 15
00000001
00000010
00001000
00000000
00011000
00000000
01001000
00000000
,  // measure 16
00011000
00010100
00011000
00101000
,  // measure 17
00100000
00010000
00000000
10010000
00000000
10000000
01000000
00010000
,  // measure 18
00000000
00001000
00000000
00000010
00000100
00000000
00010100
00000000
,  // measure 19
00020000
00032000
00003020
00000032
,  // measure 20
00002003
00000000
00003020
00000000
00000031
00000010
00001000
00000010
,  // measure 21
00010000
00001000
01000000
00000000
01100000
00000000
00100000
00010000
,  // measure 22
00002000
00000000
00013000
01000000
00010000
01000000
10000000
01000000
,  // measure 23
10000000
00100000
00010000
00000000
00001000
00000010
00000001
00000100
,  // measure 24
00000000
00000100
00000010
00000000
00000110
00000000
00001001
00000000
,  // measure 25
00000001
00000100
00001000
00010000
01000000
10000000
00000000
10100000
,  // measure 26
00000000
01010000
00000000
00100000
10010000
00000000
00000000
00000000
,  // measure 27
00102000
00000000
00100000
00000000
00100000
00000000
00000000
00100000
,  // measure 28
00000000
00000000
00100000
00100000
,  // measure 29
01000000
00000000
01000000
00000000
01000000
00000000
00000000
01003000
,  // measure 30
00000000
01001000
00011000
00000000
,  // measure 31
00020010
00000000
00000010
00000000
00000010
00000000
00000000
00000010
,  // measure 32
00000000
00000000
00000010
00000010
,  // measure 33
00000100
00000000
00000100
00000000
00000100
00000000
00000000
00030100
,  // measure 34
00000000
00010100
00011000
00000000
,  // measure 35
00001000
00000000
00000000
00001000
00000000
00000000
00000100
00000000
00000000
00000100
00000000
00000000
00000001
00000000
00000010
00000000
,  // measure 36
00002000
00003000
00000000
00000000
00000000
00000000
00000000
00000000
00010000
00000000
00000000
00000000
00000000
00000000
00010000
00000000
00000000
00000000
00000000
00000000
01000000
00000000
00000000
00000000
00000000
00000000
01000000
00000000
00000000
00000000
00000000
00000000
,  // measure 37
10000000
00100000
00020000
00000000
00000000
00031000
00011000
00000000
,  // measure 38
00010100
00000000
00011000
00000000
01001000
00000000
01000000
00100000
,  // measure 39
00010000
00001000
00000010
00000000
00000100
00000000
00001000
00000001
,  // measure 40
00001000
00000000
00000010
00000000
00000100
00001000
00000000
00010000
,  // measure 41
02000000
00000000
13000000
00000000
00100000
00010000
00001000
00100000
,  // measure 42
01000000
20000000
00000000
30010000
10000000
00100000
00010000
00001000
,  // measure 43
00000010
00000002
00000000
00001003
00000001
00000010
00000100
00000000
,  // measure 44
00000010
00002000
00000000
00013000
00100000
02000000
10000000
00000000
,  // measure 45
00100000
00000000
03001000
00010000
00000000
00000000
00011000
00000000
,  // measure 46
01001000
00000000
00011000
00000000
00010100
00000000
00000100
00000010
,  // measure 47
00001000
00010000
00100000
00000000
01000000
00000000
00010000
10000000
,  // measure 48
00010000
00000000
00100000
00000000
01000000
00010000
00000000
00001000
,  // measure 49
00000200
00000000
00000001
00000000
00001000
00000000
00000310
00010000
,  // measure 50
00000100
00000010
00001000
00010000
01000000
00000000
00100000
00001000
,  // measure 51
01000000
00100000
00010000
00001000
00000100
00000000
00000010
00000010
,  // measure 52
00010000
00000000
00011000
00000000
00001000
01000000
00000000
01010000
,  // measure 53
00000000
00100000
10010000
00000000
00000000
00000000
10000000
00000000
,  // measure 54
00010000
00000000
00100000
00000000
00010000
00000000
01000000
00100000
,  // measure 55
00010000
00001000
00000100
00000000
00000001
00000000
00001000
00000001
,  // measure 56
00000100
00001000
00010000
00000010
00001000
00000100
00000010
00001000
,  // measure 57
00020000
00030000
00000000
00000001
,  // measure 58
00001000
00000000
00000010
00000000
00001000
00000000
00000100
00000010
,  // measure 59
00001000
00010000
01000000
00000000
10000000
00000000
00010000
00000000
,  // measure 60
00000000
00000000
00000000
00000000
00000000
00000000
01000000
00100000
,  // measure 61
10000000
00000000
00100000
00010000
00001000
00000000
00000010
00000001
,  // measure 62
00000100
00001000
00010000
00001000
00000010
00000100
00000010
00001000
,  // measure 63
00010000
00100000
01000000
00100000
00010000
00100000
10000000
01000000
,  // measure 64
00100000
00010000
00001000
00000100
00000010
00000001
00002000
00000000
,  // measure 65
00003002
00000000
00000103
00001000
00000100
00001000
00020000
00000000
,  // measure 66
00030000
00000000
00000000
00002000
00000000
00000000
00003000
00000000
00000000
00010000
00000000
00010000
,  // measure 67
00100000
00000000
00100000
10000000
00000000
01000000
00000000
00000000
00010000
00000000
00000000
00001000
,  // measure 68
00010000
00001000
00010000
00000100
00000000
00000000
00000010
00000000
00000000
00000002
00000000
00000000
,  // measure 69
00002003
00003002
00002003
00003002
,  // measure 70
00002003
00000000
00000000
00003010
00000000
00000010
00000100
00000000
00000100
00000001
00000000
00000001
,  // measure 71
00001000
00000000
00001000
00000001
00000000
00000010
00000000
00000000
00001000
00000000
00000000
00010000
,  // measure 72
00001000
00000000
00010000
01000000
00000000
00000000
00100000
00000000
00000000
00010000
00000000
00010000
,  // measure 73
10000000
00000000
00000000
01000000
00000000
01000000
00010000
00000000
00010000
00002000
00000000
00000000
,  // measure 74
00003000
00000000
00000000
00011000
00000000
00000000
00000000
00000000
00000000
00010000
00000000
00000100
,  // measure 75
00001000
00000000
00000100
00000000
00000000
00000010
00000001
00000000
00000010
00000100
00000000
00000010
,  // measure 76
00001000
00000000
00010000
00001000
00000000
00010000
00100000
00000000
00100000
20000000
00000000
00000000
,  // measure 77
30020000
20030000
30020000
20030000
,  // measure 78
30020000
00000000
00000000
00130000
00000000
00100000
01000000
00000000
01000000
10000000
00000000
01000000
,  // measure 79
00000000
00010000
00000000
00001000
00000000
00000010
00000000
00000001
00000000
00000001
00000000
00000100
,  // measure 80
00000000
00001000
00000000
00010000
00000000
00100000
00000000
10000000
00000000
00010000
00000000
10000000
,  // measure 81
01000000
00000000
00100000
00010000
00000000
00001000
00000100
00000000
00000010
00000002
00000000
00000000
,  // measure 82
00000000
00000000
00000000
00002003
,  // measure 83
00000000
00000000
00000000
00000000
,  // measure 84
00000000
00000000
00000000
00000000
,  // measure 85
00000000
00000000
00000000
00000000
00003000
00000000
00000001
00000100
,  // measure 86
00001000
00000000
00010000
00000000
00100000
00000000
10000000
00000000
01000000
00000000
00010000
00000000
00001000
00010000
00001000
00010000
,  // measure 87
00001000
00010000
00001000
00010000
00001000
00000000
00011000
00000000
00011000
00000000
00000000
00000000
00020000
00000000
00032000
00000000
,  // measure 88
00003200
00000000
00000302
00000000
00000003
00000000
00000100
00000000
00000010
00000000
00000100
00000000
00000001
00000001
00000010
00000000
,  // measure 89
00001000
00000000
00010000
00100000
20000000
30020000
00230000
00302000
00013000
00000000
00000010
00000000
00000100
00000000
00000002
00000000
,  // measure 90
00000000
00001003
00000001
00000010
00001000
00010000
00100000
20000000
,  // measure 91
00000000
30010000
10000000
00100000
01000000
00000000
00100000
00020000
,  // measure 92
00000000
00031000
00000010
00000200
00000001
00000000
00000010
00000000
,  // measure 93
00010300
00001000
00000000
00000000
00011000
00000000
00010100
00000000
,  // measure 94
00011000
00000000
01001000
00000000
01000000
00100000
00010000
00001000
,  // measure 95
00000010
00000000
00000100
00000000
00001000
00000001
00001000
00000000
,  // measure 96
00000010
00000000
00000100
00001000
00000000
00010000
02000000
00000000
,  // measure 97
10000000
00000000
00010000
00000000
03100000
00001000
01000000
00100000
,  // measure 98
00010000
00001000
00000100
00000000
00000010
00010000
00000100
00000010
,  // measure 99
00001000
00010000
01000000
00000000
00100000
00100000
00001000
00000000
,  // measure 100
00011000
00000000
00010000
00000100
00000000
00001100
00000000
00000010
,  // measure 101
00001001
00000000
00000000
00000000
00000021
00000100
00000031
00000201
,  // measure 102
00000010
00000000
00001300
00000000
00010000
00001000
00100000
00010000
10000000
00200000
00000000
00000000
00000000
00000000
00000000
00000000
,  // measure 103
00300000
00000000
00000000
00000000
20000000
30000000
00000000
00000000
10200000
00000000
00000000
00000000
01000000
00000000
00000000
00000000
10300000
00000000
00000000
00000000
12000000
00000000
00000000
00000000
00100000
00000000
00000000
00000000
03010000
00000000
00000000
00000000
,  // measure 104
00001000
00000000
00010000
00000000
00000010
00000000
00001000
00000000
00000001
00000000
00000020
00000000
00000000
00000000
00000000
00000000
00000000
00000000
00000000
00000000
00000030
00000000
00000000
00000000
00000220
00000330
00000000
00000000
00000000
00000000
00000000
00000000
,  // measure 105
00002002
00003003
00000000
00000000
00000000
00000000
00000000
00000000
00000001
00000000
00000000
00000000
00000100
00000000
00000000
00000000
00000001
00000000
00000000
00000000
00000100
00000000
00000000
00000000
00001000
00000000
00000000
00000000
00010000
00000000
00000000
00000000
,  // measure 106
00001000
00010000
00100000
10000000
00100000
10000000
01000000
00010000
,  // measure 107
01000000
00010000
00001000
00000010
00000001
00000100
00000010
00000100
,  // measure 108
00000001
00000010
00001000
00010000
00100000
00000000
01100000
00000000
,  // measure 109
10010000
00000000
10000000
01000000
10000000
01000000
00010000
00001000
,  // measure 110
00010000
00001000
00000010
00000001
00000010
00000001
00000100
00001000
,  // measure 111
00000100
00001000
00010000
00100000
10000000
01000000
00100000
01000000
,  // measure 112
10000000
00010000
00000000
01000000
00000000
00100000
01100000
00000000
,  // measure 113
00000000
00000000
10010000
00000000
10010000
00000000
10000000
01000000
,  // measure 114
00010000
00001000
00000000
00000010
00000010
00000000
00000110
00000000
;

//---------------dance-double - NewbStepper-BDP----------------
#NOTEDATA:;
#CHARTNAME:NewbStepper-BDP;
#STEPSTYPE:dance-double;
#DESCRIPTION:NewbStepper-BDP;
#DIFFICULTY:Easy;
#METER:9;
#RADARVALUES:0.382661,0.537076,0.367231,0.489642,0,372,321,51,68,0,0,0,0,0,0.382661,0.537076,0.367231,0.489642,0,372,321,51,68,0,0,0,0,0;
#CREDIT:NewbStepper;
#NOTES:
00000000
00000000
00000000
00000000
,
00000000
00000000
00000000
00000000
,
00000000
00000000
00000000
00000000
,
00000000
00000000
00000000
00000000
,
00000000
00000000
00000000
00000000
,
10000000
00000000
00010000
00000000
00100000
00000000
00000000
01100000
,
00000000
00000000
01000000
00010000
,
00001000
00000000
00010000
00000000
00000100
00000000
00000000
00000110
,
00000000
00000000
00000001
00001000
,
00001001
00000000
00001001
00000000
00000001
00000000
00000000
00000100
,
00000000
00001000
00011000
00000000
,
00020000
00032000
00203000
02300000
,
23000000
30200000
02300000
03020000
,
00130000
00001000
00011000
00000000
,
00000010
00010000
00011000
00000000
,
00001000
00000000
00000100
00000000
00000001
00000000
00000000
00001001
,
00000000
00000000
00001000
00000100
,
00010000
00000000
01000000
00000000
10000000
00000000
00000000
10010000
,
00000000
00000000
00011000
00000000
,
00002000
00023000
00030020
00000230
,
00000302
00000023
00000230
00002300
,
00003010
00010000
00011000
00000000
,
00100000
00001000
00011000
00000000
,
00010000
00000000
01000000
00000000
10000000
00000000
00000000
10010000
,
00000000
00000000
00010000
01000000
,
00001000
00000000
00000100
00000000
00000001
00000000
00000000
00001001
,
00000000
00001100
00000000
00000000
00010100
00000000
00000000
00000000
,
00020000
00000000
00000100
00000000
00000100
00000000
00000000
00000100
,
00000000
00000000
00000100
00000100
,
00001000
00000000
00001000
00000000
00001000
00000000
00000000
00031000
,
00000000
00011000
00011000
00000000
,
00002000
00000000
01000000
00000000
01000000
00000000
00000000
01000000
,
00000000
00000000
01000000
01000000
,
00010000
00000000
00010000
00000000
00010000
00000000
00000000
00013000
,
00000000
00011000
00011000
00000000
,
00100000
00000000
00000000
10000000
00000000
00000000
01000000
00000000
,
01100000
00000000
00000010
00000000
00000000
00000001
00000000
00000000
,
00000100
00000110
00000000
00000001
,
00000100
00000010
00001000
00000000
,
00000001
00000100
00001000
00010000
,
00100000
10000000
01000000
00100000
,
00020000
00000000
00030000
00100000
,
00002000
00000000
00013000
00000010
,
00002000
00000000
00003001
00000100
,
00000000
00001000
00000000
00022000
,
00000000
00000000
00033000
10000000
,
01000000
00100000
00010000
00000000
,
10000000
01000000
00010000
00001000
,
00000010
00000001
00000100
00000010
,
00002000
00000000
00003000
00000010
,
00020000
00000000
00031000
00100000
,
00020000
00000000
10030000
01000000
,
00010000
00000000
00001000
00000000
00000010
00000000
00000000
00000110
,
00000000
00001001
00000000
00000010
,
00000010
00000000
00010000
00010000
,
00000000
00011000
00000000
02002000
,
00000000
00000000
03003000
00000000
,
00000000
10010000
00000000
00100000
,
00100000
00000000
00001000
00001000
,
00000000
00011000
00000000
00010100
,
00000000
00000000
00000000
00000000
,
00000000
00000000
00000000
00000010
,
00000010
00000000
00000000
00000000
00000001
00000000
00000000
00000100
,
00000000
00000100
00001000
00000000
00010000
00000000
00100000
00000000
,
10000000
01000000
00100000
00010000
,
10000000
00010000
10000000
00200000
,
00300000
20020000
30030000
00020000
,
00000000
00230000
00000000
00301000
,
00000010
00000001
00000000
00002000
,
00003002
00002003
00003002
00002003
,
00003002
00000003
00000000
00002000
,
00000000
00003020
00000000
00010030
,
00100000
10000000
00000000
00010000
,
00100000
01000000
00010000
00001000
,
00000000
00011000
00000000
00010000
,
00010000
00000000
00001000
00010000
,
01000000
10000000
00000000
00020000
,
20030000
30020000
20030000
30020000
,
20030000
30000000
00000000
10100000
,
00000000
01010000
00000000
00101000
,
00000000
00010100
00000000
00000100
,
00001000
00000001
00000100
00000010
,
00001000
00000100
00000000
00020000
,
00000000
00000000
00000000
00000000
,
00000000
00000000
00000000
00000000
,
00000000
00000000
00000000
00000000
00030000
00000000
00001000
00010000
,
00001000
00000000
00101000
00000000
00100000
00001000
00010000
00001000
,
00010000
00010010
00000000
00002000
,
00003200
00000000
00000320
00000000
00000032
00000000
00001003
00000100
,
00010000
00000000
00022000
00033000
00000010
00000000
00020000
00000000
,
00000000
00031000
00100000
00020000
,
00000000
10030000
01000000
00000000
,
00010000
00000000
00022000
00000000
,
00000000
00033000
00000001
00000100
,
00000010
00001000
00000000
00000001
,
00000100
00001000
00010000
00100000
,
10000000
01000000
00100000
00020000
,
00000000
00030000
00100000
00002000
,
00000000
00013000
00000010
00002000
,
00000000
00003001
00000100
00001000
,
00010000
00000000
00100000
00000000
00000000
01100000
00000000
00000000
,
10010000
00000000
00000000
00000000
11000000
00000000
00000000
00011000
,
00000000
00000022
00000033
00000000
,
00000000
00000000
00000000
00000000
00000002
00000003
00000000
00000000
00000101
00000000
00000000
00000000
00000000
00000000
00000000
00000000
00000000
00000000
00000000
00000000
00011000
00000000
00000000
00000000
00000000
00000000
00000000
00000000
00000000
00000000
00000000
00000000
,
20200000
00000000
00000000
00000000
00000000
00000000
00000000
00000000
30300000
00000000
00000000
00000000
00000000
00000000
00000000
00000000
00000000
00000000
00000000
00000000
00000000
00000000
00000000
00000000
20000000
30000000
00000000
00000000
00000000
00000000
00000000
00000000
,
00020000
00030000
00000000
00000000
00000000
00000000
00000000
00000000
10000000
00000000
00000000
00000000
00000000
00000000
00000000
00000000
00100000
00000000
00000000
00000000
00000000
00000000
00000000
00000000
01000000
00000000
00000000
00000000
00000000
00000000
00000000
00000000
,
00010000
00100000
00001000
00010000
,
00000100
00001000
00000010
00000100
,
00000001
00001000
00000001
00000100
,
00000000
00000001
00000010
00000100
,
00001000
00000010
00010000
00001000
,
01000000
00010000
00100000
01000000
,
10000000
00010000
10000000
01000000
,
00000000
10010000
10010000
10000000
,
00000000
01000000
00000000
00000000
00010000
00000000
00011000
00000000
;
