#TITLE:STARLiGHT DRIVE;
#ARTIST:saiiko2 vs. funkyzukin;
#BANNER:STARLiGHT DRIVE.png;
#BACKGROUND:STARLiGHT DRIVE-bg.png;
#MUSIC:STARLiGHT DRIVE.ogg;
#OFFSET:-4.5;
#SAMPLESTART:73.5;
#SAMPLELENGTH:15;
#BPMS:0=160;
#STOPS:311.75=0.375;

//---------------dance-single - Kekkle-bSP----------------
#NOTES:
     dance-single:
     Kekkle:
     Beginner:
     3:
     :
0000
0000
0000
0000
,
0000
0000
0000
0000
,
2000
0000
3000
0000
,
0002
0000
0003
0000
,
2000
0000
3000
0000
,
0002
0000
0003
0000
,
1000
0000
0001
0000
,
1000
0000
0001
0000
,
0100
0000
0010
0000
,
0100
0000
0010
0000
,
2000
0000
3000
0000
,
0002
0000
0003
0000
,
0020
0000
0030
0000
,
0001
0000
1001
0000
,
1000
0000
0001
0000
,
1000
0000
0001
0000
,
0100
0000
0010
0000
,
0100
0000
0010
0000
,
1000
0000
0001
0000
,
0010
0000
0100
0000
,
1000
0000
0100
0000
,
0010
0000
0001
0000
,
1000
0000
0010
0000
,
0100
0000
0001
0000
,
1000
0000
0100
0000
,
0010
0000
0001
0000
,
1000
0000
0001
0000
,
0100
0000
1000
0000
,
0100
0000
0001
0000
,
0010
0000
0110
0000
,
0200
0000
0300
0000
,
2000
0000
3000
0000
,
0002
0000
0003
0000
,
0200
0000
0300
0000
,
0020
0000
0030
0000
,
0200
0000
0300
0000
,
0020
0000
0030
0000
,
0110
0000
0100
0000
,
0001
0000
1000
0000
,
0100
0000
0010
0000
,
0001
0000
1000
0000
,
0001
0000
0100
0000
,
0020
0000
0030
0000
,
0200
0000
0300
0000
,
0020
0000
0030
0000
,
0100
0000
0110
0000
,
0001
0000
1000
0000
,
0100
0000
0010
0000
,
0100
0000
1000
0000
,
0010
0000
0110
0000
,
0100
0000
0001
0000
,
0010
0000
0100
0000
,
0010
0000
0001
0000
,
1000
0000
1001
0000
,
0002
0000
0003
0000
,
2000
0000
3000
0000
,
0020
0000
0030
0000
,
0200
0000
0300
0000
,
0002
0000
0000
0000
,
0000
0000
0003
0000
,
2000
0000
0000
3000
,
0010
0000
0110
0000
,
0100
0000
0001
0000
,
0100
0000
1001
0000
,
0010
0000
1000
0000
,
0010
0000
1001
0000
,
0100
0000
0110
0000
,
0010
0000
0110
0000
,
0100
0000
0110
0000
,
0010
0000
0010
0000
,
1000
0000
0100
0000
,
1000
0000
1001
0000
,
0001
0000
0100
0000
,
0001
0000
1001
0000
,
0001
0000
0001
0000
,
1000
0000
1000
0000
,
0010
0000
0010
0000
,
0100
0000
0100
0000
,
0010
0000
0000
0000
;

//---------------dance-single - Kekkle-BSP----------------
#NOTES:
     dance-single:
     Kekkle:
     Easy:
     6:
     :
0000
0000
0000
0000
,
0000
0000
0000
0000
,
2000
0000
3000
0000
,
0020
0000
0030
0000
,
0200
0000
0300
0000
,
0002
0000
0003
0000
,
0010
0100
0010
0000
,
0100
1000
0100
0000
,
1000
0010
1000
0000
,
0001
0010
0001
0000
,
0100
0010
1000
0000
,
0100
0010
0001
0000
,
1000
0010
0100
0000
,
0001
1000
0001
1001
,
1000
0010
1000
0010
,
0100
0001
0100
0001
,
1000
0100
1000
0100
,
0010
0001
0010
0001
,
1000
0010
1000
0010
,
0100
0001
0100
0001
,
0010
0100
0010
0100
,
1000
0100
1000
0100
,
0010
0001
1000
0001
,
0100
0010
1000
0010
,
1000
0100
0010
0100
,
1000
0001
0100
0001
,
1000
0010
0100
0010
,
1000
0100
0010
0001
,
1000
0010
0100
0001
,
1000
0010
2000
3000
,
0002
0000
0000
0000
,
2003
0000
0000
0000
,
3020
0000
0000
0000
,
0230
0000
0001
0001
,
0302
0000
0000
0000
,
0023
0000
0000
0000
,
0230
0000
0000
0000
,
2300
0000
0001
0001
,
3001
0000
1000
0000
,
0010
0100
0001
0100
,
0020
0000
2030
0000
,
3020
0000
2030
0000
,
3002
0000
0000
0010
,
0023
0000
0000
0100
,
0230
0000
0000
1000
0000
0000
0000
0000
,
1300
0001
1000
1000
,
0010
0100
0010
0100
,
0010
1000
0010
1000
,
0100
0010
0100
0010
,
0001
0010
0001
0010
,
0100
1000
0010
0100
,
0001
1000
0010
0100
,
0001
0010
0100
1000
,
0001
0100
0010
1000
,
0002
0000
0000
0000
,
2003
0000
0000
0000
,
3200
0000
0000
0000
,
0320
0000
0000
0000
,
0032
0000
0000
0000
,
0000
0000
0000
0000
,
2003
0000
0000
0000
,
0000
0000
0000
3000
,
0001
0000
0100
0000
,
0001
0010
0100
1000
,
0001
0000
0100
0000
,
0010
1000
0010
0100
,
0001
0000
0010
0000
,
0100
1000
0100
0010
,
0001
0000
1000
0000
,
0001
0100
0001
1001
,
1000
0000
1100
0000
,
0010
0001
0010
1000
,
0010
0000
0110
0000
,
0100
1000
0010
0100
,
0001
0010
0001
0010
,
0100
1000
0100
1000
,
0002
0003
2000
3000
,
0020
0030
0200
0300
,
0110
0000
0000
0000
;

//---------------dance-single - Kekkle-DSP----------------
#NOTES:
     dance-single:
     Kekkle:
     Medium:
     9:
     :
0000
0000
0000
0000
,
0000
0000
0000
0000
,
2000
0000
0000
0000
,
3002
0000
0000
0000
,
0023
0000
0000
0000
,
0230
0000
0000
0000
,
1300
0001
0100
1000
,
0100
0001
0010
0100
,
1000
0001
0010
1000
,
0010
0001
1000
0010
,
0100
0001
0100
0001
,
1000
0010
1000
0010
,
0100
0001
0010
0100
,
1000
0010
0220
0330
,
0100
0001
0010
1000
,
0010
0000
0100
0000
1000
0001
1000
0000
,
0010
0100
1000
0100
,
0001
0000
0010
0000
0100
0010
0100
0000
,
1000
0010
0100
0001
,
0010
0000
0100
0000
1000
0010
1000
0000
,
0001
0010
1000
0010
,
0001
0000
1000
0000
0010
1000
0010
0000
,
0100
0010
0001
0010
,
1000
0000
0100
0000
0010
0001
1000
0000
,
0010
0100
1000
0100
,
0010
0000
1000
0000
0100
0010
0001
0000
,
0010
0100
1000
0010
,
0001
0000
0010
0000
1000
0001
0010
0000
,
0100
1000
0100
0010
,
0001
0100
0110
0110
,
0020
1030
0020
0031
,
0010
1000
0100
0010
,
0002
0103
0002
0013
,
0100
1000
0010
0100
,
0101
0000
0001
1000
,
1100
0000
1000
0010
,
0110
0000
0100
0001
,
1001
0000
0101
1100
,
1000
0100
0001
0100
,
1000
0000
0010
0000
0100
0001
0010
0000
,
0100
1000
0100
0001
,
0100
1000
0100
0001
,
0200
0000
0310
0001
,
2000
0000
3010
0100
,
0002
0000
0000
2003
0000
0000
0000
0000
,
3010
0010
1000
1010
,
0010
0100
0001
0101
,
0100
0010
1010
0110
,
0100
0001
0010
0110
,
0100
1000
1100
1001
,
0001
0100
0010
0110
,
0100
0001
0011
0101
,
0100
0010
1000
1100
,
0100
0010
0110
0011
,
0002
0000
2003
0000
,
3010
0100
0020
0000
,
2030
0000
3200
0000
,
0310
0001
1000
0010
,
0200
0000
0000
0000
,
0000
0000
0000
0000
0000
0001
0000
0302
,
0000
0000
0000
0000
,
1003
0010
0100
0101
,
0001
0000
1000
0000
0010
0100
0010
0000
,
1000
0000
0001
0000
0010
0100
0010
0000
,
0001
0000
0100
0000
0010
1000
0010
0000
,
1000
0000
0100
0000
0010
0001
0010
0000
,
0100
1000
0001
1001
,
1000
0010
0100
0110
,
0010
1000
0001
0011
,
0010
0100
1000
1100
,
0100
0000
0010
0000
0001
0100
0010
0000
,
1000
0000
0010
0000
0100
0001
1000
0000
,
0100
0000
0010
0000
0100
1000
0010
0000
,
0100
0000
0001
0000
0010
0100
1000
0000
,
0001
0100
0001
0000
0001
0010
0001
0000
,
1000
0010
1000
0000
1000
0100
1000
0000
,
1000
0100
0010
0001
0100
0010
1000
0010
,
0100
0001
0010
0100
1000
0100
0010
0001
,
2002
0000
0000
0000
,
0000
0000
0000
0000
,
0000
0000
0000
3003
;

//---------------dance-single - Kekkle-ESP----------------
#NOTES:
     dance-single:
     Kekkle:
     Hard:
     15:
     :
0000
0000
0000
0000
,
0000
0000
0000
0000
,
0002
0100
1000
0100
,
2003
0010
0001
0010
,
3200
0001
1000
0001
,
0320
0001
0100
0001
,
0130
1000
0100
0000
0100
0010
0100
0000
,
0100
0001
0100
0000
0100
0010
0100
1000
,
0010
0100
0010
0000
0010
0001
0010
0000
,
0010
0100
0010
0000
0010
1000
0010
0100
,
0001
0010
0001
0000
0001
0100
0001
0000
,
0001
1000
0001
0000
0001
0100
0001
0000
,
0001
0010
0001
0100
0001
1000
0001
0100
,
0001
0000
0010
0000
0100
0000
1000
0000
1000
0000
0010
0100
0010
0000
1000
0000
,
0100
0000
0010
0000
0001
0000
0010
0000
0100
0000
1000
0010
0000
1000
0100
0000
,
0010
0000
0001
0010
0000
0001
0100
0000
0010
0000
0100
0010
0000
0100
0001
0000
,
0010
0000
0100
0000
1000
0000
0100
0000
0010
0000
0001
0100
0000
0001
0010
0000
,
0100
0000
1000
0010
0000
1000
0100
0000
0010
0000
0100
0010
0000
0100
1000
0000
,
0001
0000
0100
0000
1000
0000
0100
0000
0001
0000
0010
0100
0000
0010
1000
0000
,
0010
0000
0001
0100
0000
0001
1000
0000
0100
0000
0010
0001
0000
0010
1000
0000
,
0010
0000
0100
0000
1000
0000
0001
0000
0010
0000
0100
1000
0000
0001
0100
0000
,
0010
0000
1000
0100
0000
0010
0100
0000
1000
0000
0001
0100
0000
0010
1000
0000
,
0100
0000
0010
0001
0000
0010
0001
0000
0100
0000
0010
1000
0000
0010
1000
0010
,
0100
0000
0001
0100
0000
0001
0100
0000
0010
0000
1000
0100
0000
0010
0001
0000
,
0100
0000
0010
1000
0000
0010
1000
0000
0100
0000
0010
0001
0000
0010
0001
0010
,
0100
0000
1000
0100
0000
1000
0100
0000
0010
0000
0001
1000
0000
0100
0010
0000
,
0001
0000
0100
0010
0000
0100
0010
0000
1000
0000
0100
0010
0000
0001
0010
0100
,
1000
0000
0010
0100
0000
0010
0100
0000
0001
0000
0010
0100
0000
1000
0100
0000
,
0010
0000
0001
1000
0000
0001
1000
0000
0100
0000
0010
0001
0000
1000
0010
0100
,
0001
0000
0010
0100
0000
1000
0100
0000
0010
0000
0001
0000
1001
0000
1001
0000
,
0102
0013
2100
3001
,
0120
0000
1000
0000
0000
0100
0000
0000
0001
0000
0000
0130
0000
0000
0000
0000
,
1020
0130
0021
0130
,
2100
0000
0000
0000
3001
0000
0101
0000
0000
0011
0000
0000
0110
0000
0000
0000
,
2100
0000
0001
0000
3010
0110
0000
0000
,
0102
0000
0010
0000
1003
1100
0000
0000
,
0120
0000
0001
0000
0130
0101
0000
0000
,
2002
0000
3003
0000
0101
0001
1001
1000
,
1100
0000
0100
0010
0000
0001
0010
0000
0100
1000
0000
0001
0100
0000
0010
1000
,
0001
0000
0010
0100
0000
1000
0100
0000
0010
0001
0000
0100
0010
0000
1000
0001
,
0100
0000
0010
0000
1000
0000
0100
0010
0001
0000
1000
0000
0010
0000
0100
0001
,
1000
0000
0100
0000
0010
0000
0001
0100
0010
0000
1000
0000
0100
0000
0010
0000
,
1002
0000
0100
0000
0010
0000
0103
0010
,
2010
0000
0100
0000
0001
0000
3010
0100
,
0120
0000
1000
2030
0000
0000
0000
0000
,
3001
0010
1000
0010
0001
0100
0010
0010
,
1000
0100
0010
0001
0010
1000
0010
0010
,
0001
0000
0100
0000
0010
0000
1000
0000
0010
0000
0100
0001
0100
0000
0100
0000
,
0010
1000
0100
0010
0100
0001
0100
0100
,
1000
0000
0010
0000
0100
0000
1000
0000
0100
0000
0001
0100
0001
0000
0001
0000
,
0100
0010
1000
0100
0001
0100
1000
1000
,
0001
0000
0010
0000
1000
0000
0001
0000
0100
0000
0010
0001
0010
0000
0010
0000
,
0100
1000
0010
0100
1000
0001
0010
0010
,
0100
0000
0001
0000
1000
0000
0100
0000
0010
0000
0001
1000
0100
0000
0010
0000
,
0210
0000
0000
2300
0000
0000
3010
0100
,
0001
0000
0000
0100
0000
0000
0010
0000
2000
0000
0000
0000
0000
0000
0000
0000
,
3001
0001
0100
0100
0020
0000
0230
0000
,
0301
0000
0000
0010
0000
0000
0100
0000
2000
0000
0000
0000
3010
0000
0100
0000
,
0002
0000
0000
0000
,
0000
0000
0000
0000
0000
0103
0010
2000
,
0000
0000
0000
0000
,
3001
0000
0001
0000
0001
0000
0100
0000
1000
0000
0100
0010
0100
0000
0000
0000
,
1001
0000
1000
0000
0001
0010
0000
0100
0010
0000
0001
0010
0000
0100
0010
0000
,
0100
0000
1000
0000
0001
0100
0000
0010
0100
0000
0001
0100
0000
0010
0100
0000
,
0001
0000
0010
0000
0100
1000
0000
0100
0010
0000
0100
1000
0000
0100
0010
0000
,
0100
0000
1000
0000
0010
0100
0000
0010
1000
0000
0010
0100
0000
0010
1000
0000
,
0100
0000
0010
0001
0000
0001
0100
0000
0100
0010
0000
0010
1000
0000
1000
0000
,
1100
0000
0100
0010
0000
0010
0001
0000
0001
0100
0000
0100
0010
0000
0010
0000
,
1010
0000
1000
0001
0000
0001
0100
0000
0100
0010
0000
0010
1000
0000
1000
0000
,
1010
0000
0010
0100
0000
0100
0001
0000
0001
0010
0000
0010
0100
0000
0100
0000
,
0110
0000
0010
0000
0001
0100
0000
0010
1000
0000
0001
0010
0000
0100
1000
0000
,
0010
0000
0100
0000
0001
0010
0000
0100
0010
0000
0001
0100
0000
0010
1000
0000
,
0100
0000
0010
0000
0001
1000
0000
0100
0010
0000
0001
0010
0000
0100
1000
0000
,
0010
0000
0100
0000
0001
0010
0000
0100
0010
0000
0100
1000
0000
0001
0100
0000
,
0010
0010
0010
0010
1000
1000
1000
1000
,
0100
0100
0100
0100
0010
0010
0010
0010
,
0001
0100
0001
0100
0001
0100
0001
0100
0010
1000
0010
1000
0010
1000
0010
1000
,
0100
0010
0100
0010
0001
0100
0001
0100
0010
1000
0010
1000
0100
0010
0001
1000
,
2002
0000
0000
0000
,
0000
0000
0000
0000
,
0000
0000
0000
3003
;

//---------------dance-double - Kekkle-BDP----------------
#NOTES:
     dance-double:
     Kekkle:
     Easy:
     5:
     :
00000000
00000000
00000000
00000000
,
00000000
00000000
00000000
00000000
,
20000000
00000000
30000000
00000000
,
00020000
00000000
00030000
00000000
,
02000000
00000000
03000000
00000000
,
00020000
00000000
00030000
00000000
,
00100000
00000000
00001000
00000000
,
00010000
00000000
00000100
00000000
,
00000010
00000000
00000001
00000000
,
00000010
00000000
00001000
00000000
,
00010000
00000000
01000000
00000000
,
10000000
00000000
01000000
00000000
,
00100000
00000000
00001000
00000000
,
00010000
00000000
00011000
00000000
,
00001000
00000000
00100000
00000000
,
01000000
10000000
01000000
00000000
,
10000000
00000000
00100000
00000000
,
01000000
00010000
01000000
00000000
,
00001000
00000000
00010000
00000000
,
00000100
00001000
00000100
00000000
,
00000010
00000000
00000001
00000000
,
00001000
00000100
00001000
00000000
,
00000010
00000000
00010000
00000000
,
00001000
00100000
00001000
00000000
,
00010000
00000000
01000000
00000000
,
10000000
00010000
10000000
00000000
,
00100000
00000000
01000000
00000000
,
00010000
00100000
00010000
00000000
,
00100000
00000000
00001000
00000000
,
00010000
00000100
00010000
00000100
,
00002000
00000000
00003000
00000001
,
00000020
00000000
00000030
00000100
,
00002000
00000000
00003000
00000001
,
00000200
00000000
00000300
00001000
,
00020000
00000000
00030000
01000000
,
20000000
00000000
30000000
00010000
,
02000000
00000000
03000000
00001000
,
00020000
00000000
00030000
00000100
,
00000010
00000000
00000001
00000000
,
00001000
00000100
00001000
00000000
,
00000100
00000000
00010000
00000000
,
00001000
00100000
00001000
00010000
,
02000000
00000000
03000000
00000000
,
20000000
00000000
30000000
00000000
,
00020000
00000000
00030000
00000000
,
00100000
00001000
00010000
00000100
,
00001000
00000000
00000001
00000000
,
00000010
00000100
00001000
00000000
,
00000100
00000000
00010000
00000000
,
00001000
01000000
00010000
00000000
,
10000000
00000000
01000000
00000000
,
00100000
00001000
00010000
00000000
,
00000100
00000000
00000001
00000000
,
00000100
00001000
00000010
00010000
,
00002000
00000000
01003000
00000000
,
00020000
00000000
10030000
00000000
,
02000000
00000000
03100000
00000000
,
00002000
00000000
00013000
00000000
,
00000200
00000000
00000000
00000000
,
00000000
00000000
00000000
00000000
00000000
00000000
00000000
00000320
,
00000000
00000000
00000000
00000000
,
00000031
00000001
00000001
00001001
,
00001000
00000000
00000010
00000000
,
00001000
00000100
00010000
00000000
,
00001000
00000000
00100000
00000000
,
01000000
10000000
01000000
00100000
,
00010000
00000000
01000000
00000000
,
00001000
00010000
00000100
00000000
,
00000010
00000000
00000001
00000000
,
00001000
00000010
00010000
00001000
,
00011000
00000000
00001000
00000000
,
01000000
00100000
10000000
00000000
,
01000000
00000000
00010000
00000000
,
00001000
00000100
00000010
00001000
,
00000100
00000100
00000100
00000000
,
00010000
00010000
00010000
00000000
,
00001000
00100000
00010000
10000000
,
01000000
00100000
00001000
00010000
,
00022000
00000000
00000000
00000000
,
00000000
00000000
00000000
00000000
,
00000000
00000000
00000000
00033000
;

//---------------dance-double - Kekkle-DDP----------------
#NOTES:
     dance-double:
     Kekkle:
     Medium:
     9:
     :
00000000
00000000
00000000
00000000
,
00000000
00000000
00000000
00000000
,
02000000
00000000
00000000
00000000
,
03020000
00000000
00000000
00000000
,
00230000
00000000
00000000
00000000
,
00302000
00000000
00000000
00000000
,
00013000
00000100
00000010
00000001
,
00000010
00001000
00000010
00000000
,
00000001
00000100
00001000
00010000
,
00100000
00010000
00001000
00000000
,
00100000
00010000
01000000
10000000
,
01000000
00010000
00100000
00000000
,
00001000
00010000
00000100
00000010
,
00000100
00000000
00010000
00000000
00001000
00100000
00010000
00000000
,
10000000
01000000
00100000
01000000
,
00010000
00000000
00001000
00000000
00000100
00000010
00000100
00000000
,
00000001
00001000
00000100
00000010
,
00000100
00000000
00010000
00000000
00001000
00010000
00001000
00000000
,
01000000
00010000
00100000
01000000
,
10000000
00000000
00100000
00000000
01000000
00010000
01000000
00000000
,
00010000
00100000
00001000
00010000
,
00000100
00000000
00000010
00000000
00000001
00000100
00000001
00000000
,
00001000
00000010
00000001
00000010
,
00001000
00000100
00001000
00000000
00000100
00010000
00000100
00000000
,
00010000
00001000
00100000
01000000
,
10000000
00010000
10000000
00000000
01000000
00100000
01000000
00000000
,
10000000
00100000
00010000
00100000
,
01000000
00010000
01000000
00000000
00001000
00010000
00001000
00000000
,
00100000
00001000
00010000
00000100
,
00000010
00000001
00000010
00000100
00000010
00000000
00000011
00000000
,
00000001
00000000
00000100
00000000
,
00000001
00000100
00001000
00010000
,
00100000
00000000
10000000
00000000
,
01000000
00010000
00001000
00000010
,
00000002
00000000
00000103
00000010
,
00020000
00000000
00031000
00100000
,
02000000
00000000
13000000
00100000
,
00010000
00001000
00000100
00000100
,
00000001
00000000
00000010
00000000
00000100
00001000
00000100
00000000
,
00010000
00000000
00001000
00000000
00100000
00001000
00010000
00001000
,
00100000
00001000
00010000
01000000
,
10000000
00100000
01000000
01000000
,
02010000
00000000
03010000
00100000
,
00102000
00000000
00013000
00000100
,
00000120
00000000
00000130
00000001
,
00000100
00000000
00001000
00000000
00000100
00010000
00001000
00100000
,
01000000
10000000
00100000
01000000
,
00010000
00100000
00101000
00011000
,
00001000
00010000
00001000
00000100
,
00000001
00000000
00000010
00000000
00000100
00010000
00000100
00000000
,
00010000
00001000
01000000
00100000
,
10000000
00010000
00110000
00010100
,
00000100
00000001
00000100
00000010
,
00000001
00000000
00001000
00000000
00000100
00010000
00001000
00010000
,
00000200
00000000
00020300
00000000
,
00031000
00100000
02000000
00000000
,
23000000
00000000
30100000
01000000
,
00001000
00010000
00000100
00000010
,
00000002
00000000
00000000
00000000
,
00000000
00000000
00000000
00000000
00000000
00001003
00000000
00000200
,
00000000
00000000
00000000
00000000
,
00001300
00000000
00001000
00000000
00000001
00000100
00001000
00010000
,
00100000
10000000
01000000
00100000
,
01000000
00000000
00010000
00000000
00001000
00000100
00000010
00000000
,
00001000
00000001
00000010
00001000
,
00010000
00000000
01000000
00000000
10000000
00100000
01000000
00000000
,
00001000
00010000
00000100
00000010
,
00000100
00000000
00010000
00000000
00001000
00100000
00010000
00000000
,
10000000
01000000
00010000
00001000
,
00000010
00000000
00000001
00000000
00000100
00000010
00001000
00000100
,
00010000
00001000
00100000
01000000
,
10000000
00000000
01000000
00000000
00010000
00000100
00010000
00000000
,
00001000
00000010
00000001
00000010
,
00000100
00000000
00010000
00000000
00001000
01000000
00010000
00100000
,
01000000
10000000
01000000
00000000
00100000
00001000
00100000
00000000
,
00001000
00010000
00000100
00000000
00000010
00000001
00000010
00000000
,
00000100
00001000
00000100
00001000
00000100
00010000
00000100
00010000
,
00001000
00100000
00001000
00100000
00010000
10000000
01000000
00010000
,
00022000
00000000
00000000
00000000
,
00000000
00000000
00000000
00000000
,
00000000
00000000
00000000
00033000
;

//---------------dance-double - Kekkle-EDP----------------
#NOTES:
     dance-double:
     Kekkle:
     Hard:
     15:
     :
00000000
00000000
00000000
00000000
,
00000000
00000000
00000000
00000000
,
02000000
00100000
10000000
00100000
,
03020000
10000000
01000000
10000000
,
00230000
00010000
00001000
00010000
,
00302000
00010000
00000100
00010000
,
00003100
00000001
00000010
00000100
00001000
00000100
00010000
00001000
,
00100000
00010000
01000000
00000000
10000000
01000000
00010000
00000000
,
01000000
00010000
00100000
10000000
00100000
00010000
00001000
00000010
,
00000001
00000010
00000100
00000000
00000001
00001000
00000100
00000000
,
00010000
00001000
00010000
00100000
01000000
10000000
01000000
00010000
,
00100000
00001000
00010000
00000000
00000100
00001000
00000010
00000000
,
00000100
00000001
00000100
00001000
00010000
00100000
10000000
01000000
,
00100000
00000000
00010000
01000000
00001000
00000000
00010000
00000000
00000100
00000000
00001000
00000000
00001001
00000000
00000000
00000000
,
00000001
00000000
00000100
00000000
00000010
00000000
00001000
00000000
00000100
00000000
00010000
00001000
00000000
00010000
00001000
00000000
,
00100000
00000000
00001000
00010000
00000000
00001000
00010000
00000000
00000100
00000000
00010000
00001000
00000000
00010000
00001000
00000000
,
00100000
00000000
01000000
00000000
00100000
00000000
00001000
00000000
00010000
00000000
00000100
00001000
00000000
00000100
00001000
00000000
,
00000001
00000000
00001000
00000100
00000000
00001000
00000100
00000000
00010000
00000000
00000100
00001000
00000000
00000100
00001000
00000000
,
00000001
00000000
00000100
00000000
00001000
00000000
00010000
00000000
00100000
00000000
10000000
01000000
00000000
10000000
01000000
00000000
,
00100000
00000000
01000000
10000000
00000000
01000000
10000000
00000000
00010000
00000000
10000000
01000000
00000000
10000000
01000000
00000000
,
00100000
00000000
00001000
00000000
00010000
00000000
00000100
00000000
00001000
00000000
00000010
00000100
00000000
00000010
00000100
00000000
,
00000001
00000000
00000010
00000100
00000000
00000010
00000100
00000000
00010000
00000000
00001000
00010000
00001000
00010000
00001000
00000000
,
01000000
00000000
00010000
00100000
00000000
00010000
00100000
00000000
01000000
00000000
10000000
01000000
00000000
00100000
00010000
00100000
,
00001000
00000000
00010000
00000100
00000000
00001000
00000010
00000000
00000100
00000000
00000001
00000010
00000000
00000100
00001000
00000000
,
00000010
00000000
00000100
00001000
00000000
00000100
00001000
00000000
00010000
00000000
00100000
10000000
00000000
01000000
00100000
00001000
,
00010000
00000000
00000100
00001000
00000000
00000010
00000100
00000000
00000001
00000000
00000010
00000100
00000000
00010000
00001000
00000000
,
00010000
00000000
00000100
00001000
00000000
00000100
00001000
00000000
00000001
00000000
00000100
00000010
00000000
00001000
00000100
00010000
,
00001000
00000000
01000000
00100000
00000000
01000000
00010000
00000000
10000000
00000000
01000000
00100000
00000000
00010000
10000000
00000000
,
01000000
00000000
00100000
00010000
00000000
00100000
00010000
00000000
01000000
00000000
00001000
00010000
00000000
00000100
00001000
00000100
,
00000010
00000000
00000001
00000100
00000000
00000010
00001000
00000000
00000100
00000000
00000010
00000001
00000000
00001000
00000100
00000000
,
00020000
00001000
00100000
00001000
,
00030200
00000000
00001000
00000000
00000000
00000001
00000000
00000000
00000010
00000000
00000000
00001000
00000000
00000000
00000000
00000000
,
00020300
01000000
00001000
01000000
,
00032000
00000000
00100000
00000000
00100000
00000000
00100000
00000000
00000000
01000000
00000000
00000000
00010000
00000000
00000000
00000000
,
02003000
00000000
10000000
00000000
00010000
00010000
00000000
00100000
,
03200000
00000000
10000000
00000000
01000000
01000000
00000000
00000000
,
20300000
00000000
01000000
00000000
00010000
00010000
00000000
30100000
,
02200000
00000000
03300000
00000000
01010000
00000000
00010000
00100000
,
00001000
00000000
00010000
00001000
00000000
00010000
00001000
00000000
00000100
00000010
00000000
00000100
00000010
00000000
00001000
00000100
,
00000010
00000000
00000001
00000100
00000000
00000010
00001000
00000000
00000100
00010000
00000000
00001000
00100000
00000000
00010000
10000000
,
01000000
00100000
00001000
00000100
00001000
00010000
00100000
10000000
,
01000000
00100000
00001000
00010000
00100000
00010000
00001000
00000100
,
00000002
00000010
00002003
00000100
,
00003020
00000100
00020030
00000100
,
00032000
00100000
02003000
00100000
,
03010000
00100000
10000000
00100000
00010000
00010000
01000000
01000000
,
00010000
00100000
00010000
00000100
00010000
01000000
00100000
00100000
,
10000000
01000000
00010000
00001000
00010000
00010000
00000100
00000100
,
00000010
00000001
00000100
00001000
00000100
00000010
00000100
00000100
,
00000010
00010000
00001000
00010000
00000100
00000100
00001000
00001000
,
00000100
00010000
00001000
00010000
01000000
10000000
01000000
01000000
,
00100000
00001000
00010000
00100000
00010000
00010000
00000100
00000100
,
00001000
00000001
00000100
00001000
00010000
00100000
10000000
10000000
,
00010000
00000000
01000000
00000000
00100000
00000000
00010000
00000000
00001000
00000000
00100000
00001000
00010000
00000000
00000100
00000000
,
00000020
00000000
00000000
00000032
00000000
00000000
00000103
00000100
,
00000010
00000000
00000000
00001000
00000000
00000000
00100000
00000000
00002000
00000000
00000000
00000000
00000000
00000000
00000000
00000000
,
00003001
00000010
00000100
00000000
00001100
00000000
00011000
00000000
,
00001000
00000000
00000000
00100000
00000000
00000000
01000000
00000000
00200000
00000000
00000000
00000000
00301000
00000000
00010000
00000000
,
00000020
00000000
00000000
00000000
,
00000000
00000000
00000000
00000000
00000000
00001030
00000001
00000200
,
00000000
00000000
00000000
00000000
,
00001300
00000000
01000000
00000000
00010000
00000000
00100000
00000000
01000000
00000000
10000000
00010000
00100000
00000000
00001000
00000000
,
00010000
00000000
00000100
00000000
00001000
00000010
00000000
00000100
00000001
00000000
00001000
00000010
00000000
00000100
00000001
00000000
,
00000010
00000000
00000100
00000000
00010000
00001000
00000000
00100000
00001000
00000000
00010000
00001000
00000000
00100000
00001000
00000000
,
00010000
00000000
00001000
00000000
01000000
00010000
00000000
10000000
00100000
00000000
01000000
00010000
00000000
10000000
00100000
00000000
,
01000000
00000000
00010000
00000000
00100000
00001000
00000000
00010000
00001000
00000000
00100000
00001000
00000000
00010000
00000100
00000000
,
00001000
00000000
00000100
00000010
00000000
00000010
00000001
00000000
00000001
00000100
00000000
00000100
00000010
00000000
00000010
00000000
,
00001000
00000000
00000100
00010000
00000000
00010000
00001000
00000000
00001000
00100000
00000000
00100000
00010000
00000000
00010000
00000000
,
10000000
00000000
01000000
00100000
00000000
00100000
00010000
00000000
00010000
01000000
00000000
01000000
00100000
00000000
00100000
00000000
,
10000000
00000000
01000000
00010000
00000000
00010000
00001000
00000000
00001000
00000100
00000000
00000100
00000001
00000000
00000001
00000000
,
00000010
00000000
00000100
00000000
00001000
00000100
00000000
00000010
00000001
00000000
00000100
00000010
00000000
00001000
00000001
00000000
,
00000010
00000000
00000100
00000000
00010000
00001000
00000000
01000000
00010000
00000000
00100000
00010000
00000000
10000000
01000000
00000000
,
00100000
00000000
00010000
00000000
01000000
00100000
00000000
10000000
00100000
00000000
01000000
00010000
00000000
00100000
00001000
00000000
,
00010000
00000000
00000100
00000000
00001000
00000010
00000000
00000100
00000001
00000000
00000010
00000100
00000000
00010000
00001000
00000000
,
00100000
00010000
10000000
01000000
00010000
01000000
00100000
00001000
,
00100000
00010000
00000100
00010000
00100000
00001000
00010000
00000100
,
00001000
00000100
00001000
00000100
00001000
00000100
00001000
00000100
00000010
00000001
00000010
00000001
00000010
00000001
00000010
00000001
,
00001000
00000010
00001000
00000010
00010000
00001000
00010000
00001000
01000000
00010000
01000000
00010000
10000000
01000000
00010000
00001000
,
00022000
00000000
00000000
00000000
,
00000000
00000000
00000000
00000000
,
00000000
00000000
00000000
00033000
;
