#TITLE:STAR SHIP☆HERO;
#ARTIST:Lucky Vacuum;
#TITLETRANSLIT:STAR SHIP HERO;
#BANNER:STAR SHIP HERO.png;
#BACKGROUND:STAR SHIP HERO-bg.png;
#MUSIC:STAR SHIP HERO.ogg;
#OFFSET:0.709158;
#SAMPLESTART:40.975;
#SAMPLELENGTH:15;
#BPMS:0=190;
#STOPS:100=0.158,100.5=0.158,259=0.158,259.5=0.158;

//---------------dance-single - NewbStepper-ESP----------------
#NOTES:
     dance-single:
     NewbStepper:
     Hard:
     15:
     0.775152,0.934111,0.613610,0.061361,0.341868,619,549,70,7,0,0,0.775152,0.934111,0.613610,0.061361,0.341868,619,549,70,7,0,0:
0000
0000
0000
0000
,
0000
0000
0000
0000
,
0000
0000
0000
0000
,
0000
0000
0000
0000
,
0000
0000
0000
0000
,
0000
0000
0000
0000
,
0000
0000
0000
0000
,
0000
0000
0000
0000
,
0000
0000
0000
0000
,
1000
0000
1000
0000
0001
0010
0100
1000
,
0001
0001
0010
0100
,
1000
0000
1000
0000
0100
0001
0100
1000
,
0010
0000
0010
0000
0100
0001
1000
0000
,
0001
0000
0001
0000
1000
0010
0100
0001
,
1000
1000
0010
0100
,
0001
0000
0001
0000
0100
1000
0100
0001
,
0010
0000
0010
0000
0100
1000
0001
0000
,
1001
0100
0010
0001
0100
0010
1000
0100
,
0001
0100
1000
0001
0100
0010
1000
0000
,
0001
0100
1000
0100
0001
0010
0100
1000
,
0010
0100
0001
0010
0100
1000
0001
0000
,
1001
0000
0100
0000
0010
0000
1000
0000
0001
0100
0001
0000
1000
0000
0010
0000
,
1000
0000
0100
0000
0010
0000
0001
0000
0100
0010
0100
0000
0001
0000
0000
0000
,
1000
0010
1000
0010
0100
0000
0001
0000
0100
0001
0100
0001
0010
0000
0011
0000
,
0000
1100
0000
0110
0000
1001
1001
0000
,
1100
0000
0010
0000
0001
0000
0100
0010
0100
0000
0001
0000
1000
0000
0100
0000
,
0010
0001
0010
0000
0001
0100
0001
0100
0010
0000
1000
0000
0010
0000
0100
0000
,
0010
1000
0010
0000
1000
0100
1000
0100
0010
0000
0011
0000
0000
0000
1010
0000
,
0000
0110
0000
1001
1001
0000
0010
0001
,
0100
0010
0100
0000
0001
1000
0001
1000
0010
0000
0100
0000
0010
0000
1000
0000
,
0100
0010
0100
0000
1000
0001
1000
0001
0010
0000
0100
0000
0010
0000
0001
0000
,
1000
0100
1000
0000
0001
0100
0001
0100
0010
0000
0110
0000
0000
0000
1000
0000
,
0100
0001
1000
0010
0001
0000
1100
0000
,
1001
0000
0000
0000
0010
0000
0001
1000
0001
0000
0010
0000
0100
0000
1000
0000
,
0001
0000
0100
0000
0010
1000
0010
0000
0100
0000
0000
0000
0001
0000
1000
0000
,
0100
0000
0010
0000
0001
0000
1000
0010
0100
0000
0101
0000
0000
0000
0110
0000
,
0000
1010
0000
0110
1001
0000
0101
0000
,
1001
0000
0000
0000
0010
0000
1000
0001
1000
0000
0010
0000
0100
0000
0001
0000
,
1000
0000
0100
0000
0010
0001
0010
0000
0100
0000
0000
0000
1000
0000
0001
0000
,
0100
0000
0010
0000
1000
0000
0001
0010
0100
0000
1100
0000
0000
0000
1010
0000
,
0100
0101
0000
0110
1001
0000
0100
0001
,
0010
0000
0100
0000
1000
0010
1000
0000
0001
0010
0001
0000
1000
0000
0100
0000
,
0010
0000
0001
0000
1000
0010
1000
0010
0100
0000
0001
0000
1000
0000
0100
0000
,
0001
0000
0100
0000
1000
0000
0010
1000
0100
0000
0110
0000
0000
0000
1001
0000
,
0000
0101
0000
1100
1001
0000
0100
1000
,
0010
0000
0100
0000
0001
0010
0001
0000
1000
0010
1000
0000
0001
0000
0100
0000
,
0010
0000
1000
0000
0001
0010
0001
0010
0100
0000
1000
0000
0001
0000
0100
0000
,
1000
0000
0100
0000
0001
0000
0010
0001
0100
0000
0101
0000
0000
0000
0011
0000
,
0100
1100
0000
0110
1001
0000
0200
0000
,
0001
0000
0001
0320
,
1000
0000
1000
0230
,
0010
0000
0310
1010
,
0101
0110
1001
1000
,
1000
0000
0000
0000
0100
0010
0100
0000
1000
0000
0000
0000
0001
0000
0000
0000
,
0001
0000
0000
0000
0100
0010
0100
0000
0001
0000
0000
0000
0010
0000
0000
0000
,
0010
0000
0000
0000
0100
0010
0100
0000
0010
0000
0000
0000
0001
0000
0000
0000
,
0100
2002
3003
0100
,
0100
0000
0001
0010
0100
1000
0010
0000
,
0010
1000
0001
0100
,
0010
0000
1000
0100
0010
0001
0100
0000
,
0100
0000
0010
1000
0100
0000
1000
0001
,
0100
0001
1000
0100
1000
0001
0100
0010
,
1000
0000
0100
0000
0001
0000
0100
0000
0010
0000
0001
0000
1000
0001
1000
0001
,
1000
0001
1000
0001
1000
0001
1000
0001
1000
0000
1100
0000
0000
0000
0101
0000
,
0000
0110
0000
1010
1001
0000
0010
0100
,
0001
0010
0001
0000
1000
0010
1000
0000
0001
0000
0100
0000
0010
0000
1000
0000
,
0001
0010
0001
0010
0100
0000
1000
0000
0001
0000
0100
0000
1000
0000
0100
0000
,
0001
0000
0010
0001
0100
0000
0110
0000
0000
0000
1001
0000
0000
0000
1100
0000
,
0000
0101
1001
0000
0100
0001
0010
0100
,
1000
0010
1000
0000
0001
0010
0001
0000
1000
0000
0100
0000
0010
0000
0001
0000
,
1000
0010
1000
0010
0100
0000
0001
0000
1000
0000
0100
0000
0001
0000
0100
0000
,
1000
0000
0010
1000
0100
0000
1100
0000
0000
0000
0011
0000
0100
0000
1100
0000
,
0000
1001
1001
0000
0010
0100
0010
1000
,
0001
0010
0001
0010
0001
0000
0100
0000
0010
0000
1000
0001
0100
0000
0001
1000
,
0100
0000
1000
0010
0100
0000
0001
0000
0010
0000
0100
0000
0010
0000
0001
0000
,
1000
0010
1000
0010
1000
0000
1010
0000
0000
0000
0101
0000
0000
0000
0110
0000
,
0000
0001
0100
0001
1100
0000
0101
0000
,
0010
0000
0001
0100
0010
0000
1000
0100
1000
0000
0001
0100
0001
0000
1000
0100
,
0010
0000
0001
0100
0010
0000
1000
0000
0101
0000
0000
0000
1100
0000
0000
0000
,
0010
0000
1000
0100
0010
0000
0001
0100
0001
0000
1000
0100
1000
0000
0001
0100
,
0010
0000
1000
0100
0010
0000
0001
0000
1010
0000
0000
0000
0100
0000
0000
0000
,
0011
0000
0100
0000
1000
0100
0010
0001
,
1000
0010
1000
0010
0100
0001
0100
0001
0010
0000
0000
0000
0000
0000
1100
0000
,
0000
0000
1001
2002
0000
0000
0000
0000
,
0000
0000
0000
0000
,
0000
3003
0000
0000
;

//---------------dance-single - NewbStepper-DSP----------------
#NOTES:
     dance-single:
     NewbStepper:
     Medium:
     12:
     0.530960,0.672560,0.219146,0.061361,0,424,399,25,7,0,0,0.530960,0.672560,0.219146,0.061361,0,424,399,25,7,0,0:
0000
0000
0000
0000
,
0000
0000
0000
0000
,
0000
0000
0000
0000
,
0000
0000
0000
0000
,
0000
0000
0000
0000
,
0000
0000
0000
0000
,
0000
0000
0000
0000
,
0000
0000
0000
0000
,
0000
0000
0000
0000
,
0001
0000
0000
0000
1000
0100
0010
0001
,
0000
0000
0100
0010
,
1000
0000
0000
0000
0001
0010
0100
1000
,
0000
0000
0000
0010
0000
0100
0010
0000
,
1000
0000
0000
0000
0001
0010
0100
1000
,
0000
0000
0010
0100
,
0001
0000
0000
0000
1000
0100
1000
0001
,
0000
0010
0000
0001
0000
1000
0100
0000
,
0010
0000
0010
0000
0001
0100
0010
1000
,
0100
0000
0100
0000
1000
0001
0100
0000
,
0010
0000
0010
0000
1000
0001
0100
0010
,
0000
1000
0000
0001
0000
0100
0010
0000
,
1000
0100
1000
0000
0001
0100
0001
0000
,
1000
0100
0001
0000
0001
0100
1000
0000
,
0010
1000
0100
0010
0001
0100
0010
1000
,
0000
1000
0000
0001
0000
0001
0100
0000
,
0110
1001
1100
0000
0001
0100
1000
0000
,
0110
0000
0101
0000
1000
0100
0001
0000
,
0110
0000
1010
0000
0000
0010
0000
0010
,
0000
1000
0000
0001
0001
0000
1000
0100
,
0001
0000
0100
1000
0010
0100
0000
0001
,
0010
0000
0001
0100
0010
0100
0000
0010
,
1000
0000
0100
0001
0100
1000
0000
0001
,
0100
0010
0100
0001
1000
0010
0100
0000
,
0100
0000
0001
0010
0001
1000
0010
0000
,
0010
0000
0100
0010
1000
0000
0100
0000
,
0100
0000
0010
0100
0010
0001
0000
0010
,
0000
0010
0000
0100
1000
0000
0010
0000
,
0010
0000
1000
0100
1000
0001
0100
0000
,
0100
0000
0010
0100
0001
0000
0010
0000
,
0010
0000
0100
0010
0100
1000
0000
1000
,
0010
0100
0000
0100
0100
0000
0001
0010
,
0001
1000
0010
0100
0001
1000
0100
0000
,
0010
0001
0010
0100
1000
0000
0010
1000
,
0010
0100
0010
0001
0010
0100
0000
0010
,
0000
1000
0000
0001
0001
0000
1000
0010
,
1000
0001
0010
0100
1000
0001
0100
0000
,
0010
1000
0010
0100
0001
0000
0010
0001
,
0010
0100
0010
1000
0010
0100
0000
0001
,
0100
1000
0000
0010
0010
0000
2001
0000
,
0100
0000
0100
3002
,
0100
0000
0100
0023
,
0100
0000
0130
1000
,
0100
0010
0001
1000
,
0010
0100
0001
1000
0100
0000
0010
0000
,
0001
0100
0010
1000
0010
0000
1000
0000
,
1100
0001
0101
0010
,
0100
2002
3003
0100
,
0000
0000
0001
0010
0100
1000
0000
0000
,
0000
0010
0100
0001
,
0000
0000
1000
0010
1000
0100
0000
0000
,
0000
0010
0000
0100
0010
0000
0001
0000
,
0001
0100
0100
1000
,
1000
0000
0010
0000
0010
0000
0001
1000
,
0010
0100
0001
0010
0100
1100
0000
1010
,
0000
0101
0000
0100
0010
0000
1001
0010
,
1000
0100
0010
0001
1000
0010
0100
0000
,
1000
0100
0001
0000
0010
0001
0010
0100
,
1000
0001
0100
0010
0000
0110
0000
1001
,
0000
0100
0010
0000
0001
1000
0100
0010
,
0001
0100
0010
1000
0001
0010
0100
0000
,
0001
0100
1000
0000
0010
1000
0010
0100
,
0001
1000
0100
0010
0000
0110
0000
1001
,
0000
0100
0010
0000
1000
0100
0010
0100
,
1000
0100
0010
0100
1000
0001
0000
0010
,
0000
0010
0100
1000
0001
0100
0010
0100
,
0001
0100
0010
0100
0001
1000
0000
0100
,
0000
0010
0100
1000
1100
0000
0011
0000
,
0001
0010
0100
1000
0001
1000
0000
0100
,
0000
0100
0010
0000
0101
0000
1010
0000
,
1000
0010
0100
0001
1000
0001
0000
0100
,
0000
0100
0010
0000
1010
0000
1000
0000
,
0011
0000
0001
0000
0100
0010
1000
0100
,
0010
0100
0001
0100
1000
0000
0000
0100
,
0000
0000
0020
0002
0000
0000
0000
0000
,
0000
0000
0000
0000
,
0000
0033
0000
0000
;

//---------------dance-single - NewbStepper-BSP----------------
#NOTES:
     dance-single:
     NewbStepper:
     Easy:
     7:
     0.316823,0.374740,0.078893,0.043829,0,253,244,9,5,0,0,0.316823,0.374740,0.078893,0.043829,0,253,244,9,5,0,0:
0000
0000
0000
0000
,
0000
0000
0000
0000
,
0000
0000
0000
0000
,
0000
0000
0000
0000
,
0000
0000
0000
0000
,
0000
0000
0000
0000
,
0000
0000
0000
0000
,
0000
0000
0000
0000
,
0000
0000
0000
0000
,
1001
0000
0100
0010
,
0001
0000
0100
0010
,
1000
0000
0001
0010
,
0001
0000
1000
1000
,
0100
0000
0010
0100
,
1000
0000
0010
0100
,
0001
0000
1000
0010
,
1000
0000
0001
0001
,
0100
0000
0010
0000
,
1000
0000
0001
0000
,
0100
0000
0010
0000
,
1000
1000
0001
0001
,
1000
0100
0010
0001
,
1000
0010
0100
0001
,
0010
0000
0100
0000
1000
0000
0000
0001
,
0000
0001
0000
1000
0000
0000
0110
0000
,
0001
1000
0100
1000
,
0000
0001
0100
0001
,
0000
0000
1000
0000
0000
0010
0000
0010
,
0000
0100
0000
0100
0010
0000
1000
0000
,
0000
0001
0100
0001
,
0000
1000
0100
1000
,
0000
0000
0001
0000
0000
0100
0000
0000
,
0010
0010
0010
1000
,
1000
0001
0010
1000
,
0010
0001
0100
0010
,
0000
0000
1010
0000
0000
0100
0000
0100
,
0000
0001
0000
0010
0010
0000
0001
0000
,
0001
1000
0100
0001
,
0100
1000
0010
0100
,
0000
0000
0101
0000
0000
0010
0000
1000
,
0000
0001
0000
0100
0100
0000
0001
0000
,
0001
1000
0010
0001
,
0010
1000
0100
0010
,
0000
0000
0011
0000
0000
0100
0000
0100
,
0000
1000
0000
0010
0010
0000
1000
0000
,
1000
0001
0100
1000
,
0100
0001
0010
0100
,
0000
0000
1100
0000
0000
0010
0000
0001
,
0000
1000
0000
0100
0100
0000
0020
0000
,
0000
0030
0001
0000
,
1000
0000
0001
0000
,
1000
0000
0001
0100
,
0010
0100
0010
1000
,
0001
0000
1000
0000
,
0001
0000
1000
0000
,
0001
0100
0100
0010
,
0010
2000
3000
0001
,
0000
1000
0100
1000
,
0000
0001
0100
0001
,
0000
0100
0010
0100
,
0000
0010
0010
1000
,
0000
0001
0100
0001
,
0000
1000
0100
1000
,
0000
0000
0100
0000
0000
0010
0000
0010
,
0000
0001
0000
0100
0010
0000
1001
0000
,
0100
1000
0010
0000
,
0100
0001
0010
0000
,
1000
0010
0001
0100
,
0010
1000
0001
0000
,
0100
0001
0010
0000
,
0100
1000
0010
0000
,
0001
0010
1000
0100
,
0010
0001
0200
0000
,
0010
0000
1000
0010
,
0001
0310
2000
0000
,
0001
0000
3010
0100
,
0001
0100
0010
0010
,
1000
0100
0001
0100
,
1000
0001
0010
0010
,
0001
0100
1000
0100
,
0001
0010
0011
0000
,
1100
0000
0010
1000
,
0010
0000
0001
0000
0100
0000
0000
0100
,
0000
0000
0100
0200
0000
0000
0000
0000
,
0000
0000
0000
0000
,
0000
0000
0300
0000
;

//---------------dance-single - NewbStepper-bSP----------------
#NOTES:
     dance-single:
     NewbStepper:
     Beginner:
     4:
     0.195353,0.337266,0.035063,0.026298,0,156,152,4,3,0,0,0.195353,0.337266,0.035063,0.026298,0,156,152,4,3,0,0:
0000
0000
0000
0000
,
0000
0000
0000
0000
,
0000
0000
0000
0000
,
0000
0000
0000
0000
,
0000
0000
0000
0000
,
0000
0000
0000
0000
,
0000
0000
0000
0000
,
0000
0000
0000
0000
,
0000
0000
0000
0000
,
0001
0000
0000
0000
,
1000
0000
0000
0000
,
0100
0000
0000
0000
,
0010
0000
0000
0000
,
0001
0000
0000
0000
,
1000
0000
0000
0000
,
0010
0000
0000
0000
,
0000
0000
0100
0100
,
0001
0000
1000
1000
,
1000
0000
0100
0100
,
0100
0000
0010
0010
,
0010
0000
0001
0001
,
1000
0000
0001
0001
,
0001
0000
0100
0100
,
0100
0000
0010
0010
,
0010
0000
1000
0000
,
0001
0000
0000
0000
,
1000
1000
0000
0000
,
0100
0100
0000
0000
,
0000
0000
0000
0000
,
0001
0001
0000
0000
,
0010
0010
0000
0000
,
1000
0000
1000
0000
0000
0110
0000
0000
,
0000
0000
0000
1000
,
0000
1000
0000
0010
,
0000
0010
0000
0100
,
0000
0100
0000
0001
,
0001
0001
0001
0001
,
0000
0001
0000
0010
,
0000
0010
0000
0100
,
0000
0100
0000
1000
,
1000
1000
1000
1000
,
0000
0100
0000
0001
,
0000
0100
0000
1000
,
0000
0010
0000
0100
,
0100
0100
0100
0100
,
0000
0001
0000
0010
,
0000
1000
0000
0010
,
0000
0001
0000
0100
,
0100
0100
0100
0200
,
0300
0000
0000
0000
,
0000
0000
0000
0000
,
0000
0000
0000
0000
,
0000
0000
0000
0000
,
0000
0000
0000
0000
,
0000
0000
0000
0000
,
0000
0000
0000
0000
,
0000
0000
0000
0010
,
0000
1000
1000
0000
,
0000
0001
0001
0000
,
0000
0100
0100
0000
,
0000
0010
0010
0010
,
0000
1000
1000
0000
,
0000
0001
0001
0000
,
0000
0000
0100
0000
0000
0010
0000
0010
,
0000
0100
0000
0100
0000
0000
0001
0000
,
0001
0000
0010
0000
,
0010
0000
0100
0000
,
0100
0000
1000
1000
,
1000
0000
1000
0000
,
0010
0000
0010
0000
,
0100
0000
0100
0000
,
0001
0000
0100
0100
,
0100
0000
0010
0000
,
1000
0000
0010
0010
,
0010
0010
0010
0000
,
0100
0000
0001
0001
,
0001
0001
0001
0000
,
1000
0000
0010
0010
,
0010
0000
1000
0000
,
0001
0000
0010
0010
,
0010
0000
1001
0000
,
0110
0000
1000
1000
,
0001
0001
0100
0000
,
0000
2002
0000
0000
,
0000
0000
0000
0000
,
0000
0000
3003
0000
;

//---------------dance-double - NewbStepper-EDP----------------
#NOTES:
     dance-double:
     NewbStepper:
     Hard:
     15:
     0.745098,0.934111,0.552249,0.070127,0.262976,595,532,63,8,0,0,0.745098,0.934111,0.552249,0.070127,0.262976,595,532,63,8,0,0:
// measure 0
00000000
00000000
00000000
00000000
,  // measure 1
00000000
00000000
00000000
00000000
,  // measure 2
00000000
00000000
00000000
00000000
,  // measure 3
00000000
00000000
00000000
00000000
,  // measure 4
00000000
00000000
00000000
00000000
,  // measure 5
00000000
00000000
00000000
00000000
,  // measure 6
00000000
00000000
00000000
00000000
,  // measure 7
00000000
00000000
00000000
00000000
,  // measure 8
00000000
00000000
00000000
00000000
,  // measure 9
00010000
00000000
00010000
00000000
00001000
00010000
00100000
01000000
,  // measure 10
00100000
00100000
10000000
01000000
,  // measure 11
00010000
00000000
00010000
00000000
00001000
00000100
00000001
00000100
,  // measure 12
00000010
00000010
00000100
00000100
,  // measure 13
00001000
00000000
00001000
00000000
00010000
00001000
00000010
00000100
,  // measure 14
00000010
00000010
00000001
00000100
,  // measure 15
00001000
00000000
00001000
00000000
00010000
01000000
10000000
01000000
,  // measure 16
00100000
00000000
00000000
00001000
00000000
00010000
00001000
00000000
,  // measure 17
00010000
00000100
00000010
00000001
00000100
00000010
00001000
00000100
,  // measure 18
00000001
00000100
00001000
00000001
00000100
00001000
00010000
00000000
,  // measure 19
00100000
10000000
01000000
00010000
01000000
00100000
00001000
00010000
,  // measure 20
01000000
10000000
00100000
01000000
00010000
00100000
00001000
00000000
,  // measure 21
00010000
00001000
00000100
00000001
00000010
00000001
00001000
00000010
,  // measure 22
00000100
00001000
00010000
01000000
10000000
00100000
01000000
00000000
,  // measure 23
00010000
00100000
00010000
00000000
10000000
00000000
01000000
00000000
00010000
00001000
00010000
00001000
00010000
00000000
00011000
00000000
,  // measure 24
00000000
00001100
00000000
00000110
00000000
00001001
00001001
00000000
,  // measure 25
00001100
00000000
00000010
00000000
00000001
00000000
00000100
00000010
00000100
00000000
00001000
00000000
00010000
00000000
00001000
00000000
,  // measure 26
00000010
00000000
00000100
00000000
00010000
00001000
00010000
00000000
01000000
00000000
00100000
00000000
10000000
00000000
00100000
00000000
,  // measure 27
00010000
00000000
10000000
00000000
01000000
00100000
01000000
00000000
00010000
00000000
00011000
00000000
00000000
00000000
00001010
00000000
,  // measure 28
00000000
00000011
00000000
00000100
00001000
00000000
01010000
00100000
,  // measure 29
10000000
00100000
10000000
00000000
00100000
00010000
00100000
00000000
00010000
00000000
00001000
00000000
00000100
00000000
00000001
00000000
,  // measure 30
00000010
00000001
00000010
00000000
00001000
00000010
00001000
00000000
00010000
00000000
00001000
00000000
00000100
00000000
00000001
00000000
,  // measure 31
00000010
00000100
00000010
00000000
00001000
00010000
00001000
00010000
00001000
00000000
00011000
00000000
00000000
00000000
00010000
00000000
,  // measure 32
01000000
10000000
00010000
00100000
01000000
00000000
11000000
00000000
,  // measure 33
10010000
00000000
00000000
00000000
00100000
00000000
10000000
00010000
10000000
00000000
00100000
00000000
01000000
00000000
00001000
00000000
,  // measure 34
00010000
00000000
00001000
00000000
00000100
00000001
00000100
00000000
00000010
00000000
00000000
00000000
00001000
00000000
00000001
00000000
,  // measure 35
00000010
00001000
00010000
00100000
10000000
11000000
00000000
01010000
,  // measure 36
00000000
00011000
00000000
00001100
00001100
00000000
00000101
00000000
,  // measure 37
00001001
00000000
00000000
00000000
00000010
00000000
00000001
00001000
00000001
00000000
00000010
00000000
00000100
00000000
00010000
00000000
,  // measure 38
00001000
00000000
00010000
00000000
01000000
10000000
01000000
00000000
00100000
00000000
00000000
00000000
00010000
00000000
10000000
00000000
,  // measure 39
00100000
00010000
00001000
00000010
00000001
00000101
00000000
00010010
,  // measure 40
00001000
00011000
00000000
01010000
01100000
00000000
10000000
01000000
,  // measure 41
00010000
00000000
00001000
00000000
00100000
00010000
00100000
00000000
00001000
00010000
00001000
00000000
00000100
00000000
00000001
00000000
,  // measure 42
00000010
00000000
00000100
00000000
00001000
00000010
00001000
00000000
00000001
00000010
00000001
00000000
00000100
00000000
00001000
00000000
,  // measure 43
00010000
00000000
01000000
00000000
10000000
00000000
00100000
10000000
01000000
00000000
11000000
00000000
00000000
00000000
01010000
00000000
,  // measure 44
00000000
00011000
00000000
00001100
00000110
00000000
00000001
00000100
,  // measure 45
00001000
00000000
00010000
00000000
00000010
00001000
00000010
00000000
00010000
00001000
00010000
00000000
01000000
00000000
10000000
00000000
,  // measure 46
00100000
00000000
01000000
00000000
00010000
00100000
00010000
00000000
10000000
00100000
10000000
00000000
01000000
00000000
00010000
00000000
,  // measure 47
00001000
00000000
00000100
00000000
00000001
00000000
00000010
00000001
00000100
00000000
00000101
00000000
00000000
00000000
00001010
00000000
,  // measure 48
00010000
00011000
00000000
01010000
11000000
00000000
00020000
00000000
,  // measure 49
10000000
00000000
10000000
02030000
,  // measure 50
00001000
00000000
00001000
03020000
,  // measure 51
00000010
00000000
00000010
00032000
,  // measure 52
00000001
00000000
00003001
00001001
,  // measure 53
00000010
00000000
00000000
00000000
00001000
00010000
00001000
00000000
00100000
00000000
00000000
00000000
10010000
00000000
00000000
00000000
,  // measure 54
01000000
00000000
00000000
00000000
00010000
00001000
00010000
00000000
00000100
00000000
00000000
00000000
00001001
00000000
00000000
00000000
,  // measure 55
00000010
00000000
00000000
00000000
00001000
00010000
00001000
00000000
00100000
00000000
00000000
00000000
01000000
00000000
00000000
00000000
,  // measure 56
10000000
20020000
30030000
01000000
,  // measure 57
01000000
00000000
00010000
00100000
01000000
00010000
00001000
00000000
,  // measure 58
00001000
00010000
00000100
00000010
,  // measure 59
00000001
00000000
00000100
00000010
00001000
00000100
00010000
00000000
,  // measure 60
00010000
00000000
00001000
00010000
01000000
00000000
10000000
00100000
,  // measure 61
10000000
00100000
00010000
00001000
00010000
00001000
00000100
00000001
,  // measure 62
00000100
00000000
00000001
00000000
00000010
00000000
00001000
00000000
00000010
00000000
00001000
00000000
00010000
00001000
00010000
00001000
,  // measure 63
00010000
00001000
00010000
00001000
00010000
00001000
00010000
00001000
00010000
00000000
00011000
00000000
00000000
00000000
01001000
00000000
,  // measure 64
00000000
01100000
00000000
10100000
10010000
00000000
00100000
01000000
,  // measure 65
10000000
00010000
10000000
00000000
01000000
00100000
01000000
00000000
00010000
00000000
00001000
00000000
00000100
00000000
00000001
00000000
,  // measure 66
00000010
00000001
00000100
00001000
00000001
00000010
00001000
00000100
,  // measure 67
00010000
00000000
00001000
00100000
00010000
00000000
01010000
00000000
00000000
00000000
11000000
00000000
00000000
00000000
10100000
00000000
,  // measure 68
00000000
00110000
00011000
00000000
00000100
00001000
00000010
00000100
,  // measure 69
00000001
00001000
00000001
00000000
00000100
00000010
00000100
00000000
00001000
00000000
00010000
00000000
01000000
00000000
10000000
00000000
,  // measure 70
00100000
10000000
01000000
00010000
10000000
00100000
00010000
01000000
,  // measure 71
00001000
00000000
00010000
00000010
00001000
00000000
00001100
00000000
00000000
00000000
00000101
00000000
00000010
00000000
00001010
00000000
,  // measure 72
00000000
00011000
00011000
00000000
00000010
00000100
00000010
00001000
,  // measure 73
00000001
00000010
00000001
00000010
00000001
00000000
00000100
00000000
00001000
00000000
00010000
00001000
00010000
00000000
00100000
01000000
,  // measure 74
00100000
00000000
10000000
00100000
10000000
00000000
00010000
00100000
00010000
00000000
01000000
00000000
00100000
00000000
10000000
00000000
,  // measure 75
00010000
01000000
00010000
01000000
00010000
00000000
01010000
00000000
00000000
00000000
11000000
00000000
00000000
00000000
10100000
00000000
,  // measure 76
00000000
00010000
00001000
00000010
00000001
00000000
00000101
00000000
,  // measure 77
00000100
00000000
00001000
00000000
00010000
00000000
00100000
00000000
10000000
00000000
00010000
00100000
00010000
00000000
10000000
00100000
,  // measure 78
10000000
00000000
00010000
00100000
00010000
00000000
01000000
00000000
01100000
00000000
00000000
00000000
11000000
00000000
00000000
00000000
,  // measure 79
01000000
00000000
00010000
00000000
00001000
00000000
00000100
00000000
00000001
00000000
00001000
00000010
00001000
00000000
00000001
00000010
,  // measure 80
00000001
00000000
00001000
00000010
00001000
00000000
00000100
00000000
00000010
00000000
00000001
00000000
00000100
00000000
00001000
00000000
,  // measure 81
00010000
01000000
10000000
00100000
01000000
00010000
10000000
01000000
,  // measure 82
00100000
00001000
00100000
00001000
00010000
00000100
00010000
00000100
00001000
00000000
00000000
00000000
00000000
00000000
00001010
00000000
,  // measure 83
00000000
00000000
00011000
00022000
00000000
00000000
00000000
00000000
,  // measure 84
00000000
00000000
00000000
00000000
,  // measure 85
00000000
00033000
00000000
00000000
;

//---------------dance-double - NewbStepper-DDP----------------
#NOTES:
     dance-double:
     NewbStepper:
     Medium:
     12:
     0.519690,0.672560,0.236678,0.061361,0,415,388,27,7,0,0,0.519690,0.672560,0.236678,0.061361,0,415,388,27,7,0,0:
// measure 0
00000000
00000000
00000000
00000000
,  // measure 1
00000000
00000000
00000000
00000000
,  // measure 2
00000000
00000000
00000000
00000000
,  // measure 3
00000000
00000000
00000000
00000000
,  // measure 4
00000000
00000000
00000000
00000000
,  // measure 5
00000000
00000000
00000000
00000000
,  // measure 6
00000000
00000000
00000000
00000000
,  // measure 7
00000000
00000000
00000000
00000000
,  // measure 8
00000000
00000000
00000000
00000000
,  // measure 9
00000001
00000000
00000000
00000000
00001000
00000100
00000010
00000001
,  // measure 10
00000000
00000000
00000100
00001000
,  // measure 11
00010000
00000000
00000000
00000000
00100000
10000000
00100000
01000000
,  // measure 12
00000000
00000000
00000000
00010000
00000000
01000000
00010000
00000000
,  // measure 13
10000000
00000000
00000000
00000000
00010000
00100000
01000000
10000000
,  // measure 14
00000000
00000000
00100000
00010000
,  // measure 15
00001000
00000000
00000000
00000000
00000100
00001000
00000100
00000010
,  // measure 16
00000000
00001000
00000000
00000001
00000000
00000100
00001000
00000000
,  // measure 17
00010000
00000000
00010000
00000000
00001000
00010000
00100000
01000000
,  // measure 18
00100000
00000000
00100000
00000000
10000000
00010000
01000000
00000000
,  // measure 19
00100000
00000000
00100000
00000000
00010000
00001000
00000100
00000010
,  // measure 20
00000000
00001000
00000000
00000001
00000000
00000100
00001000
00000000
,  // measure 21
00010000
00100000
00010000
00000000
00100000
10000000
00100000
00000000
,  // measure 22
10000000
01000000
10000000
00000000
01000000
00010000
01000000
00000000
,  // measure 23
00010000
00001000
00000100
00000000
00000001
00000010
00000100
00001000
,  // measure 24
00000000
00001000
00000000
00000001
00000000
00000001
00000100
00000000
,  // measure 25
00000110
00001001
00001100
00000000
00000001
00000100
00001000
00000000
,  // measure 26
00011000
00000000
01010000
00000000
00010000
01000000
10000000
00000000
,  // measure 27
01100000
00000000
10010000
00000000
00000000
00100000
00000000
00100000
,  // measure 28
00000000
00010000
00000000
10000000
10000000
00000000
01000000
00010000
,  // measure 29
00001000
00000000
00010000
00001000
00010000
00100000
00000000
00010000
,  // measure 30
00001000
00000000
00000010
00001000
00010000
00001000
00000000
00000100
,  // measure 31
00000001
00000000
00000100
00001000
00010000
01000000
00000000
10000000
,  // measure 32
00100000
00010000
00001000
00000100
00000001
00000000
00000010
00000000
,  // measure 33
00000010
00000000
00000001
00000010
00000100
00001000
00000100
00000000
,  // measure 34
00000010
00000000
00001000
00010000
00100000
00000000
10000000
00000000
,  // measure 35
01000000
00010000
01000000
00100000
00010000
00100000
00000000
01000000
,  // measure 36
00000000
10000000
00000000
00010000
01000000
00000000
00100000
00000000
,  // measure 37
00100000
00000000
10000000
00100000
01000000
00010000
01000000
00000000
,  // measure 38
00100000
00000000
00010000
00001000
00000010
00000000
00000001
00000000
,  // measure 39
00000100
00001000
00000100
00000010
00001000
00000010
00000000
00000100
,  // measure 40
00001000
00010000
00000000
00001000
00001000
00000000
00100000
00000000
,  // measure 41
00010000
00000000
10000000
01000000
00100000
01000000
10000000
01000000
,  // measure 42
00010000
00000000
00001000
00000100
00000001
00000000
00000010
00000000
,  // measure 43
00000010
00000000
00000001
00000100
00000010
00001000
00000000
00000100
,  // measure 44
00010000
00001000
00000000
00000100
00000100
00000000
00000010
00000000
,  // measure 45
00001000
00000000
00000001
00000100
00000010
00000100
00000001
00000100
,  // measure 46
00001000
00000000
00010000
01000000
10000000
00000000
00100000
00000000
,  // measure 47
00100000
00000000
10000000
01000000
00010000
00001000
00000000
00100000
,  // measure 48
00010000
01000000
00000000
00100000
00100000
00000000
20010000
00000000
,  // measure 49
01000000
00000000
01000000
30020000
,  // measure 50
01000000
00000000
01000000
00032000
,  // measure 51
00000010
00000000
00003010
00001000
,  // measure 52
00000100
00000010
00000001
00001000
,  // measure 53
00001010
00000000
00000001
00000100
00001000
00000000
00010000
00000000
,  // measure 54
00011000
00000000
00001000
00010000
01000000
00000000
00100000
00000000
,  // measure 55
11000000
00100000
01010000
00001000
,  // measure 56
00010000
00022000
00033000
00000100
,  // measure 57
00000000
00000000
00000001
00000010
00000100
00001000
00000000
00000000
,  // measure 58
00000000
00000010
00010000
00001000
,  // measure 59
00000000
00000000
00100000
00010000
00100000
01000000
00000000
00000000
,  // measure 60
00000000
10000000
00000000
01000000
10000000
00000000
00010000
00000000
,  // measure 61
00010000
10000000
10000000
00100000
,  // measure 62
00100000
00000000
00010000
00000000
00010000
00000000
00001000
00010000
,  // measure 63
00000010
00000100
00000001
00000010
00000100
00001100
00000000
00001010
,  // measure 64
00000000
00000101
00000000
00000100
00000010
00000000
00001001
00000010
,  // measure 65
00000001
00000100
00000010
00001000
00000001
00000100
00001000
00000000
,  // measure 66
00010000
01000000
10000000
00000000
00100000
10000000
00100000
01000000
,  // measure 67
00010000
10000000
01000000
00010000
00000000
00011000
00000000
00001010
,  // measure 68
00000000
00000100
00000010
00000000
00000001
00001000
00000010
00000100
,  // measure 69
00000001
00000010
00000100
00001000
00000001
00000010
00001000
00000000
,  // measure 70
00010000
00100000
10000000
00000000
01000000
10000000
01000000
00100000
,  // measure 71
00010000
10000000
00100000
00010000
00000000
00011000
00000000
00001100
,  // measure 72
00000000
00000100
00000010
00000000
00001000
00000001
00000100
00000001
,  // measure 73
00001000
00000001
00000100
00001000
00000000
00010000
00100000
10000000
,  // measure 74
00000000
01000000
00100000
00000000
00010000
10000000
00010000
01000000
,  // measure 75
00010000
10000000
01000000
00010000
00000000
00001000
00000010
00000001
,  // measure 76
00000000
00000100
00000010
00000000
00001010
00000000
00000101
00000000
,  // measure 77
00000010
00000001
00000100
00001000
00000000
00000100
00001000
00010000
,  // measure 78
00000000
00100000
10000000
00000000
00110000
00000000
11000000
00000000
,  // measure 79
00100000
10000000
01000000
00010000
00000000
01000000
00010000
00001000
,  // measure 80
00000000
00000010
00000001
00000000
00000011
00000000
00001000
00000000
,  // measure 81
00001010
00000000
00001000
00000000
00000100
00000010
00000001
00000100
,  // measure 82
00000010
00000100
00001000
00010000
01000000
00000000
00000000
00100000
,  // measure 83
00000000
00000000
00020000
20000000
00000000
00000000
00000000
00000000
,  // measure 84
00000000
00000000
00000000
00000000
,  // measure 85
00000000
30030000
00000000
00000000
;

//---------------dance-double - NewbStepper-BDP----------------
#NOTES:
     dance-double:
     NewbStepper:
     Easy:
     7:
     0.315571,0.373645,0.078893,0.043829,0,252,243,9,5,0,0,0.315571,0.373645,0.078893,0.043829,0,252,243,9,5,0,0:
// measure 0
00000000
00000000
00000000
00000000
,  // measure 1
00000000
00000000
00000000
00000000
,  // measure 2
00000000
00000000
00000000
00000000
,  // measure 3
00000000
00000000
00000000
00000000
,  // measure 4
00000000
00000000
00000000
00000000
,  // measure 5
00000000
00000000
00000000
00000000
,  // measure 6
00000000
00000000
00000000
00000000
,  // measure 7
00000000
00000000
00000000
00000000
,  // measure 8
00000000
00000000
00000000
00000000
,  // measure 9
00011000
00000000
01000000
00100000
,  // measure 10
10000000
00000000
01000000
00100000
,  // measure 11
00010000
00000000
10000000
00100000
,  // measure 12
10000000
00000000
01000000
01000000
,  // measure 13
00010000
00000000
00000100
00000010
,  // measure 14
00000001
00000000
00000100
00000010
,  // measure 15
00001000
00000000
00000001
00000010
,  // measure 16
00000001
00000000
00000100
00000100
,  // measure 17
00001000
00000000
00100000
00000000
,  // measure 18
00010000
00000000
01000000
00000000
,  // measure 19
00100000
00000000
10000000
00000000
,  // measure 20
00010000
00100000
00001000
00010000
,  // measure 21
00000100
00001000
00000001
00000100
,  // measure 22
00000010
00001000
00000100
00010000
,  // measure 23
00001000
00000000
00100000
00000000
00010000
00000000
00000000
10000000
,  // measure 24
00000000
10000000
00000000
00010000
00000000
00000000
01100000
00000000
,  // measure 25
10000000
00010000
01000000
00010000
,  // measure 26
00000000
10000000
01000000
10000000
,  // measure 27
00000000
00000000
00100000
00000000
00000000
00010000
00000000
00010000
,  // measure 28
00000000
00001000
00000000
00001000
00000010
00000000
00000001
00000000
,  // measure 29
00000000
00001000
00000100
00001000
,  // measure 30
00000000
00000001
00000100
00000001
,  // measure 31
00000000
00000000
00001000
00000000
00000000
00000100
00000000
00000000
,  // measure 32
00010000
00010000
00010000
00001000
,  // measure 33
00001000
00010000
00100000
10000000
,  // measure 34
00100000
00010000
00001000
00000100
,  // measure 35
00000000
00000000
00000101
00000000
00000000
00000010
00000000
00000010
,  // measure 36
00000000
00000001
00000000
00000100
00000100
00000000
00001000
00000000
,  // measure 37
00001000
00010000
01000000
10000000
,  // measure 38
01000000
00010000
00001000
00000010
,  // measure 39
00000000
00000000
00000101
00000000
00000000
00000010
00000000
00010000
,  // measure 40
00000000
00001000
00000000
01000000
01000000
00000000
00010000
00000000
,  // measure 41
00010000
10000000
00100000
00010000
,  // measure 42
00001000
00010000
01000000
10000000
,  // measure 43
00000000
00000000
11000000
00000000
00000000
00100000
00000000
00001000
,  // measure 44
00000000
00010000
00000000
00000100
00000100
00000000
00001000
00000000
,  // measure 45
00001000
00000001
00000010
00001000
,  // measure 46
00010000
00001000
00000100
00000001
,  // measure 47
00000000
00000000
00000101
00000000
00000000
00000010
00000000
00010000
,  // measure 48
00000000
00001000
00000000
01000000
01000000
00000000
00200000
00000000
,  // measure 49
00000000
00300000
10000000
00000000
,  // measure 50
01000000
00000000
00010000
00000000
,  // measure 51
00001000
00000000
00000100
00000010
,  // measure 52
00000100
00000010
00001000
00000000
,  // measure 53
00000001
00000000
00000100
00000000
,  // measure 54
00001000
00000000
00010000
00000000
,  // measure 55
01000000
01000000
00100000
00100000
,  // measure 56
00010000
20000000
30000000
00010000
,  // measure 57
00000000
10000000
01000000
10000000
,  // measure 58
00000000
00010000
01000000
00010000
,  // measure 59
00000000
00100000
00001000
00100000
,  // measure 60
00000000
00001000
00010000
00001000
,  // measure 61
00000000
00000100
00000010
00000100
,  // measure 62
00000000
00000001
00000100
00000001
,  // measure 63
00000000
00000000
00001000
00000000
00000000
00000010
00000000
00000010
,  // measure 64
00000000
00001000
00000000
00000001
00000100
00000000
00001001
00000000
,  // measure 65
00000100
00000001
00000010
00000000
,  // measure 66
00000100
00001000
00000010
00000000
,  // measure 67
00010000
00100000
10000000
01000000
,  // measure 68
00100000
00010000
10000000
00000000
,  // measure 69
01000000
10000000
00100000
00000000
,  // measure 70
01000000
00010000
00100000
00000000
,  // measure 71
00001000
00000010
00000001
00000100
,  // measure 72
00000010
00010000
00002000
00000000
,  // measure 73
00000010
00000000
00010000
00000100
,  // measure 74
00010000
00100000
00023000
00000000
,  // measure 75
00100000
00000000
00031000
01000000
,  // measure 76
00001000
00010000
01000000
10000000
,  // measure 77
00010000
01000000
10000000
01000000
,  // measure 78
00010000
00100000
00001000
00010000
,  // measure 79
00000100
00001000
00000001
00000100
,  // measure 80
00001000
00010000
00011000
00000000
,  // measure 81
01010000
00000000
00100000
10000000
,  // measure 82
00100000
00000000
00010000
00000000
00001000
00000000
00000000
00010000
,  // measure 83
00000000
00000000
00001000
00020000
00000000
00000000
00000000
00000000
,  // measure 84
00000000
00000000
00000000
00000000
,  // measure 85
00000000
00030000
00000000
00000000
;
