#TITLE:SPEED BLADE;
#ARTIST:L.E.D.;
#BANNER:SPEED BLADE.png;
#BACKGROUND:SPEED BLADE-bg.png;
#MUSIC:SPEED BLADE.ogg;
#OFFSET:0.001;
#SAMPLESTART:12.499;
#SAMPLELENGTH:15;
#BPMS:0=192,40=384,168=192,200=384,328=192,360=384;

//---------------dance-single - NewbStepper-bSP----------------
#NOTES:
     dance-single:
     NewbStepper:
     Beginner:
     7:
     :
0000
0000
0000
0000
,
0000
0000
0000
0000
,
0000
0000
0000
0000
,
0000
0000
0000
0000
,
0000
0000
0000
0000
,
1000
0000
0000
0000
,
0001
0000
0000
0000
,
1000
0000
0000
0000
,
2002
0000
0000
3003
,
0000
0000
0000
0000
,
0001
0000
0000
0000
,
1000
0000
0100
0000
,
1000
0000
0000
0000
,
0001
0000
0100
0000
,
0001
0000
0000
0000
,
1000
0000
0010
0000
,
1000
0000
0000
0000
,
0001
0000
0010
0000
,
0001
0000
0000
0000
,
1000
0000
0100
0000
,
0001
0000
0000
0000
,
0001
0000
0100
0000
,
1000
0000
0010
0000
,
0001
0000
0010
0000
,
1000
0000
1000
0000
,
0001
0000
0001
0000
,
1001
0000
0000
0000
,
1000
0000
0010
0000
,
1000
0000
0010
0000
,
1000
0000
0010
0000
,
0100
0000
0000
0000
,
0001
0000
0010
0000
,
0001
0000
0010
0000
,
0001
0000
0010
0000
,
0100
0000
0000
0000
,
1000
0000
0010
0000
,
0001
0000
0000
0000
,
0001
0000
0010
0000
,
1000
0000
0100
0000
,
0001
0000
0100
0000
,
1000
0000
0010
0000
,
0100
0000
0001
0000
,
2002
0000
3003
0000
,
0220
0000
0330
0000
,
2002
0000
3003
0000
,
0010
0000
1000
0001
,
2002
0000
3003
0000
,
0220
0000
0330
0000
,
2002
0000
3003
0000
,
1001
0000
0000
0000
,
1000
0000
0000
0000
,
0001
0000
0000
0000
,
1000
0000
0100
0000
,
1000
0000
0100
0000
,
0010
0000
0000
0000
,
0100
0000
0000
0000
,
1000
0000
0100
0000
,
0010
0000
0001
0000
,
0010
0000
0000
0000
,
0001
0000
0000
0000
,
0100
0000
0000
0000
,
0010
0000
0000
0000
,
1000
0000
0000
0000
,
0100
0000
0000
0000
,
0010
0000
0000
0000
,
0001
0000
0000
0000
,
1001
0000
0000
0000
,
1000
0000
0000
0000
,
0001
0000
0100
0000
,
0001
0000
0100
0000
,
0010
0000
0000
0000
,
0100
0000
0000
0000
,
0001
0000
0100
0000
,
0010
0000
1000
0000
,
0010
0000
0000
0000
,
1000
0000
0000
0000
,
0100
0000
0000
0000
,
0010
0000
0000
0000
,
0001
0000
1000
0000
,
0100
0000
1000
0000
,
0001
0000
0100
0000
,
0001
0000
1000
0000
,
0001
0000
0000
0000
,
1000
0000
0000
0000
,
0001
0000
0000
0000
,
2002
0000
0000
3003
,
1000
0000
0000
0000
,
0001
0000
0000
0000
,
1000
0000
0000
0000
,
2002
0000
0000
3003
,
0001
0000
0000
0000
,
1000
0000
0100
0000
,
1000
0000
0010
0000
,
0100
0000
0000
0000
,
0001
0000
0000
0000
,
0010
0000
0001
0000
,
1000
0000
0001
0000
,
0100
0000
0000
0000
,
0110
0000
0000
0000
,
1001
0000
0000
0000
,
0001
0000
1000
0000
,
0001
0000
0000
0000
,
1000
0000
0010
0000
,
1000
0000
0001
0000
,
0010
0000
0001
0000
,
0100
0000
0010
0000
,
1000
0000
0000
0000
,
0001
0000
0100
0000
,
0001
0000
0000
0000
,
1000
0000
0100
0000
,
1000
0000
0000
0000
,
0001
0000
0010
0000
,
0001
0000
0000
0000
,
1000
0000
0010
0000
,
1000
0000
0000
0000
,
0001
0000
0100
0000
,
1000
0000
0000
0000
,
1000
0000
0100
0000
,
0001
0000
0010
0000
,
1000
0000
0010
0000
,
0001
0000
0001
0000
,
1000
0000
1000
0000
,
1001
0000
0000
0000
,
0001
0000
0100
0000
,
0010
0000
1000
0000
,
0001
0000
0100
0000
,
0010
0000
0000
0000
,
1000
0000
0100
0000
,
0010
0000
0001
0000
,
1000
0000
0100
0000
,
0010
0000
0000
0000
,
0001
0000
1000
0000
,
1001
0000
0000
0000
,
1000
0000
0001
0000
,
1000
0000
0100
0000
,
0010
0000
0001
0000
,
1000
0000
0010
0000
,
0100
0000
0001
0000
,
2002
0000
0000
0000
,
0000
0000
0000
0000
,
0000
0000
0000
3003
;

//---------------dance-single - NewbStepper-BSP----------------
#NOTES:
     dance-single:
     :
     Easy:
     11:
     :
0000
0000
0000
0000
,
0000
0000
0000
0000
,
0000
0000
0000
0000
,
0000
0000
0000
0000
,
0000
0000
0000
0000
,
0002
0000
0100
0000
0000
0103
0000
0000
,
2000
0000
0100
0000
0000
3100
0000
0000
,
0020
0000
0100
0000
0000
0130
0000
0000
,
1001
0001
0100
0010
,
2000
0000
0000
3000
,
0001
0000
0000
0000
,
1000
0000
0100
0000
,
0001
0000
0100
0000
,
1000
0001
1000
0001
,
0100
0000
0000
0000
,
0001
0000
0100
0000
,
1000
0000
0100
0000
,
0001
1000
0001
1000
,
0100
0000
0010
0000
,
0001
0000
0000
0001
0000
0000
0001
0000
,
0100
0000
0010
0000
,
1000
0000
0000
1000
0000
0000
1000
0000
,
0001
0000
0000
0100
0000
0000
0001
0000
,
1000
0000
0000
0100
0000
0000
1000
0000
,
0001
0000
0000
0100
0000
0000
0010
0000
,
1000
0000
0000
0100
0000
0000
0010
0000
,
0001
0000
1001
0000
,
0010
0000
1000
0000
,
0100
0000
0010
0000
,
0001
0000
0000
0100
0000
0000
0001
0000
,
0010
0000
1001
0000
,
0010
0000
0001
0000
,
0100
0000
0010
0000
,
1000
0000
0000
0100
0000
0000
1000
0000
,
0010
0000
0110
0000
,
1000
0000
0000
1000
0000
0000
0001
0000
,
0010
0000
0110
0000
,
0001
0000
0000
0001
0000
0000
1000
0000
,
0010
0000
0000
1000
0000
0000
0010
0000
,
0100
0000
0000
0001
0000
0000
0100
0000
,
1000
0000
0000
0100
0000
0000
0001
0000
,
0010
0000
0000
0001
0000
0000
0100
0000
,
0020
1000
0000
1000
,
0230
0001
0000
0001
,
0320
1000
0000
1000
,
0130
0100
0010
0010
,
1000
0000
0100
0000
1000
0000
0000
0000
0010
0000
0000
0010
0000
0000
1000
0000
,
0001
0000
0100
0000
0001
0000
0000
0000
0010
0000
0000
0010
0000
0000
0001
0000
,
2000
3100
0002
0103
,
0220
0000
0000
0330
,
0001
0000
1000
0000
,
0010
0000
0000
1000
0000
0000
0100
0000
,
0010
0000
0000
0001
0000
0000
0100
0000
,
1000
0000
0000
0100
0000
0000
0001
0000
,
1000
0000
0001
0000
,
0010
0000
0000
0001
0000
0000
0100
0000
,
0010
0000
0000
1000
0000
0000
0100
0000
,
0001
0000
0000
0100
0000
0000
1000
0000
,
0010
0000
1000
0100
,
0010
0000
0100
1000
,
0010
0000
0100
0001
,
0010
0000
0001
0100
,
0010
0000
0000
0010
0000
0000
0001
0000
,
0010
0000
0000
0010
0000
0000
1000
0000
,
0001
0000
0000
0001
0000
0000
0001
0000
,
1000
0100
0010
0001
,
1000
0000
0001
0000
,
0010
0000
0000
0001
0000
0000
0100
0000
,
0010
0000
0000
1000
0000
0000
0100
0000
,
0001
0000
0000
0100
0000
0000
1000
0000
,
0001
0000
1000
0000
,
0010
0000
0000
1000
0000
0000
0100
0000
,
0010
0000
0000
0001
0000
0000
0100
0000
,
1000
0000
0000
0100
0000
0000
0001
0000
,
0010
0000
0001
0100
,
0010
0000
0100
0001
,
0010
0000
0100
1000
,
0010
0000
1000
0100
,
0010
0000
0000
0010
0000
0000
1000
0000
,
0010
0000
0000
0010
0000
0000
0001
0000
,
1000
0100
1000
0100
,
0010
0001
0010
0001
,
2000
0000
0100
0000
0000
3100
0000
0000
,
0002
0000
0100
0000
0000
0103
0000
0000
,
0020
0000
0100
0000
0000
0130
0000
0000
,
1001
1000
0100
0010
,
0001
0100
0001
0000
0000
0202
0303
0000
,
1000
0100
1000
0000
0000
2200
3300
0000
,
0010
0100
0010
0000
0000
0220
0330
0000
,
2002
0000
0000
3003
,
0001
0000
0100
0000
,
1000
0000
0100
0000
,
0001
0000
0100
0000
,
1000
0000
0100
0000
,
0001
0100
1000
0000
,
1000
0100
0001
0000
,
0001
0100
0010
1000
,
0010
0100
0001
1000
,
0100
1000
0010
0000
,
0100
0001
0010
0000
,
0110
0000
1001
0000
,
0110
0000
1001
0000
,
0001
0000
0100
0000
,
0010
0000
1000
0000
,
0001
0100
0001
0100
,
0010
1000
0010
1000
,
0001
0000
0000
0000
,
1000
0000
0100
0000
,
0001
0000
0100
0000
,
1000
0001
1000
0001
,
0100
0000
0000
0000
,
0001
0000
0100
0000
,
1000
0000
0100
0000
,
0001
1000
0001
1000
,
0100
0000
0010
0000
,
0001
0000
0000
0001
0000
0000
0001
0000
,
0100
0000
0010
0000
,
1000
0000
0000
1000
0000
0000
1000
0000
,
0001
0000
0000
0100
0000
0000
0001
0000
,
1000
0000
0000
0100
0000
0000
1000
0000
,
0001
0000
0000
0100
0000
0000
0010
0000
,
1000
0000
0000
0100
0000
0000
0010
0000
,
0001
0000
0000
0000
,
1000
0000
0000
1000
0000
0000
0100
0000
,
0001
0000
0000
0001
0000
0000
0100
0000
,
0010
0000
0000
0010
0000
0000
0001
0000
,
1000
0000
1001
0000
,
0001
0000
0000
0001
0000
0000
0100
0000
,
1000
0000
0000
1000
0000
0000
0100
0000
,
0001
0010
0100
1000
,
0001
0000
0101
0000
,
1000
0000
0000
0010
0000
0000
1000
0000
,
0100
0000
1100
0000
,
0001
0000
0000
0010
0000
0000
0001
0000
,
0100
0000
0000
0100
0000
0000
0010
0000
,
1000
0000
0000
1000
0000
0000
0100
0000
,
0001
0000
0000
0001
0000
0000
0100
0000
,
0010
0001
0100
0010
,
2000
0000
0000
0000
,
0000
0000
0000
0000
,
0000
0000
0000
3000
;

//---------------dance-single - NewbStepper-DSP----------------
#NOTES:
     dance-single:
     NewbStepper:
     Medium:
     14:
     :
0000
0000
0000
0000
,
0000
0000
0000
0000
,
0000
0000
0000
0000
,
0000
0000
0000
0000
,
0000
0000
0000
0000
,
1000
0000
1010
0000
0000
0101
0000
0100
,
0001
0000
0011
0000
0000
1100
0000
0001
,
0100
0000
0110
0000
0000
1001
0000
1000
,
0001
0100
1000
0100
0001
0010
1000
0010
,
0002
0000
0000
0003
,
1000
0000
1000
0000
,
0001
0000
0000
0100
0000
0000
0001
0000
,
0010
0000
0000
0100
0000
0000
1000
0000
,
0010
0100
1000
0100
,
0001
0000
0001
0000
,
1000
0000
0000
0100
0000
0000
1000
0000
,
0010
0000
0000
0100
0000
0000
0001
0000
,
0010
0100
0001
0100
,
1100
0000
1001
0000
,
0010
0000
0000
1000
0000
0000
0001
0000
,
0101
0000
1001
0000
,
0010
0000
0000
0001
0000
0000
1000
0000
,
0010
1000
0010
0100
,
0010
0001
0010
1000
,
0100
0001
0100
1000
,
0010
0000
0100
0000
0001
1000
0001
1000
,
0001
0000
1001
0000
,
0010
0001
0100
0010
,
1000
0100
0001
0100
,
1000
0010
0100
0001
,
1000
0000
1000
0000
,
0010
1000
0100
0010
,
0001
0100
1000
0100
,
0001
0010
0100
1000
,
0001
0000
1001
0000
,
0010
1000
0100
0010
,
0011
0000
1001
0000
,
0010
0001
0100
0010
,
1000
0001
0100
0100
,
0001
1000
0100
0100
,
1000
0000
0010
1000
0010
0000
0100
0000
,
0001
0010
0100
1000
,
2001
0000
0000
0000
3001
0000
0000
0000
0100
0000
0000
0010
0000
0000
1000
0000
,
1002
0000
0000
0000
1003
0000
0000
0000
0100
0000
0000
0010
0000
0000
0001
0000
,
2001
0000
3010
0000
0100
0001
0010
0000
,
0100
1000
0010
0000
1000
0100
0010
0001
,
1000
0010
0110
0000
0001
0100
0010
1000
,
0001
0010
0110
0000
1000
0100
0001
0100
,
1000
0000
0000
0010
0000
0000
0010
0000
0001
0000
0000
0010
0000
0000
0010
0000
,
2000
0000
0000
3000
,
0001
0000
0100
0010
,
1000
0000
0100
0010
,
0001
0000
0000
0100
0000
0000
0001
0000
,
1000
0100
0010
0001
,
1000
0000
0100
0010
,
0001
0000
0100
0010
,
1000
0000
0000
0100
0000
0000
1000
0000
,
0001
0100
0010
1000
,
0001
1000
0010
0001
,
0010
1000
0001
1000
,
0010
0100
0001
0100
,
1000
0100
0001
0010
,
1000
0001
0100
1000
,
0010
1000
0100
0001
,
0100
0010
0001
0100
,
1000
0001
0010
0100
,
0001
0000
1000
0100
,
0001
0000
1000
0010
,
0001
0000
1000
0100
,
0010
0000
0001
0000
1000
0010
1000
0010
,
1000
0000
0001
0100
,
1000
0000
0001
0010
,
1000
0000
0001
0100
,
0010
0000
1000
0000
0001
0100
0001
0100
,
0001
0100
0010
0001
,
1000
0100
0001
0010
,
1000
0001
0100
1000
,
0010
0001
1000
0100
,
0010
1000
0001
0010
,
1000
0001
0100
0010
,
0001
1000
0100
0001
,
0100
1000
0100
0010
,
0001
0000
0011
0000
0000
1100
0000
0100
,
1000
0000
1010
0000
0000
0101
0000
1000
,
0100
0000
0110
0000
0000
1001
0000
0001
,
1000
0100
0001
0100
1000
0010
0001
0010
,
1000
0100
0010
0000
0000
0022
0033
1000
,
0001
0100
0010
0000
0000
2020
3030
0001
,
1000
0100
0010
0000
0000
0220
0330
0000
,
2002
0000
0000
3003
,
1000
0000
0010
0000
,
1000
0000
0000
0010
0000
0000
1000
0000
,
0001
0000
0000
0010
0000
0000
0001
0000
,
1000
0100
0010
0001
,
1000
0000
1010
0000
,
0010
0100
0010
0000
,
1000
0010
1000
0010
,
0100
0001
0100
0001
,
1000
0100
0001
0000
,
0001
0100
1000
0000
,
0001
0100
1000
0000
,
1000
0100
0001
0000
,
0010
0000
0001
0000
,
0100
0000
0010
0000
,
1000
0100
0001
0100
,
1000
0000
0001
0000
0100
0010
0100
0010
,
0100
0000
0001
0000
,
1000
0000
0000
0100
0000
0000
1000
0000
,
0010
0000
0000
0100
0000
0000
0001
0000
,
0010
0100
0001
0100
,
1000
0000
1000
0000
,
0001
0000
0000
0100
0000
0000
0001
0000
,
0010
0000
0000
0100
0000
0000
1000
0000
,
0010
0100
1000
0100
,
0101
0000
1001
0000
,
0010
0000
0000
0001
0000
0000
1000
0000
,
1100
0000
1001
0000
,
0010
0000
0000
1000
0000
0000
0001
0000
,
0010
0001
0010
0100
,
0010
1000
0010
0001
,
0100
1000
0100
0001
,
0010
0000
0100
0000
1000
0001
1000
0001
,
1000
0000
1001
0000
,
0010
1000
0100
0001
,
1000
0010
0001
0100
,
0010
0000
1000
0000
0001
0100
0001
0100
,
0001
0000
0001
0000
,
0010
0001
0100
1000
,
0001
0010
1000
0100
,
0010
0000
0001
0000
1000
0100
1000
0100
,
1000
0000
1001
0000
,
0010
0001
0100
0010
,
1010
0000
1001
0000
,
0010
1000
0100
0010
,
0001
0001
0100
0100
,
0010
0010
1000
1000
,
0001
0000
1000
0100
1000
0000
0010
0000
,
0100
0001
0100
0000
0001
1000
0001
1000
,
0002
0000
0000
0000
,
0000
0000
0000
0000
,
0000
0000
0000
0003
;

//---------------dance-single - NewbStepper-ESP----------------
#NOTES:
     dance-single:
     NewbStepper:
     Hard:
     17:
     :
0000
0000
0000
0000
,
0000
0000
0000
0000
,
0000
0000
0000
0000
,
0000
0000
0000
0000
,
0000
0000
0000
0000
,
0001
0010
0022
0000
0033
2200
3300
1000
,
1000
0010
2020
0000
3030
0202
0303
0010
,
1000
0100
2200
0000
3300
0022
0033
0001
,
1000
0010
1000
0010
0100
0001
0100
0001
1000
0100
1000
0100
0010
0001
0010
0001
,
0200
0000
0000
0300
,
0001
0000
0001
0000
,
1000
0010
0100
0010
,
0001
0010
0100
1000
,
0100
0000
0001
0100
0010
0100
0001
1000
,
0100
0000
1000
0000
,
0001
0010
0100
0010
,
1000
0010
0100
1000
,
0010
0100
0001
0100
0010
1000
0010
0100
,
0001
0000
1001
0000
,
0011
0000
0000
0110
0000
0000
1100
0000
,
1000
0000
1001
0000
,
1010
0000
0000
0110
0000
0000
0101
0000
,
2000
0000
3000
0010
0001
0000
0010
0100
,
0002
0000
0003
0010
1000
0000
0010
0100
,
1000
0010
0100
0001
,
0010
0100
0010
0100
1000
0010
0100
0001
,
1000
0000
0010
0000
,
1000
0000
0001
0100
0001
0000
0010
0000
,
0001
0000
1000
0100
1000
0000
0001
0000
,
0100
0000
0010
1000
0001
0010
0100
1000
,
0001
0000
0010
0000
,
0001
0000
1000
0100
1000
0000
0010
0000
,
1000
0000
0001
0100
0001
0000
1000
0000
,
0100
0010
0001
0010
0100
1000
0100
0010
,
0001
0010
0011
0000
,
1000
0100
0010
0001
,
1000
0010
1010
0000
,
0001
0010
0100
1000
,
0001
0100
1000
0100
,
0001
0010
1000
0010
,
0001
0000
1000
0010
1000
0010
0100
0000
,
0001
0010
0001
0010
0100
1000
0100
1000
,
0001
1000
1020
0000
0130
1000
0100
0001
,
0010
0100
0120
0000
1030
0010
0001
0100
,
0001
0010
0021
0000
0031
0100
1000
0100
,
0001
0000
1000
0000
1000
0000
0001
0000
1000
0100
1000
0100
0010
0001
0010
0001
,
0100
0001
0021
0000
0130
0001
0100
1000
,
0010
0100
0120
0000
0031
0010
1000
0100
,
1000
0010
1000
0010
0100
0001
0100
0001
,
0010
0000
0001
0100
0001
0100
0001
0100
0010
0000
1000
0100
1000
0100
1000
0100
,
0010
0000
0001
0100
,
1000
0000
0001
0010
,
1000
0000
0000
0001
0000
0000
0100
0000
,
1000
0000
0100
0000
0001
0010
0100
1000
,
0001
0000
1000
0100
,
0001
0000
1000
0010
,
0001
0000
0000
1000
0000
0000
0100
0000
,
0001
0000
0100
0000
1000
0010
0100
0001
,
1000
0100
0010
1000
,
0001
0100
0010
0001
,
0100
1000
0100
0010
,
0001
0010
1000
0100
,
1100
0000
0000
1001
0000
0000
0011
0000
,
0101
0000
0000
1001
0000
0000
1100
0000
,
0110
0000
0000
1001
0000
0000
0011
0000
,
0110
0000
0000
1001
0000
0000
1010
0000
,
0010
0000
1000
0100
1000
0000
0010
0000
,
0100
0000
0001
0010
0001
0000
0100
0000
,
0010
0000
1000
0100
1000
0000
0001
0100
,
0001
1000
0100
0100
,
0010
0000
0001
0100
0001
0000
0010
0000
,
0100
0000
1000
0010
1000
0000
0100
0000
,
0010
0000
0001
0100
0001
0000
1000
0100
,
1000
0000
0001
0000
1000
0100
1000
0100
,
0020
0000
0031
0100
,
0102
0000
1003
0100
,
2100
0000
3001
1000
,
0100
0010
0001
0100
,
0010
0000
1000
0100
1000
0000
0001
0100
,
0001
0000
1000
0100
1000
0100
0010
0001
,
0010
0000
0001
0100
0001
1000
0001
0100
,
0010
1000
0001
0010
0001
1000
0010
0100
,
0002
1000
0020
0033
0100
0220
0330
0000
,
2000
0001
0020
3030
0100
0220
0330
0000
,
0002
0000
1000
0000
0200
0000
0303
0000
0010
0000
0220
0000
0330
0000
0001
0100
,
0001
0100
0001
0100
0010
0000
1000
0000
1000
0000
0010
0000
0001
0000
0010
0000
,
2000
0001
0020
3030
0100
0220
0330
0000
,
0002
1000
0020
0033
0100
0220
0330
0000
,
2000
0000
0001
0000
0020
0000
3030
0000
0100
0010
0100
0010
0100
0000
0000
0000
,
0001
0000
0100
0001
0100
0001
0100
0001
1000
0000
0100
1000
0100
1000
0100
1000
,
0001
0000
0001
0000
,
1000
0100
0001
0000
,
0001
0100
1000
0000
,
0010
1000
0100
0000
,
1100
0000
0011
0000
,
0001
0100
1000
0100
,
0001
0000
1000
0100
1000
0000
0100
0010
,
0100
0000
0010
0001
0010
0000
0001
0000
,
1000
0000
0001
0100
0001
0000
0100
0010
,
0100
0000
0010
1000
0010
0000
1000
0000
,
0001
0010
0011
0000
,
1000
0010
1010
0000
,
0100
0001
0010
0010
,
0100
1000
0010
0010
,
1000
0100
1000
0001
0100
0001
1000
0100
,
0010
0001
0100
0010
1000
0001
0010
0100
,
1000
0000
1000
0000
,
0001
0010
0100
0010
,
1000
0010
0100
0001
,
0100
0000
1000
0100
0010
0100
1000
0001
,
0100
0000
0001
0000
,
1000
0010
0100
0010
,
0001
0010
0100
0001
,
0010
0100
1000
0100
0010
0001
0010
0100
,
1000
0000
1001
0000
,
1010
0000
0000
0110
0000
0000
0101
0000
,
0001
0000
1001
0000
,
0011
0000
0000
0110
0000
0000
1100
0000
,
0002
0000
0003
0010
1000
0000
0010
0100
,
2000
0000
3000
0010
0001
0000
0010
0100
,
0001
0010
0100
1000
,
0010
0100
0010
0100
0001
0010
0100
1000
,
0001
0000
0100
0000
,
0010
0000
1000
0100
1000
0000
0001
0000
,
0010
0000
0001
0100
0001
0000
1000
0000
,
0001
0100
0010
1000
0001
0100
0010
1000
,
0001
0000
1001
0000
,
0010
0000
0001
0100
0001
0000
1000
0000
,
0010
0000
1000
0100
1000
0000
0001
0000
,
1000
0100
0010
0001
1000
0100
0010
0001
,
1000
0000
0010
0000
1000
0010
1000
0000
,
0001
0010
0001
0010
0001
0100
0010
1000
,
0001
0000
0010
0000
0001
0010
0001
0000
,
1000
0010
1000
0010
1000
0100
0010
0001
,
1000
0100
0001
0100
,
1000
0010
0001
0010
,
1000
0100
1000
0010
0100
0001
0010
0001
,
0100
0010
1000
0100
0010
0001
0100
0010
,
2000
0000
0000
0000
,
0000
0000
0000
0000
,
0000
0000
0000
3000
;

//---------------dance-single - NewbStepper-CSP----------------
#NOTES:
     dance-single:
     NewbStepper:
     Challenge:
     18:
     :
0000
0000
0000
0000
,
0000
0000
0000
0000
,
0000
0000
0000
0000
,
0000
0000
0000
0000
,
0000
0000
0000
0000
,
1000
0100
0220
0000
0330
2002
3003
0001
,
0101
0000
0220
0000
0330
2002
3003
0000
,
0001
0000
0100
0000
0220
0000
0000
0000
0330
0000
2002
0000
3003
0000
1000
0010
,
1000
0010
0010
0001
0100
1000
1000
0010
,
0200
0000
0000
0300
,
0101
0000
1001
0000
,
1010
0010
0100
0001
,
0011
0010
0100
1000
,
1001
0000
0001
0000
1000
0010
0100
0001
,
1000
0000
1001
0000
,
0011
0010
0100
1000
,
1010
0010
0100
0001
,
1000
0010
0100
0001
0010
0100
1000
0010
,
0100
0000
0101
0000
,
1001
0000
0000
1010
0000
0000
0110
0000
,
0101
0000
1010
0000
,
1001
0000
0000
0101
0000
0000
1001
0000
,
1000
0010
0000
1000
0010
0000
0100
0000
,
0001
0010
0000
0001
0010
0000
0100
0000
,
1000
0010
0000
1000
0010
0000
0100
0000
,
0001
0100
0001
1000
0100
1000
0001
0100
,
0010
0000
1001
0000
,
0001
0000
0100
0010
0100
0000
0001
0000
,
1000
0000
0100
0010
0100
0000
1000
0000
,
0001
0000
0100
0010
1000
0010
0100
0001
,
1000
0000
1001
0000
,
1000
0000
0100
0010
0100
0000
1000
0000
,
0001
0000
0100
0010
0100
0000
0001
0000
,
1000
0100
0010
0001
0100
0010
1000
0001
,
1000
0000
1001
0000
,
1010
0000
0000
1010
0000
0010
0100
0001
,
0010
0000
1001
0000
,
0011
0000
0000
0011
0000
0010
0100
1000
,
0010
1000
0000
0010
1000
0000
0100
0000
,
0010
0001
0000
0010
0001
0000
0100
0000
,
0010
0000
1000
0100
0010
0100
1000
0100
,
0001
0100
1000
0010
0100
0001
0010
0100
,
2000
0000
0001
0000
3100
0000
0000
0000
1000
0100
0000
1000
0100
0000
0010
0000
,
0002
0000
1000
0000
0103
0000
0000
0000
0001
0100
0000
0001
0100
0000
0010
0000
,
2000
0000
0001
0000
3100
0000
0000
0000
1000
0010
0000
0010
0100
0000
0001
0000
,
0011
0000
0000
0101
0000
0000
0110
0000
0010
1000
0010
1000
0100
0010
0001
0010
,
0200
0000
1000
0000
0310
0000
0000
0000
0011
0000
0000
0011
0000
0000
0101
0000
,
0200
0000
0001
0000
0310
0000
0000
0000
1010
0000
0000
1010
0000
0000
1100
0000
,
0011
0000
0000
0101
0000
0000
1001
0000
1010
0000
0000
1100
0000
0000
1001
0000
,
1000
0100
0010
0100
0001
0100
1000
0001
0100
0010
0100
1000
0100
0010
0001
0010
,
1000
0000
1100
0000
,
0101
0000
0110
0000
,
1000
0010
0010
0001
,
1000
0010
0010
0001
,
1001
0000
0101
0000
,
1100
0000
0110
0000
,
0001
0010
0010
1000
,
0001
0010
0010
1000
,
0100
0000
1000
0100
0000
1000
0100
0000
,
0010
0000
0001
0100
0000
0001
0100
0000
,
0010
0000
1000
0100
0000
1000
0100
0000
,
0010
0000
0001
0100
0000
0001
0100
0000
,
0110
0000
0000
1100
0000
0000
0101
0000
,
0110
0000
0000
0011
0000
0000
1010
0000
,
1001
0000
1000
0001
1000
0001
0100
0000
,
0001
0100
0010
1000
0001
0100
0010
1000
,
0001
0000
0000
0000
1000
0100
0010
0100
,
1000
0000
0000
0000
0001
0100
0010
0100
,
0001
0000
0000
1000
0000
0000
0001
0000
,
0100
0010
0100
0010
0100
1000
0100
0001
,
1000
0000
0000
0000
0001
0010
0100
0010
,
0001
0000
0000
0000
1000
0010
0100
0010
,
1000
0000
0000
0001
0000
0000
1000
0000
,
0001
0011
1000
1010
,
0010
0000
1000
0010
0000
1000
0010
0000
,
0001
0000
0010
0001
0000
0010
0001
0000
,
1000
0000
0100
0001
0000
0100
0001
0000
,
0010
0000
1000
0010
0000
1000
0010
0000
,
0001
0000
0100
1000
0000
0100
0001
0000
,
1000
0000
0100
0001
0000
0100
1000
0000
,
0010
0100
0001
0100
1000
0100
0001
0010
,
0100
1000
0010
1000
0100
0001
0100
1000
,
0001
0100
0220
0000
0330
2002
3003
1000
,
1100
0000
0220
0000
0330
2002
3003
0000
,
0001
0000
0100
0000
0220
0000
0000
0000
0330
0000
2002
0000
3003
0000
0001
0100
,
0001
0100
0001
0100
0010
0000
1000
0001
0000
1000
0000
0100
0010
0100
0001
0100
,
1000
0000
0100
0000
0020
0000
0100
0000
0130
0000
2002
0000
3003
0000
0001
0100
,
0001
0000
1000
0100
0010
0000
0220
0000
0330
0000
0001
0100
0020
0000
0030
0000
,
0100
0010
0100
0001
0010
0000
0100
1000
0000
0100
0001
0100
2000
0000
3000
0000
,
0001
0100
0001
1000
0100
0010
0001
0010
0100
0010
1000
0010
0100
0010
0001
1000
,
0010
0000
1010
0000
,
0101
0000
0000
0001
0000
0000
1000
0000
,
1100
0000
0000
1000
0000
0000
0001
0000
,
0011
0010
0100
1000
,
1001
0000
0011
0000
,
1100
1000
0001
0100
,
0010
0000
1000
0000
0001
0100
0001
0000
,
0100
1000
0000
0100
0001
0000
0100
0010
,
1000
0010
0010
0001
,
0100
0100
1000
0010
,
0110
0000
1001
0000
,
0110
0000
1001
0000
,
1010
1000
1001
0001
,
0011
0010
1010
0010
,
0001
0100
0010
1000
0100
0001
0100
1000
,
0001
0100
1000
0100
0001
0100
0010
1000
,
0001
0000
1001
0000
,
0011
0010
0100
1000
,
1010
0010
0100
0001
,
1001
0000
1000
0000
0001
0010
0100
1000
,
0001
0000
1001
0000
,
1010
0010
0100
0001
,
0011
0010
0100
1000
,
0001
0100
1000
0100
,
0001
0000
1100
0000
,
1001
0000
0000
0011
0000
0000
0110
0000
,
1100
0000
0011
0000
,
1001
0000
0000
1010
0000
0000
1001
0000
,
0001
0010
0000
0001
0010
0000
0100
0000
,
1000
0010
0000
1000
0010
0000
0100
0000
,
0001
0010
0001
0100
0010
1000
0100
1000
,
0010
0100
0001
0010
1000
0001
0100
1000
,
0001
0000
1001
0000
,
1010
0000
1000
0100
0010
0000
0001
0000
,
0011
0000
0001
0100
0010
0000
1000
0000
,
0100
1000
0001
0100
1000
0100
0001
1000
,
0100
0000
1001
0000
,
0011
0000
0001
0100
0010
0000
1000
0000
,
1010
0000
1000
0100
0010
0000
0001
0000
,
0100
0001
1000
0100
0001
0100
1000
0001
,
0100
0000
0001
0000
1000
0010
1000
0000
,
0100
0010
0001
0100
0010
1000
0100
0010
,
0100
0000
1000
0000
0001
0010
0001
0000
,
0100
0010
1000
0100
0010
0001
0100
0010
,
1000
1000
0010
0010
,
0100
0100
0001
0001
,
1000
0001
0100
0010
1000
0100
0001
1000
,
0010
0001
0100
1000
0100
0001
0010
0100
,
0020
0000
0000
0000
,
0000
0000
0000
0000
,
0000
0000
0000
0030
;

//---------------dance-double - NewbStepper-BDP----------------
#NOTES:
     dance-double:
     NewbStepper:
     Easy:
     11:
     :
00000000
00000000
00000000
00000000
,
00000000
00000000
00000000
00000000
,
00000000
00000000
00000000
00000000
,
00000000
00000000
00000000
00000000
,
00000000
00000000
00000000
00000000
,
00000002
00000000
00000100
00000000
00000000
00000103
00000000
00000000
,
00002000
00000000
00000100
00000000
00000000
00003100
00000000
00000000
,
00000020
00000000
00000100
00000000
00000000
00000130
00000000
00000000
,
00001001
00000001
00000100
00001000
,
00020000
00000000
00000000
00030000
,
00100000
00000000
00000000
00000000
,
10000000
00000000
01000000
00000000
,
00010000
00000000
00001000
00000000
,
00000100
00000001
00000100
00000001
,
00001000
00000000
00000000
00000000
,
00000001
00000000
00000100
00000000
,
00001000
00000000
00010000
00000000
,
01000000
10000000
01000000
10000000
,
00010000
00000000
00100000
00000000
,
00001000
00000000
00000000
00010000
00000000
00000000
00001000
00000000
,
00000100
00000000
00000010
00000000
,
00010000
00000000
00000000
00001000
00000000
00000000
00010000
00000000
,
00100000
00000000
00000000
10000000
00000000
00000000
00100000
00000000
,
01000000
00000000
00000000
00010000
00000000
00000000
01000000
00000000
,
00001000
00000000
00000000
00010000
00000000
00000000
00000100
00000000
,
00001000
00000000
00000000
00000001
00000000
00000000
00000100
00000000
,
00000010
00000000
00001001
00000000
,
00000010
00000000
00000001
00000000
,
00000100
00000000
00001000
00000000
,
00010000
00000000
00000000
01000000
00000000
00000000
00100000
00000000
,
00010000
00000000
10010000
00000000
,
00100000
00000000
10000000
00000000
,
01000000
00000000
00010000
00000000
,
00001000
00000000
00000000
00000100
00000000
00000000
00000010
00000000
,
00001000
00000000
00001001
00000000
,
00000100
00000000
00000000
00000100
00000000
00000000
00010000
00000000
,
00001000
00000000
00011000
00000000
,
01000000
00000000
00000000
01000000
00000000
00000000
00001000
00000000
,
00010000
00000000
00000000
00000100
00000000
00000000
00010000
00000000
,
00001000
00000000
00000000
00000100
00000000
00000000
00000010
00000000
,
00001000
00000000
00000000
00000001
00000000
00000000
00000100
00000000
,
00001000
00000000
00000000
00010000
00000000
00000000
01000000
00000000
,
00020000
00001000
00000000
00001000
,
00030200
00001000
00000000
00001000
,
00020300
00001000
00000000
00001000
,
00030100
00000100
00000010
00000010
,
00000001
00000000
00000100
00000000
00000001
00000000
00000000
00000000
00001000
00000000
00000000
00001000
00000000
00000000
00000100
00000000
,
00010000
00000000
00001000
00000000
00010000
00000000
00000000
00000000
00001000
00000000
00000000
00001000
00000000
00000000
00100000
00000000
,
00020000
01030000
20000000
31000000
,
02200000
00000000
00000000
03300000
,
10000000
00000000
00100000
00000000
,
01000000
00000000
00000000
00010000
00000000
00000000
00100000
00000000
,
01000000
00000000
00000000
00010000
00000000
00000000
00001000
00000000
,
00010000
00000000
00000000
00000010
00000000
00000000
00001000
00000000
,
00000001
00000000
00000010
00000000
,
00000100
00000000
00000000
00001000
00000000
00000000
00000010
00000000
,
00000100
00000000
00000000
00001000
00000000
00000000
00010000
00000000
,
00001000
00000000
00000000
00100000
00000000
00000000
00010000
00000000
,
10000000
00000000
00010000
01000000
,
00100000
00000000
00010000
00001000
,
00000100
00000000
00001000
00000100
,
00000001
00000000
00001000
00000001
,
00000100
00000000
00000000
00000010
00000000
00000000
00001000
00000000
,
00010000
00000000
00000000
01000000
00000000
00000000
00100000
00000000
,
10000000
00000000
00000000
01000000
00000000
00000000
00010000
00000000
,
00001000
00010000
00000010
00001000
,
00000001
00000000
00000010
00000000
,
00000100
00000000
00000000
00001000
00000000
00000000
00000010
00000000
,
00000100
00000000
00000000
00001000
00000000
00000000
00010000
00000000
,
00001000
00000000
00000000
00100000
00000000
00000000
00010000
00000000
,
10000000
00000000
00100000
00000000
,
01000000
00000000
00000000
00010000
00000000
00000000
00100000
00000000
,
01000000
00000000
00000000
00010000
00000000
00000000
00001000
00000000
,
00010000
00000000
00000000
00000010
00000000
00000000
00001000
00000000
,
00000001
00000000
00001000
00000100
,
00000010
00000000
00001000
00010000
,
01000000
00000000
00010000
01000000
,
10000000
00000000
00010000
10000000
,
01000000
00000000
00000000
00100000
00000000
00000000
00010000
00000000
,
00001000
00000000
00000000
00000100
00000000
00000000
00000010
00000000
,
00000001
00000000
00000000
00000100
00000000
00000000
00001000
00000000
,
00010000
00001000
00100000
00010000
,
20000000
00000000
01000000
00000000
00000000
31000000
00000000
00000000
,
00020000
00000000
01000000
00000000
00000000
01030000
00000000
00000000
,
00200000
00000000
01000000
00000000
00000000
01300000
00000000
00000000
,
10010000
10000000
01000000
00100000
,
00010000
01000000
00010000
00000000
00000000
02020000
03030000
00000000
,
00001000
00010000
00001000
00000000
00000000
00022000
00033000
00000000
,
00000100
00001000
00000100
00000000
00000000
00002200
00003300
00000000
,
00002002
00000000
00000000
00003003
,
00000001
00000000
00000100
00000000
,
00000010
00000000
00001000
00000000
,
00000100
00000000
00010000
00000000
,
00001000
00000000
00100000
00000000
,
00010000
01000000
10000000
00000000
,
10000000
01000000
00010000
00000000
,
00100000
00001000
00010000
00000100
,
00010000
00001000
00010000
00000010
,
00001000
00000100
00000001
00000000
,
00000001
00000100
00001000
00000000
,
00001010
00000000
00011000
00000000
,
00110000
00000000
00011000
00000000
,
00010000
00000000
00100000
00000000
,
10000000
00000000
00010000
00000000
,
01000000
00001000
01000000
00001000
,
00010000
00000100
00010000
00000100
,
00001000
00000000
00000000
00000000
,
00000001
00000000
00000100
00000000
,
00001000
00000000
00010000
00000000
,
01000000
10000000
01000000
10000000
,
00010000
00000000
00000000
00000000
,
10000000
00000000
01000000
00000000
,
00010000
00000000
00001000
00000000
,
00000100
00000001
00000100
00000001
,
00001000
00000000
00000010
00000000
,
00010000
00000000
00000000
00001000
00000000
00000000
00010000
00000000
,
01000000
00000000
00100000
00000000
,
00001000
00000000
00000000
00010000
00000000
00000000
00001000
00000000
,
00000010
00000000
00000000
00000001
00000000
00000000
00000010
00000000
,
00000100
00000000
00000000
00001000
00000000
00000000
00000100
00000000
,
00010000
00000000
00000000
00001000
00000000
00000000
01000000
00000000
,
00010000
00000000
00000000
10000000
00000000
00000000
01000000
00000000
,
00100000
00000000
00000000
00000000
,
00010000
00000000
00000000
00010000
00000000
00000000
01000000
00000000
,
00001000
00000000
00000000
00001000
00000000
00000000
00010000
00000000
,
00000010
00000000
00000000
00000010
00000000
00000000
00001000
00000000
,
00000001
00000000
00001001
00000000
,
00001000
00000000
00000000
00001000
00000000
00000000
00000100
00000000
,
00010000
00000000
00000000
00010000
00000000
00000000
00001000
00000000
,
00010000
01000000
10000000
00100000
,
01000000
00000000
01100000
00000000
,
10000000
00000000
00000000
01000000
00000000
00000000
00010000
00000000
,
00001000
00000000
00000110
00000000
,
00000001
00000000
00000000
00000100
00000000
00000000
00001000
00000000
,
00010000
00000000
00000000
00010000
00000000
00000000
00100000
00000000
,
10000000
00000000
00000000
10000000
00000000
00000000
01000000
00000000
,
00100000
00000000
00000000
00100000
00000000
00000000
00010000
00000000
,
10000000
01000000
00100000
00010000
,
00002000
00000000
00000000
00000000
,
00000000
00000000
00000000
00000000
,
00000000
00000000
00000000
00003000
;

//---------------dance-double - NewbStepper-DDP----------------
#NOTES:
     dance-double:
     NewbStepper:
     Medium:
     14:
     :
00000000
00000000
00000000
00000000
,
00000000
00000000
00000000
00000000
,
00000000
00000000
00000000
00000000
,
00000000
00000000
00000000
00000000
,
00000000
00000000
00000000
00000000
,
10000000
00000000
10100000
00000000
00000000
01010000
00000000
01000000
,
00010000
00000000
00110000
00000000
00000000
00101000
00000000
00001000
,
00010000
00000000
00011000
00000000
00000000
00001010
00000000
00010000
,
00001000
00000010
00000001
00000100
00001000
00000100
00000001
00001000
,
00000200
00000000
00000000
00000300
,
00010000
00000000
00010000
00000000
,
00001000
00000000
00000000
01000000
00000000
00000000
00100000
00000000
,
00010000
00000000
00000000
00001000
00000000
00000000
00100000
00000000
,
01000000
10000000
00100000
00010000
,
00001000
00000000
00001000
00000000
,
00010000
00000000
00000000
00000100
00000000
00000000
00000010
00000000
,
00001000
00000000
00000000
00010000
00000000
00000000
00000010
00000000
,
00000100
00000001
00000010
00000100
,
00000110
00000000
00001001
00000000
,
00000001
00000000
00000000
00000100
00000000
00000000
00001000
00000000
,
00011000
00000000
10010000
00000000
,
10000000
00000000
00000000
01000000
00000000
00000000
00010000
00000000
,
00001000
00100000
00010000
01000000
,
00100000
00010000
00001000
00000010
,
00001000
00010000
00001000
00000100
,
00010000
01000000
00001000
00010000
,
00100000
00000000
01100000
00000000
,
10000000
01000000
00010000
00001000
,
00100000
00001000
00000010
00000001
,
00000100
00001000
00000100
00000001
,
00001000
00000000
00001000
00000000
,
00000001
00000100
00001000
00010000
,
00000010
00010000
00100000
10000000
,
01000000
00010000
01000000
10000000
,
00100000
00000000
01100000
00000000
,
10000000
01000000
00010000
00001000
,
00000010
00000000
00000110
00000000
,
00000001
00000100
00001000
00010000
,
00100000
10000000
01000000
00100000
,
00010000
01000000
00100000
00010000
,
00001000
00100000
00010000
00001000
,
00000100
00010000
00001000
00000100
,
00000210
00000000
00000000
00000000
00001300
00000000
00000000
00000000
00010000
00000000
00000000
00001000
00000000
00000000
00100000
00000000
,
02100000
00000000
00000000
00000000
03010000
00000000
00000000
00000000
00001000
00000000
00000000
00010000
00000000
00000000
00000010
00000000
,
00000210
00000000
00000000
00000000
00000301
00000000
00000000
00000000
00000010
00000000
00000000
00000010
00000000
00000000
00001000
00000000
,
00010000
00000000
00000000
00001000
00000000
00000000
00000100
00000000
00001000
00000000
00000000
00010000
00000000
00000000
01000000
00000000
,
10000000
00000000
00100000
00000000
01100000
00000000
00000000
00000000
00010000
00000000
00000000
00001000
00000000
00000000
00000100
00000000
,
00000001
00000000
00000010
00000000
00000110
00000000
00000000
00000000
00001000
00000000
00000000
00010000
00000000
00000000
00001000
00000000
,
00100000
00000000
00000000
00100000
00000000
00000000
00010000
00000000
01000000
00000000
00000000
01000000
00000000
00000000
00100000
00000000
,
20000000
00000000
00000000
30000000
,
00010000
00000000
01000000
00100000
,
10000000
00000000
01000000
00010000
,
00001000
00000000
00000000
00010000
00000000
00000000
00001000
00000000
,
00000010
00000001
00000100
00000010
,
00001000
00000000
00000100
00000010
,
00000001
00000000
00000100
00001000
,
00010000
00000000
00000000
00001000
00000000
00000000
00010000
00000000
,
00100000
10000000
01000000
00100000
,
00010000
01000000
00100000
00010000
,
00001000
00000010
00001000
00010000
,
00000010
00001000
00010000
01000000
,
00100000
00010000
00001000
00000100
,
00000010
00001000
00000100
00010000
,
00001000
00000010
00000100
00010000
,
00000010
00001000
00010000
01000000
,
00100000
00010000
00001000
00000010
,
00000001
00000000
00000100
00001000
,
00010000
00000000
00001000
00010000
,
01000000
00000000
10000000
00100000
,
01000000
00000000
00010000
00000000
10000000
00010000
10000000
00010000
,
10000000
00000000
01000000
00010000
,
00001000
00000000
00010000
00001000
,
00000100
00000000
00000001
00000010
,
00000100
00000000
00001000
00000000
00000001
00001000
00000001
00001000
,
00000001
00000100
00000010
00001000
,
00000001
00000100
00001000
00010000
,
01000000
10000000
00100000
00010000
,
00001000
00100000
01000000
00010000
,
00001000
00000010
00001000
00010000
,
00000100
00000010
00001000
00010000
,
00100000
10000000
01000000
00100000
,
00010000
00001000
00000100
00000010
,
00000001
00000000
00000011
00000000
00000000
00001100
00000000
00000100
,
00001000
00000000
00001010
00000000
00000000
00010010
00000000
00010000
,
00001000
00000000
00011000
00000000
00000000
00110000
00000000
00001000
,
00010000
00100000
10000000
01000000
00010000
01000000
10000000
00010000
,
01000000
00010000
00100000
00000000
00000000
00202000
00303000
00010000
,
00000100
00001000
00000010
00000000
00000000
00020020
00030030
00001000
,
00100000
00010000
01000000
00000000
00000000
02002000
03003000
00000000
,
00022000
00000000
00000000
00033000
,
00010000
00000000
00000010
00000000
,
00010000
00000000
00000000
00001000
00000000
00000000
00000010
00000000
,
00000001
00000000
00000000
00000100
00000000
00000000
00000010
00000000
,
00001000
00000001
00000100
00001000
,
00010000
00000000
00100000
00000000
,
10000000
00010000
10000000
00000000
,
01000000
10000000
01000000
00100000
,
00010000
00001000
00000100
00000010
,
00000001
00000000
00000100
00000000
,
00001000
00010000
00100000
00000000
,
10000000
00000000
01000000
00000000
,
00010000
00001000
00000010
00000000
,
00000001
00000000
00000100
00000000
,
00000010
00000000
00001000
00000000
,
00000001
00000100
00000010
00001000
,
00010000
01000000
00100000
10000000
,
01000000
00000000
00010000
00000000
,
00010000
00000000
00000000
00000100
00000000
00000000
00000010
00000000
,
00001000
00000000
00000000
00010000
00000000
00000000
00000010
00000000
,
00000100
00000001
00000010
00001000
,
00010000
00000000
00010000
00000000
,
00001000
00000000
00000000
01000000
00000000
00000000
00100000
00000000
,
00010000
00000000
00000000
00001000
00000000
00000000
00100000
00000000
,
01000000
10000000
00100000
01000000
,
01100000
00000000
10010000
00000000
,
10000000
00000000
00000000
01000000
00000000
00000000
00010000
00000000
,
00011000
00000000
00001001
00000000
,
00000001
00000000
00000000
00000100
00000000
00000000
00001000
00000000
,
00010000
00000010
00001000
00000100
,
00000010
00001000
00010000
00100000
,
00010000
00001000
00010000
01000000
,
00001000
00000100
00010000
00001000
,
00000010
00000000
00000110
00000000
,
00001000
00000001
00000100
00001000
,
00010000
00100000
10000000
01000000
,
00100000
00000000
00010000
00000000
01000000
00100000
01000000
00100000
,
01000000
00000000
01100000
00000000
,
00010000
10000000
01000000
00010000
,
00001000
00000010
00000001
00000100
,
00000010
00000000
00001000
00000000
00000100
00000010
00000100
00000010
,
00000100
00000000
00000110
00000000
,
00001000
00000010
00000100
00001000
,
00011000
00000000
01100000
00000000
,
00010000
00100000
01000000
00010000
,
00001000
00000100
00000010
00001000
,
00010000
01000000
00100000
00010000
,
00000010
00001000
00100000
00001000
,
00000010
00010000
00001000
00000100
,
00000002
00000000
00000000
00000000
,
00000000
00000000
00000000
00000000
,
00000000
00000000
00000000
00000003
;

//---------------dance-double - NewbStepper-EDP----------------
#NOTES:
     dance-double:
     NewbStepper:
     Hard:
     17:
     :
00000000
00000000
00000000
00000000
,
00000000
00000000
00000000
00000000
,
00000000
00000000
00000000
00000000
,
00000000
00000000
00000000
00000000
,
00000000
00000000
00000000
00000000
,
00001000
00010000
00100000
00000000
00000000
02200000
03300000
00011000
,
00010000
00001000
00000010
00000000
00000000
00000220
00000330
00001001
,
00000001
00000000
00000100
00000000
00001000
00000000
00000000
00000000
00000000
00000000
00022000
00000000
00033000
00000000
00001000
00010000
,
00001000
00100000
01000000
00010000
00001000
00000100
00001000
00010000
,
00200000
00000000
00000000
00300000
,
10000000
00000000
10000000
00000000
,
01000000
00010000
00001000
00100000
,
00010000
00001000
00000100
00010000
,
00000100
00000000
00001000
00000000
00000001
00001000
00000100
00000010
,
00000001
00000000
00000001
00000000
,
00000100
00001000
00010000
00000010
,
00001000
00010000
01000000
00001000
,
01000000
00000000
00010000
00000000
10000000
01000000
00100000
00010000
,
10000000
00100000
10000000
00000000
,
11000000
00000000
00000000
01010000
00000000
00000000
00011000
00000000
,
00000100
00010000
00001000
00000000
,
00001010
00000000
00000000
00000011
00000000
00000000
00001001
00000000
,
00000001
00000100
00001000
00010000
,
00001000
00000010
00001000
00010000
,
00100000
01000000
00010000
10000000
,
00100000
00000000
00010000
00000000
00001000
00100000
00001000
00100000
,
00010000
00000000
10010000
00000000
,
00010000
01000000
00100000
10000000
,
00010000
00100000
00001000
00000010
,
00000100
00000000
00001000
00000000
00000001
00001000
00000010
00000100
,
00000001
00000000
00001001
00000000
,
00001000
00000100
00000010
00000001
,
00001000
00000010
00010000
00100000
,
01000000
00000000
00010000
00000000
10000000
00010000
00100000
01000000
,
10000000
01000000
00010000
00001000
,
00000010
00000000
00000001
00000100
00000010
00000000
00001000
00000000
,
00000001
00000100
00001000
00010000
,
00100000
00000000
10000000
01000000
00100000
00000000
00010000
00000000
,
10000000
00000000
00010000
01000000
00010000
00000000
00100000
00000000
,
00001000
00000000
00010000
00000100
00010000
00000000
00001000
00000000
,
00000010
00000000
00000001
00000010
00000001
00000000
00000100
00000000
,
00001000
00010000
01000000
10000000
,
00100000
00010000
00000010
00000000
00001000
00000001
00000010
00000100
,
00000010
00001000
00100000
00000000
00010000
10000000
00100000
01000000
,
00100000
00010000
00000010
00000000
00001000
00000100
00000001
00000100
,
00001000
00000000
00000010
00000000
00010000
00000000
00001000
00000000
00100000
01000000
00100000
01000000
10000000
01000000
10000000
01000000
,
00100000
00010000
00100000
00001000
00000010
00000100
00000001
00000100
,
00001000
00000010
00010000
00001000
00000100
00001000
00010000
01000000
,
10000000
00000000
00010000
00100000
00010000
00000000
01000000
00000000
00001000
00000000
00010000
00000100
00010000
00000000
00001000
00000000
,
00000010
00000000
00000001
00000100
00000001
00000100
00000010
00001000
00000100
00000000
00010000
00001000
00010000
00001000
00100000
00010000
,
10000000
00000000
01000000
00010000
,
00001000
00000000
00000100
00001000
,
00010000
00000000
00000000
00001000
00000000
00000000
00000010
00000000
,
00000001
00000000
00000100
00000000
00000010
00001000
00000010
00001000
,
00000010
00000000
00000100
00001000
,
00010000
00000000
01000000
00010000
,
00001000
00000000
00000000
00010000
00000000
00000000
00100000
00000000
,
10000000
00000000
01000000
00000000
00100000
00010000
00100000
00010000
,
00100000
01000000
00010000
00001000
,
00000010
00000100
00000001
00001000
,
00000010
00000001
00000100
00001000
,
00010000
01000000
10000000
00100000
,
10100000
00000000
00000000
10000000
00000000
00000000
01000000
00000000
,
01010000
00000000
00000000
00010000
00000000
00000000
00001000
00000000
,
00011000
00000000
00000000
00010000
00000000
00000000
00000010
00000000
,
00001000
00000001
00000100
00000000
00000001
00001000
00000100
00000010
,
00000001
00000000
00001000
00000010
00000100
00000000
00001000
00000000
,
00010000
00000000
00001000
00100000
00010000
00000000
10000000
00000000
,
01000000
00000000
00010000
00001000
00100000
00000000
00001000
00000000
,
00010000
00000010
00010000
00100000
,
10000000
00000000
00010000
00100000
01000000
00000000
00010000
00000000
,
00001000
00000000
00010000
00000010
00001000
00000000
00000001
00000000
,
00000100
00000000
00001000
00010000
00000010
00000000
00010000
00000000
,
00001000
00100000
00001000
00000010
,
00000001
00000100
00000010
00001000
,
00010000
01000000
00100000
10000000
,
01000000
00010000
00000100
00010000
,
00001000
00100000
00001000
00000010
,
00010000
00000010
00001000
00010000
,
00100000
00001000
00100000
00010000
,
00001000
00000000
00100000
00010000
00100000
00010000
10000000
00000000
,
00100000
10000000
00100000
01000000
00010000
00100000
00001000
00010000
,
00002000
00000000
00100000
00003000
00000000
00011000
00000000
00000000
,
00020000
00000000
00000010
00030000
00000000
00011000
00000000
00000000
,
00002000
00000000
01000000
00003000
00000000
00011000
00000000
00010000
,
00001000
00000100
00000010
00001000
00000100
00000001
00000100
00001000
,
00000010
00000100
00001000
00000000
00000000
00022000
00033000
00001000
,
00100000
01000000
00010000
00000000
00000000
00022000
00033000
00010000
,
00000100
00000010
00001000
00010000
00100000
00010000
00001000
00000000
,
00010000
00000000
00000010
00001000
00000010
00001000
00000010
00010000
00001000
00000000
00100000
00010000
00100000
00010000
00100000
00001000
,
00010000
00000000
00000010
00000000
,
00010000
00001000
00000100
00000000
,
00000010
00001000
00000100
00000000
,
00000010
00000001
00000100
00000000
,
00010010
00000000
00101000
00000000
,
00001000
00010000
01000000
00000000
,
10000000
00000000
01000000
10000000
01000000
00000000
00100000
00010000
,
00100000
00000000
00001000
00010000
00001000
00000000
00000010
00000000
,
00000001
00000000
00000100
00000001
00000100
00000000
00000010
00001000
,
00000010
00000000
00010000
00001000
00010000
00000000
00100000
00000000
,
10000000
00100000
00010000
00000000
,
00001000
00000010
00000001
00000000
,
00000100
00001000
00010000
00000010
,
00001000
00010000
01000000
00100000
,
10000000
00010000
01000000
00100000
10000000
00010000
01000000
00001000
,
00010000
00001000
00100000
00001000
00010000
00000100
00001000
00000010
,
00010000
00000000
00010000
00000000
,
00001000
00000010
00000100
00000010
,
00000001
00000010
00001000
00010000
,
00100000
00000000
10000000
00000000
00010000
00100000
00001000
00010000
,
00001000
00000000
00001000
00000000
,
00010000
00100000
01000000
00100000
,
10000000
00100000
00010000
00001000
,
00000010
00000000
00000001
00000000
00001000
00000010
00010000
00001000
,
00010000
00000000
00011000
00000000
,
00001000
00000100
00000001
00000100
,
00001000
00000000
00011000
00000000
,
00010000
01000000
10000000
01000000
,
00010000
00000000
00000000
00001000
00000000
00000000
00000110
00000000
,
00000010
00000000
00000000
00001000
00000000
00000000
00011000
00000000
,
00010000
00000000
00000000
00100000
00000000
00000000
01100000
00000000
,
10000000
00100000
01000000
00010000
10000000
00100000
01000000
00010000
,
10000000
00000000
10010000
00000000
,
00010000
00000000
10000000
00100000
01000000
00000000
00010000
00000000
,
00100000
00000000
00001000
00010000
00001000
00000000
00000010
00000000
,
00000001
00000100
00000001
00000100
00000010
00001000
00000010
00001000
,
00000100
00000000
00001001
00000000
,
00001000
00000000
00000001
00000010
00000100
00000000
00001000
00000000
,
00000010
00000000
00010000
00001000
00010000
00000000
00100000
00000000
,
10000000
01000000
10000000
01000000
00100000
00010000
00100000
00010000
,
01000000
00001000
00010000
00001000
,
00000100
00000001
00000100
00000001
00000100
00000001
00000010
00000000
,
00000100
00010000
00001000
00010000
,
01000000
10000000
01000000
10000000
01000000
10000000
00100000
00000000
,
01000000
00001000
00010000
00001000
,
00000100
00000001
00000010
00000100
,
00001000
00000010
00000100
00000001
00000100
00000010
00001000
00000100
,
00010000
00001000
00100000
00010000
10000000
00010000
01000000
00100000
,
20000000
00000000
00000000
00000000
,
00000000
00000000
00000000
00000000
,
00000000
00000000
00000000
30000000
;

//---------------dance-double - NewbStepper-CDP----------------
#NOTES:
     dance-double:
     NewbStepper:
     Challenge:
     18:
     :
00000000
00000000
00000000
00000000
,
00000000
00000000
00000000
00000000
,
00000000
00000000
00000000
00000000
,
00000000
00000000
00000000
00000000
,
00000000
00000000
00000000
00000000
,
00010000
00000100
00000220
00000000
00000330
00002002
00003003
00001000
,
00001100
00000000
00020200
00000000
00030300
00022000
00033000
00000000
,
00001000
00000000
01000000
00000000
02200000
00000000
00000000
00000000
03300000
00000000
20020000
00000000
30030000
00000000
10000000
00100000
,
10000000
00100000
00100000
00010000
01000000
00001000
00001000
00000100
,
00000020
00000000
00000000
00000030
,
00000011
00000000
00001001
00000000
,
00001010
00000010
00000100
00001000
,
00011000
00010000
01000000
10000000
,
10100000
00000000
00100000
00000000
01000000
00010000
10000000
01000000
,
00100000
00000000
10010000
00000000
,
00110000
00100000
01000000
00010000
,
00011000
00001000
00000100
00000001
,
00000011
00000000
00000010
00000000
00000100
00001000
00000001
00000100
,
00000010
00000000
00000110
00000000
,
00000101
00000000
00000000
00001100
00000000
00000000
00011000
00000000
,
00101000
00000000
01100000
00000000
,
11000000
00000000
00000000
01010000
00000000
00000000
00011000
00000000
,
00001000
00000010
00000000
00001000
00000010
00000000
00000001
00000000
,
00000100
00001000
00000000
00000100
00001000
00000000
00010000
00000000
,
00100000
10000000
00000000
00100000
10000000
00000000
00010000
00000000
,
01000000
00100000
10000000
00000000
01000000
00010000
00001000
00010000
,
00001000
00000000
00011000
00000000
,
00010000
00000000
00000010
00001000
00000010
00000000
00000100
00000000
,
00000001
00000000
00000010
00000100
00000010
00000000
00001000
00000000
,
00010000
00000000
01000000
00000000
10000000
01000000
00100000
00001000
,
00010000
00000000
00011000
00000000
,
00001000
00000000
00100000
00010000
00100000
00000000
01000000
00000000
,
10000000
00000000
00100000
01000000
00100000
00000000
00010000
00000000
,
00001000
00010000
00001000
00010000
00000100
00001000
00000001
00000100
,
00000010
00000000
00001001
00000000
,
00000011
00000000
00000000
00000011
00000000
00000010
00000100
00010000
,
00001000
00000000
00011000
00000000
,
10100000
00000000
00000000
10100000
00000000
00100000
01000000
00001000
,
00010000
00100000
00000000
00010000
00100000
00000000
10000000
00000000
,
01000000
00010000
00000000
01000000
00010000
00000000
00001000
00000000
,
00000010
00000000
00000001
00000010
00000001
00001000
00000010
00000000
,
00010000
00001000
00100000
00010000
10000000
00100000
01000000
00001000
,
00020000
00000000
00000100
00000000
00031000
00000000
00000000
00000000
00010000
00000000
00000000
00001000
00000000
00000000
00000010
00000000
,
00000002
00000000
00000100
00000000
00001003
00000000
00000000
00000000
00000010
00000000
00000000
00001000
00000000
00000000
00000100
00000000
,
00020000
00000000
00000010
00000000
00031000
00000000
00000000
00000000
00100000
00000000
00000000
00010000
00000000
00000000
10000000
00000000
,
00100000
00000000
00000000
01000000
00000000
00000000
00010000
00000000
00100000
00001000
00100000
00001000
00010000
00000010
00001000
00000010
,
00002000
00000000
00000001
00000000
00003010
00000000
00000000
00000000
00001010
00000000
00000000
00011000
00000000
00000000
01010000
00000000
,
00020000
00000000
10000000
00000000
00130000
00000000
00000000
00000000
00110000
00000000
00000000
10010000
00000000
00000000
00110000
00000000
,
01010000
00000000
00000000
01001000
00000000
00000000
00011000
00000000
00010100
00000000
00000000
00001100
00000000
00000000
00001001
00000000
,
00001000
00000100
00010000
00000100
00001000
00000100
00010000
00001000
01000000
00001000
00010000
00001000
01000000
00010000
01000000
00100000
,
10000000
00000000
11000000
00000000
,
01010000
00000000
00011000
00000000
,
00001000
00000100
00000100
00000010
,
00000001
00000100
00000100
00001000
,
00000001
00000000
00000101
00000000
,
00001100
00000000
00011000
00000000
,
00010000
01000000
01000000
00100000
,
10000000
01000000
01000000
00010000
,
10000000
00000000
01000000
00010000
00000000
01000000
00010000
00000000
,
00001000
00000000
00010000
00001000
00000000
00010000
00001000
00000000
,
00000010
00000000
00000001
00000100
00000000
00000001
00000100
00000000
,
00001000
00000000
00010000
00001000
00000000
00010000
00001000
00000000
,
00011000
00000000
00000000
01010000
00000000
00000000
01100000
00000000
,
00110000
00000000
00000000
00011000
00000000
00000000
00001010
00000000
,
00000110
00000000
00000000
00001100
00000000
00000000
00011000
00000000
,
00010000
00001000
00100000
00001000
00010000
00000010
00010000
00001000
,
00100000
00000000
00000000
00000000
00010000
00100000
01000000
00100000
,
00010000
00000000
00000000
00000000
10000000
00100000
01000000
00100000
,
10000000
00000000
00000000
01000000
00000000
00000000
00010000
00000000
,
00001000
00000000
00000010
00000000
00000001
00000100
00000010
00001000
,
00000001
00000000
00000000
00000000
00001000
00000010
00000100
00000010
,
00001000
00000000
00000000
00000000
00000001
00000010
00000100
00000010
,
00000001
00000000
00000000
00000100
00000000
00000000
00001000
00000000
,
00010000
00000000
00001000
00000000
00000010
00000000
00000001
00000100
,
00000001
00000000
00000100
00001000
00000000
00000100
00001000
00000000
,
00010000
00000000
00001000
00010000
00000000
00001000
00010000
00000000
,
00100000
00000000
10000000
01000000
00000000
10000000
01000000
00000000
,
00010000
00000000
00001000
00010000
00000000
00001000
00010000
00000000
,
00001000
00000000
00000100
00000001
00000000
00000100
00001000
00000000
,
00010000
00000000
01000000
10000000
00000000
01000000
00010000
00000000
,
00001000
00000000
00010000
00001000
00010000
00001000
00000010
00000000
,
00000001
00000010
00000001
00001000
00000001
00000100
00001000
00010000
,
00001000
01000000
02200000
00000000
03300000
20020000
30030000
00010000
,
01010000
00000000
02002000
00000000
03003000
00022000
00033000
00000000
,
00010000
00000000
00000100
00000000
00000220
00000000
00000000
00000000
00000330
00000000
00002002
00000000
00003003
00000000
00001000
00000100
,
00001000
00000100
00001000
00000100
00000010
00000000
00000001
00001000
00000000
00000100
00000000
00000010
00001000
00010000
00001000
00100000
,
00010000
00000000
01000000
00000000
00200000
00000000
01000000
00000000
01300000
00000000
20020000
00000000
30030000
00000000
10000000
01000000
,
10000000
00000000
00010000
01000000
00100000
00000000
02200000
00000000
03300000
00000000
01000000
00100000
00020000
00000000
00030000
00000000
,
00001000
00010000
00000100
00000010
00000100
00000000
00001000
00010000
00000000
00000010
00001000
00000010
00000200
00000000
00000300
00000000
,
00000001
00000100
00000001
00000100
00000010
00001000
00000010
00001000
00010000
01000000
00010000
01000000
00100000
10000000
00100000
10000000
,
00100000
00000000
10100000
00000000
,
10000000
01000000
00010000
00000000
,
00001000
00100000
00010000
00000000
,
01000000
00100000
00010000
00001000
,
00000010
00000000
00000011
00000000
,
00000001
00000100
00001000
00010000
,
00100000
00000000
10000000
00000000
00010000
01000000
00010000
00000000
,
00100000
00001000
00000000
00010000
00001000
00000000
00000010
00000100
,
00001000
00000100
00000100
00000001
,
00000010
00000010
00010000
00001000
,
00011000
00000000
00101000
00000000
,
00010010
00000000
00011000
00000000
,
00001000
00010000
01000000
10000000
,
00100000
00010000
00001000
00000010
,
00000001
00001000
00000001
00000100
00001000
00010000
00001000
01000000
,
00010000
01000000
00100000
10000000
00010000
10000000
01000000
00010000
,
00001000
00000000
00011000
00000000
,
00010000
00000000
00000000
00001000
00000000
00000000
00000010
00000000
,
00000001
00000000
00000000
00001000
00000000
00000000
00000001
00000000
,
00000100
00000000
00001000
00000000
00010000
00000100
00001000
00000100
,
00010000
00000000
00011000
00000000
,
00001000
00000000
00000000
00010000
00000000
00000000
00100000
00000000
,
10000000
00000000
00000000
00010000
00000000
00000000
10000000
00000000
,
01000000
00010000
00001000
00000010
,
00000001
00000000
00001001
00000000
,
00000011
00000000
00000000
00001010
00000000
00000000
00011000
00000000
,
01001000
00000000
01100000
00000000
,
10100000
00000000
00000000
00110000
00000000
00000000
00011000
00000000
,
00001000
00000100
00000000
00001000
00000100
00000000
00000001
00000000
,
00000010
00001000
00000000
00000010
00001000
00000000
00010000
00000000
,
00100000
10000000
00010000
10000000
01000000
00100000
00010000
00100000
,
00001000
00010000
00000100
00001000
00000010
00000100
00000001
00001000
,
00000100
00000000
00001001
00000000
,
00000011
00000000
00000001
00000100
00000010
00000000
00001000
00000000
,
00001010
00000000
00000010
00000100
00001000
00000000
00010000
00000000
,
01000000
00100000
00010000
01000000
00100000
10000000
01000000
00100000
,
00010000
00000000
10010000
00000000
,
10100000
00000000
10000000
01000000
00100000
00000000
00010000
00000000
,
00110000
00000000
00100000
01000000
00010000
00000000
00001000
00000000
,
00000100
00000010
00001000
00000100
00000010
00000001
00000100
00000010
,
00001000
00000001
00000100
00001000
,
00010000
00001000
01000000
00001000
00010000
00100000
10000000
00000000
,
00010000
10000000
01000000
00010000
,
00001000
00010000
00000100
00010000
00001000
00000010
00000001
00000000
,
00001000
00000001
00000100
00001000
,
00010000
01000000
10000000
00100000
,
10000000
01000000
00100000
00010000
01000000
00100000
00010000
00001000
,
00100000
00010000
00100000
00001000
00010000
00001000
00000010
00000001
,
00000200
00000000
00000000
00000000
,
00000000
00000000
00000000
00000000
,
00000000
00000000
00000000
00000300
;
