#TITLE:SO DEEP (20th Anniversary Mix);
#ARTIST:funkyzukin + leeium;
#BANNER:SO DEEP (20th Anniversary Mix).png;
#BACKGROUND:SO DEEP (20th Anniversary Mix)-bg.png;
#MUSIC:SO DEEP (20th Anniversary Mix).ogg;
#SAMPLESTART:90.314835;
#SAMPLELENGTH:15;
#BPMS:0=170;

//---------------dance-single - Marten-ESP----------------
#NOTES:
     dance-single:
     Marten:
     Hard:
     15:
     0.639526,0.850003,0.502918,0.269168,0.531252,632,561,71,38,0,0,0.639526,0.850003,0.502918,0.269168,0.531252,632,561,71,38,0,0:
0000
0000
0000
0000
,
0000
0000
0000
0000
,
0000
0000
0000
0000
,
0000
0000
0000
0000
,
0000
0000
0000
0000
,
0000
0000
0000
0000
,
0000
0000
0000
0000
,
0000
0000
0000
0000
,
1100
0000
0010
0000
,
0000
1100
0010
0000
,
0101
0000
0010
0000
,
0000
0101
0010
0000
,
1010
0000
0100
0000
,
0000
1010
0100
0000
,
0022
0000
0000
0000
,
0000
0000
0000
0033
,
2001
0000
0000
0000
3001
0000
0000
0010
0000
0000
0010
0000
0100
0000
0100
0000
,
1100
0000
0000
0101
0000
0000
0110
0000
0000
1001
0000
0000
0011
0000
0000
0000
,
2000
0100
0000
0000
3100
0000
0000
0010
0000
0001
0010
0000
0100
0000
0010
0000
,
0011
0000
0000
1010
0000
0000
0110
0000
0000
1001
0000
0000
1100
0000
1000
0000
,
1002
0000
0000
0000
1003
0000
0000
0010
0000
0000
0010
0000
0100
0000
0100
0000
,
0101
0000
0000
1100
0000
0000
0110
0000
0000
1001
0000
0000
2010
0000
3000
0000
,
0002
0100
0000
0000
0103
0000
0000
0010
0000
1000
0010
0000
0100
0000
0010
0000
,
1010
0000
0000
0011
0000
0000
0110
0000
1000
0001
0000
0001
0010
0000
0100
0000
,
0011
0100
1001
1000
,
0010
1000
0000
0001
0100
0000
0001
0010
0000
0010
0001
0000
1001
0000
0010
0000
,
0101
1000
0110
0100
,
0001
0010
0000
0100
0010
0000
0100
1000
0000
1000
0010
0000
0100
0000
0001
0000
,
1000
1000
0010
0010
0100
0100
0001
0001
,
1000
0100
1000
0100
0010
0001
0010
0001
0100
0010
0100
0020
0200
0000
0000
0000
,
0000
0000
0000
0000
,
0000
0000
0000
0330
,
0001
0000
0100
0000
0010
0000
1000
0100
1000
0100
0010
0000
0001
0010
0100
1000
,
0001
0000
0010
0000
1000
0000
0010
0001
0010
0001
1000
0000
0010
0000
0010
0000
,
0110
0100
0001
1000
1001
0001
0010
0100
,
0100
0020
0031
1000
1010
0200
0001
0301
,
1000
0010
0000
1000
0001
0000
0010
0001
0000
0000
0010
0000
0100
0000
0100
0000
,
0000
1000
0100
0010
1001
0001
1000
1000
,
0010
0000
0100
0001
0100
0000
0010
0000
1001
0000
0100
0000
0100
0000
0010
0000
,
1000
0002
0000
0013
0110
1000
0001
0010
,
0200
0000
0310
0000
1001
1000
0010
0100
,
0002
0013
0200
0310
0110
0002
1000
1003
,
0010
0000
0100
0000
0001
0100
0001
1000
0100
0000
0010
0000
0001
0000
0001
0000
,
1000
0020
0130
0100
0101
1000
0001
0001
,
0010
0001
0000
1000
0010
0000
0100
0001
1000
0000
0010
0000
0100
0000
0110
0000
,
0000
1001
1000
0010
1001
0001
0010
0010
,
0220
0000
0000
0000
,
0000
0000
0000
0330
,
0002
0000
0100
0000
,
2003
0100
0010
0000
,
3020
0000
0100
0000
,
0000
0001
0230
0000
,
0302
0000
0010
0000
,
0203
0010
1000
0000
,
0302
0000
0000
0000
,
0000
0000
0000
0000
,
1003
0100
0001
0100
1000
0010
0001
0010
,
1000
0000
0100
0000
0010
0000
0001
0000
0100
0001
0100
0000
0010
1000
0010
0000
,
1000
0100
0010
0100
1000
0001
0100
1000
,
0100
0000
0010
0000
1000
0000
0001
0000
0010
0001
0010
0000
0100
1000
0100
0000
,
1000
1000
0001
0001
0100
0100
0010
0010
,
1000
0010
1000
0010
1000
0001
1000
0001
0100
0001
0100
0001
0010
0001
0010
0001
,
0200
0000
0000
0000
,
0000
0000
0000
0301
,
0000
0010
0000
0010
0100
0000
0100
0000
1000
0001
0000
0001
1000
0000
0001
0000
,
0100
0001
0000
0001
1000
0000
0001
0000
1000
0100
1000
0000
1000
0100
1000
0000
,
0000
0010
0000
0010
0100
0000
0100
0000
0001
1000
0000
1000
0001
0000
1000
0000
,
0100
1000
0000
1000
0001
0000
1000
0000
0001
0100
0001
0000
0001
0100
0001
0000
,
0000
0100
0000
0100
0010
0000
0010
0000
1000
0001
0000
0001
1000
0000
0001
0000
,
0010
0001
0000
0001
1000
0000
0001
0000
1000
0010
1000
0000
1000
0010
1000
0000
,
0000
0100
0000
0100
0010
0000
0010
0000
0001
1000
0000
1000
0001
0000
1000
0000
,
0010
1000
0000
1000
0001
0000
1000
0000
0001
0010
0001
0000
0001
0010
0001
0000
,
2000
0000
0000
0000
3001
0000
0100
0000
0001
1000
0000
0001
1000
0000
0100
0000
,
1000
0001
0000
0001
1000
0000
0010
0000
1000
0100
1000
0000
0001
0100
0001
0100
,
0001
1000
0000
0001
1000
0000
0100
0000
1000
0001
0000
1000
0001
0000
0100
0000
,
0001
1000
0000
1000
0001
0000
0010
0000
0001
0100
0001
0000
1000
0100
1000
0100
,
1000
0001
0000
1000
0001
0000
0010
0000
0001
1000
0000
0001
1000
0000
0010
0000
,
1000
0001
0000
0001
1000
0000
1001
0000
1000
0010
1000
0010
0100
0001
0100
0001
,
2000
0000
0000
0000
,
0002
0000
0000
3003
,
1002
0000
0000
0000
1003
0000
0000
0010
0000
0000
0010
0000
0100
0000
0100
0000
,
0101
0000
0000
1100
0000
0000
0110
0000
0000
1001
0000
0000
1010
0000
0000
0000
,
0002
0100
0000
0000
0103
0000
0000
0010
0000
1000
0010
0000
0100
0000
0010
0000
,
1010
0000
0000
0011
0000
0000
0110
0000
0000
1001
0000
0000
0101
0000
0001
0000
,
2001
0000
0000
0000
3001
0000
0000
0010
0000
0000
0010
0000
0100
0000
0100
0000
,
1100
0000
0000
0101
0000
0000
0110
0000
0000
1001
0000
0000
0012
0000
0003
0000
,
2000
0100
0000
0000
3100
0000
0000
0010
0000
0001
0010
0000
0100
0000
0010
0000
,
0011
0000
0000
1010
0000
0000
0110
0000
0001
1000
0000
1000
0010
0000
0100
0000
,
1010
0000
0000
0000
1000
0200
0000
0000
0000
0000
0310
0100
0000
1001
0000
0000
,
0010
0001
0000
1000
0100
0000
1000
0010
0000
0010
1000
0000
1001
0000
0010
0000
,
1100
0001
0110
0100
,
1000
0010
0000
0100
0010
0000
0100
0001
0000
0001
0010
0000
0100
0000
1000
0000
,
0001
0001
0010
0010
0100
0100
1000
1000
,
0001
0100
0001
0100
0010
1000
0010
1000
0100
0010
0100
0020
0200
0000
0000
0000
,
0000
0000
0000
0000
,
0000
0000
0000
0000
,
0330
0000
0000
0000
;

//---------------dance-single - Marten-DSP----------------
#NOTES:
     dance-single:
     Marten:
     Medium:
     11:
     0.430061,0.612002,0.609169,0.354168,0.099167,425,339,86,50,0,0,0.430061,0.612002,0.609169,0.354168,0.099167,425,339,86,50,0,0:
0000
0000
0000
0000
,
0000
0000
0000
0000
,
0000
0000
0000
0000
,
0000
0000
0000
0000
,
0000
0000
0000
0000
,
0000
0000
0000
0000
,
0000
0000
0000
0000
,
0000
0000
0000
0000
,
0101
0000
0010
0000
,
0000
0101
0010
0000
,
1100
0000
0010
0000
,
0000
1100
0010
0000
,
0011
0000
0100
0000
,
0000
0011
0100
0000
,
2020
0000
0000
0000
,
0000
0000
0000
3030
,
0022
0000
0000
0033
0000
0000
0000
0000
,
1100
0000
0000
0110
0000
0000
0011
0000
0000
1001
0000
0000
0101
0000
0000
0000
,
2020
3030
0000
0000
0000
0000
0000
0000
,
0101
0000
0000
0110
0000
0000
1010
0000
0000
1001
0000
0000
1100
0000
0000
0000
,
0202
0000
0000
0303
0000
0000
0000
0000
,
1001
0000
0000
0011
0000
0000
1100
0000
0000
1001
0000
0000
2010
0000
3000
0000
,
2200
3300
0000
0000
0000
0000
0000
0000
,
1001
0000
0000
1010
0000
0000
0101
0000
0000
1001
0000
0000
0011
0000
0000
0000
,
1100
0010
1001
1000
,
0001
0000
0000
0010
0000
0000
1000
0000
0000
0010
0000
0000
0001
0000
0100
0000
,
0101
0010
1001
0001
,
1000
0000
0000
0010
0000
0000
0001
0000
0000
0010
0000
0000
1000
0000
0100
0000
,
0010
0001
0010
0001
1000
0010
1000
0010
,
0202
0303
0000
2002
3003
0000
2020
0000
,
0000
0000
0000
0000
,
0000
0000
0000
3030
,
0001
0100
0010
0100
0001
1000
0100
0100
,
0010
0001
0010
0100
1000
0001
1000
1000
,
1001
0000
0000
0100
0110
0000
0010
0000
,
0000
2000
3100
1000
1002
0000
0003
0100
,
0001
0000
0000
0000
1000
0000
0000
0100
0000
0000
0010
0000
0001
0000
0010
0000
,
0000
0100
1000
0001
1001
0000
0100
0000
,
1000
0010
0000
0100
0101
0000
0001
1000
,
0000
0002
0003
0010
0001
0100
0010
1000
,
0002
0000
0000
0000
1003
0100
0100
0010
,
0001
0000
1000
0000
1001
0001
0100
0100
,
0001
0010
0000
0100
1100
0000
0000
1000
,
1000
0002
0003
0010
0011
0000
0100
0000
,
1000
0000
0000
0000
0001
0000
0000
0100
0000
0000
0001
0000
0010
0000
0100
0000
,
0000
1000
0010
1000
0001
0100
0010
0010
,
0200
0000
0000
0000
,
0000
0000
0000
0300
,
0020
0000
0000
0000
,
2030
0000
0000
0000
,
3002
0000
0000
0000
,
0000
0000
0023
0000
,
0032
0000
0000
0000
,
2003
0000
0000
0000
,
0002
0000
0000
0000
,
0000
0000
0000
3003
,
0001
0100
0001
0000
1000
0100
1000
0000
,
0001
0010
0100
0010
0001
1000
0001
0000
,
1000
0010
1000
0000
0001
0010
0001
0000
,
1000
0010
0100
0010
1000
0001
1000
0000
,
0001
0100
0001
0100
0010
1000
0010
1000
,
0001
0010
0100
1000
0010
0100
0001
1000
,
0002
0000
0000
0000
,
0000
0000
0003
0000
,
0010
0001
0010
0000
0010
1000
0010
0000
,
0010
0100
0010
0000
1001
0000
1001
0000
,
0010
1000
0010
0000
0010
0001
0010
0000
,
0010
0100
0010
0000
1001
0000
1001
0000
,
0100
0001
0100
0000
0100
1000
0100
0000
,
0100
0010
0100
0000
1001
0000
1001
0000
,
0100
1000
0100
0000
0100
0001
0100
0000
,
0100
0010
0100
0000
1001
0000
1001
0000
,
0020
0000
0130
0000
0010
0001
0100
0000
,
0010
1000
0100
0000
0010
0001
0100
0000
,
0100
0001
0010
0000
0100
1000
0010
0000
,
0100
0001
0010
0000
0100
1000
0010
0000
,
0100
0001
1010
0000
1000
0010
0101
0000
,
0010
1000
0100
0010
0001
0100
0010
1000
,
0002
0000
0000
0000
,
2000
0000
0000
3003
,
2020
0000
0000
3030
0000
0000
0000
0000
,
0101
0000
0000
0110
0000
0000
1010
0000
0000
1001
0000
0000
1100
0000
0000
0000
,
0022
0033
0000
0000
0000
0000
0000
0000
,
1100
0000
0000
0110
0000
0000
0011
0000
0000
1001
0000
0000
0101
0000
0000
0000
,
2200
0000
0000
3300
0000
0000
0000
0000
,
1001
0000
0000
1010
0000
0000
0101
0000
0000
1001
0000
0000
0012
0000
0003
0000
,
0202
0303
0000
0000
0000
0000
0000
0000
,
1001
0000
0000
0011
0000
0000
1100
0000
0000
1001
0000
0000
1010
0000
0000
0000
,
0101
0000
0000
0000
0020
0000
0000
0000
0000
0000
0000
0100
0000
0130
0000
0000
,
1000
0000
0000
0010
0000
0000
0001
0000
0000
0010
0000
0000
1000
0000
0100
0000
,
1100
0010
1001
1000
,
0001
0000
0000
0010
0000
0000
1000
0000
0000
0010
0000
0000
0001
0000
0100
0000
,
0010
1000
0010
1000
0001
0010
0001
0010
,
2200
3300
0000
2002
3003
0000
0022
0000
,
0000
0000
0000
0000
,
0000
0000
0000
0000
,
0033
0000
0000
0000
;

//---------------dance-single - Marten-BSP----------------
#NOTES:
     dance-single:
     Marten:
     Easy:
     7:
     0.280299,0.442001,0.495835,0.311668,0.003542,277,207,70,44,0,0,0.280299,0.442001,0.495835,0.311668,0.003542,277,207,70,44,0,0:
0000
0000
0000
0000
,
0000
0000
0000
0000
,
0000
0000
0000
0000
,
0000
0000
0000
0000
,
0000
0000
0000
0000
,
0000
0000
0000
0000
,
0000
0000
0000
0000
,
0000
0000
0000
0000
,
1001
0000
0100
0000
,
0000
1001
0100
0000
,
1001
0000
0010
0000
,
0000
1001
0010
0000
,
0110
0000
1000
0000
,
0000
0110
0001
0000
,
0220
0000
0000
0000
,
0000
0000
0000
0330
,
2002
0000
0000
3003
0000
0000
0000
0000
,
1100
0000
0000
0011
0000
0000
0110
0000
,
2002
3003
0000
0000
0000
0000
0000
0000
,
0101
0000
0000
1010
0000
0000
0110
0000
,
2002
0000
0000
3003
0000
0000
0000
0000
,
0011
0000
0000
1100
0000
0000
0110
0000
,
2002
3003
0000
0000
0000
0000
0000
0000
,
1010
0000
0000
0101
0000
0000
0110
0000
,
1001
0001
0011
0010
,
0100
0000
0000
0100
0000
0000
0010
0000
,
1001
1000
1010
0010
,
0100
0000
0000
0100
0000
0000
0010
0000
,
1000
1000
0001
0001
,
2002
3003
0000
0220
0330
0000
2002
0000
,
0000
0000
0000
0000
,
0000
0000
0000
3003
,
1000
0100
0010
0100
,
1000
0001
0100
0100
,
0110
0000
1001
0001
,
0000
0010
0011
0001
,
1000
0000
1010
0010
,
0000
0100
1001
0001
,
1000
0000
1100
0100
,
0000
0010
0001
1000
,
0020
0000
0130
0010
,
0000
0110
1001
0001
,
1000
0100
0110
0010
,
0000
0100
0110
0000
,
0001
1000
1001
0001
,
0000
0100
0110
0001
,
2000
0000
0000
0000
,
0000
0000
0000
3000
,
0002
0000
0000
0000
,
2003
0000
0000
0000
,
3020
0000
0000
0000
,
0000
0000
0230
0000
,
0302
0000
0000
0000
,
2003
0000
0000
0000
,
0002
0000
0000
0000
,
0000
0000
0000
3003
,
1001
0001
1000
1000
,
0010
0100
0010
0010
,
1001
1000
0001
0001
,
0010
0100
0010
0010
,
0001
0010
0100
1000
,
0001
0010
0100
1000
,
0002
0000
0000
0000
,
0000
0000
0000
1003
,
0001
0000
0001
0000
,
1000
0000
0001
0001
,
1000
0000
1000
0000
,
0001
0000
1000
1000
,
0010
0000
1000
1000
,
0001
0000
0100
0100
,
0001
0000
1000
0000
,
0010
0000
1000
0100
,
2000
3000
0001
0001
,
1000
0000
0010
0010
,
1001
0000
1001
0000
,
0010
0000
0100
0100
,
0001
1000
0001
1000
,
0010
1000
0001
1001
,
0120
0000
0000
0000
,
0200
0000
0000
0330
,
2002
0000
0000
3003
0000
0000
0000
0000
,
0101
0000
0000
1010
0000
0000
0110
0000
,
2002
3003
0000
0000
0000
0000
0000
0000
,
1100
0000
0000
0011
0000
0000
0110
0000
,
2002
0000
0000
3003
0000
0000
0000
0000
,
1010
0000
0000
0101
0000
0000
0110
0000
,
2002
3003
0000
0000
0000
0000
0000
0000
,
0011
0000
0000
1100
0000
0000
0110
0000
,
1001
0000
0000
0000
2000
0000
0000
0000
0000
0000
0000
0000
0000
3001
0000
0000
,
0100
0000
0000
0100
0000
0000
0010
0000
,
1001
0001
0011
0010
,
0100
0000
0000
0100
0000
0000
0010
0000
,
0001
0001
1000
1000
,
2002
3003
0000
0220
0330
0000
2002
0000
,
0000
0000
0000
0000
,
0000
0000
0000
0000
,
3003
0000
0000
0000
;

//---------------dance-single - Marten-bSP----------------
#NOTES:
     dance-single:
     Marten:
     Beginner:
     4:
     0.172024,0.306001,0.205417,0.134584,0,170,141,29,19,0,0,0.172024,0.306001,0.205417,0.134584,0,170,141,29,19,0,0:
0000
0000
0000
0000
,
0000
0000
0000
0000
,
0000
0000
0000
0000
,
0000
0000
0000
0000
,
0000
0000
0000
0000
,
0000
0000
0000
0000
,
0000
0000
0000
0000
,
0000
0000
0000
0000
,
1000
0000
0000
0000
,
0000
1000
0000
0000
,
0001
0000
0000
0000
,
0000
0001
0000
0000
,
0100
0000
0000
0000
,
0000
0100
0000
0000
,
0020
0000
0000
0000
,
0000
0000
0000
0030
,
1001
0000
0000
0000
,
0100
0000
0100
0000
,
1001
0000
0000
0000
,
0010
0000
0010
0000
,
1001
0000
0000
0000
,
1000
0000
0001
0000
,
0110
0000
0000
0000
,
0001
0000
1000
0000
,
1001
0000
0001
0000
,
0010
0000
0010
0000
,
1001
0000
1000
0000
,
0010
0000
0010
0000
,
0100
0000
0010
0000
,
1000
0000
0000
0001
0000
0000
2002
0000
,
0000
0000
0000
0000
,
0000
0000
0000
3003
,
0001
0000
1000
0000
,
0100
0000
0010
0010
,
0010
0000
0110
0000
,
0000
0100
0110
0000
,
0001
0000
1001
0000
,
0000
1000
1001
0000
,
0001
0000
1001
0000
,
0000
0100
0110
0010
,
0010
0000
0110
0000
,
0100
0100
0000
0001
,
0001
0000
1001
0000
,
1000
0000
1001
0000
,
0010
0000
0110
0000
,
0000
0100
0110
0000
,
2002
0000
0000
0000
,
0000
0000
0000
3003
,
0020
0000
0000
0030
,
2000
0000
0000
3000
,
0002
0000
0000
0000
,
0000
0003
2000
3000
,
0020
0000
0000
0030
,
0200
0000
0000
0300
,
0002
0000
0000
0000
,
0000
0000
0000
0003
,
1000
0000
1000
0000
,
0001
0000
0001
0000
,
0100
0000
0100
0000
,
0010
0000
0010
0000
,
1000
1000
1000
0000
,
0001
0001
0001
0000
,
2000
0000
0000
0000
,
0000
0000
3000
0000
,
0001
0000
0000
0000
,
0001
0000
0010
0010
,
0010
0000
0000
0000
,
0010
0000
1000
1000
,
1000
0000
0000
0000
,
1000
0000
0100
0100
,
0100
0000
0000
0000
,
0100
0000
0001
0001
,
0002
0003
0001
0000
,
0010
0000
0010
0000
,
1000
0000
1000
0000
,
0100
0000
0100
0000
,
0001
0000
1001
0000
,
0100
0000
0110
0000
,
2001
0000
0000
0000
,
0002
0000
0000
3003
,
1001
0000
0000
0000
,
0100
0000
0100
0000
,
1001
0000
0000
0000
,
0010
0000
0010
0000
,
1001
0000
0000
0000
,
0001
0000
1000
0000
,
0110
0000
0000
0000
,
0001
0000
1000
0000
,
1001
0020
0000
0030
,
0010
0000
0010
0000
,
1001
0000
0001
0000
,
0010
0000
0010
0000
,
0100
0000
0010
0000
,
0001
0000
0000
1000
0000
0000
2002
0000
,
0000
0000
0000
0000
,
0000
0000
0000
0000
,
3003
0000
0000
0000
;

//---------------dance-double - NewbStepper-EDP----------------
#NOTES:
     dance-double:
     NewbStepper:
     Hard:
     14:
     0.595002,0.714002,0.425001,0.184167,0.407293,588,528,60,26,0,0,0.595002,0.714002,0.425001,0.184167,0.407293,588,528,60,26,0,0:
00000000
00000000
00000000
00000000
,
00000000
00000000
00000000
00000000
,
00000000
00000000
00000000
00000000
,
00000000
00000000
00000000
00000000
,
00000000
00000000
00000000
00000000
,
00000000
00000000
00000000
00000000
,
00000000
00000000
00000000
00000000
,
00000000
00000000
00000000
00000000
,
11000000
00000000
00100000
00000000
,
00000000
01010000
00100000
00000000
,
00001100
00000000
00000010
00000000
,
00000000
00000101
00000010
00000000
,
00001010
00000000
00000100
00000000
,
00000000
00110000
01000000
00000000
,
00022000
00000000
00000000
00000000
,
00000000
00000000
00000000
00033000
,
00110000
00000000
00000000
00000000
10000000
00000000
00000000
01000000
00000000
00000000
01000000
00000000
00010000
00000000
00001000
00000000
,
00001010
00000000
00000000
00000011
00000000
00000000
00000110
00000000
00000000
00001001
00000000
00000000
00000011
00000000
00000000
00000000
,
00000002
00000100
00000000
00000000
00000103
00000000
00000000
00000010
00000000
00000100
00001000
00000000
00010000
00000000
00001000
00000000
,
00101000
00000000
00000000
00110000
00000000
00000000
10010000
00000000
00000000
11000000
00000000
00000000
00010000
00000000
00001000
00000000
,
00001010
00000000
00000000
00000000
00000001
00000000
00000000
00000100
00000000
00000000
00000100
00000000
00001000
00000000
00010000
00000000
,
00110000
00000000
00000000
10100000
00000000
00000000
01100000
00000000
00000000
10010000
00000000
00000000
10200000
00000000
00300000
00000000
,
10000000
01000000
00000000
00000000
01000000
00000000
00000000
00100000
00000000
01000000
00010000
00000000
00001000
00000000
00010000
00000000
,
00010010
00000000
00000000
00001010
00000000
00000000
00001001
00000000
00000001
00000000
00000100
00000000
00001000
00000000
00010000
00000000
,
01100000
00000000
00100000
00000000
10000000
01000000
00010000
00001000
,
00000010
00000001
00000000
00000100
00000010
00000000
00001000
00000100
00000000
00000100
00000010
00000000
00000011
00000000
00000100
00000000
,
00000110
00000000
00000010
00000000
00000001
00000100
00001000
00010000
,
00100000
10000000
00000000
01000000
00100000
00000000
00010000
01000000
00000000
01000000
00100000
00000000
10000000
00000000
01000000
00000000
,
00010000
01000000
00100000
00001000
00010000
00100000
00010000
00001000
,
00000010
00000001
00000010
00000000
00000001
00000100
00000001
00000000
00000100
00000010
00000100
00000000
00000001
00001000
00000001
00000000
,
00000020
00000000
00000000
00000000
,
00000000
00000000
00000000
00000030
,
00001000
00000000
00010000
00000000
00001000
00000000
00100000
00010000
00000000
00010000
01000000
00000000
10000000
01000000
00010000
00000000
,
00100000
00000000
00001000
00000000
00010000
00000000
00001000
00000010
00000000
00000100
00000010
00000000
00000002
00000000
00000000
00000000
,
00001003
00000100
00000100
00000001
00000100
00000100
00001000
00000010
,
00000010
00010000
00001000
00010000
01000000
20000000
00100000
30100000
,
01000000
00010000
00000000
00010000
00100000
00000000
00100000
01000000
00000000
00000000
10000000
00000000
01000000
00000000
01000000
00000000
,
00000000
00010000
00001000
00000100
00000010
00000001
00000010
00001000
,
00010000
00000000
01000000
00000000
00100000
00000000
00010000
00001000
00010000
00000000
00001000
00000000
00001010
00000000
00000010
00000000
,
00000001
00000201
00000000
00000310
00000110
00001000
00010000
00100000
,
02000000
00000000
03100000
00000000
10010000
10000000
00100000
00010000
,
00011000
00001000
00101000
00100000
00010000
00001000
00000100
00000000
,
00000001
00000000
00000100
00000000
00000010
00000001
00000000
00001000
00000010
00000000
00001000
00000000
00020000
00000000
01000000
00000000
,
01030000
00000000
20000000
00000000
01000000
00000000
31000000
00000000
00010000
00100000
00010000
00100000
01000000
00000000
00000000
00000000
,
10000000
00100000
00000000
10000000
00100000
00000000
01000000
00010000
00100000
00000000
00001000
00000000
00001000
00000000
00010000
00000000
,
00100000
00010000
00001000
00000010
00000001
00000010
00001000
00000000
,
00010000
00001000
00000000
00100000
00010000
00000000
01000000
00100000
00000000
00100000
00010000
00000000
00001000
00000000
00000010
00000000
,
00000002
00000000
00000000
00000003
,
00002000
00000000
00000100
00000000
,
00003002
00000100
00000010
00000000
,
00002003
00000000
00000010
00000000
,
00023000
01000000
10000000
00000000
,
20030000
00000000
00100000
00000000
,
32000000
00000000
10000000
00000000
,
03020000
00000000
00000000
00000000
,
00000000
00000000
00000000
00000000
,
00031000
00000100
00000001
00000100
00001000
00010000
00000100
00000010
,
00001000
00000000
00010000
00000000
00001000
00000000
00000010
00000000
00000100
00001000
00000100
00000000
00010000
00001000
00010000
00000000
,
00010000
01000000
10000000
01000000
00010000
00001000
01000000
00100000
,
00010000
00000000
00001000
00000000
00010000
00000000
00100000
00000000
01000000
00010000
01000000
00000000
00001000
00010000
00001000
00000000
,
00000010
00000010
00000001
00000001
00000100
00000100
00001000
00001000
,
00010000
00100000
10000000
01000000
00010000
00001000
00000100
00000001
,
00002000
00000000
00000000
00000000
,
00000000
00000000
00000000
00003000
,
00000001
00000100
00000000
00000100
00000001
00000000
00000000
00000000
00000010
00001000
00000000
00001000
00000010
00000000
00000000
00000000
,
00010000
00001000
00000000
00001000
00010000
00000000
00000000
00000000
00010000
00001000
00010000
00000000
00011000
00000000
00000000
00000000
,
00100000
10000000
00000000
10000000
00100000
00000000
00000000
00000000
00010000
01000000
00000000
01000000
00010000
00000000
00000000
00000000
,
00001000
00010000
00000000
00010000
00001000
00000000
00000000
00000000
00001000
00010000
00001000
00000000
00011000
00000000
00000000
00000000
,
00100000
10000000
00000000
00000000
01000000
00010000
00000000
00000000
00001000
00000010
00000000
00000000
00000001
00000100
00000000
00000000
,
00001000
00010000
00000000
00000000
00100000
10000000
00000000
00000000
01000000
00010000
00000000
00000000
00001000
00000010
00000000
00000000
,
00000001
00001000
00000010
00000100
00001000
01000000
00100000
10000000
,
00010000
00100000
01000000
00010000
00000100
00000010
00000001
00001000
,
00000001
00000100
00000000
00000010
00000000
00000000
00001000
00000000
00000100
00001000
00000000
00000001
00000010
00000000
00000000
00000000
,
00000001
00001000
00000100
00000010
00000001
00000100
00001000
00100000
,
00010000
01000000
00000000
00100000
00000000
00000000
10000000
00000000
01000000
10000000
00000000
00010000
00100000
00000000
00000000
00000000
,
00010000
01000000
00100000
10000000
01000000
00010000
00001000
00000010
,
00000001
00000100
00000000
00000100
00000001
00000000
00000000
00000000
00001000
00000100
00000000
00000100
00001000
00000000
00000000
00000000
,
00000001
00000100
00001000
00010000
00100000
10000000
01000000
00010000
,
00002000
00000000
00000000
00000000
,
00000020
00000000
00000000
00003030
,
00001010
00000000
00000000
00000000
00000001
00000000
00000000
00000100
00000000
00000000
00000100
00000000
00001000
00000000
00010000
00000000
,
00110000
00000000
00000000
10100000
00000000
00000000
01100000
00000000
00000000
10010000
00000000
00000000
10100000
00000000
00000000
00000000
,
20000000
01000000
00000000
00000000
31000000
00000000
00000000
00100000
00000000
01000000
00010000
00000000
00001000
00000000
00010000
00000000
,
00010010
00000000
00000000
00001010
00000000
00000000
00001001
00000000
00000000
00000101
00000000
00000000
00001000
00000000
00010000
00000000
,
00110000
00000000
00000000
00000000
10000000
00000000
00000000
01000000
00000000
00000000
01000000
00000000
00010000
00000000
00001000
00000000
,
00001010
00000000
00000000
00000011
00000000
00000000
00000110
00000000
00000000
00001001
00000000
00000000
00000021
00000000
00000030
00000000
,
00000001
00000100
00000000
00000000
00000100
00000000
00000000
00000010
00000000
00000100
00001000
00000000
00010000
00000000
00001000
00000000
,
00101000
00000000
00000000
00110000
00000000
00000000
10010000
00000000
10000000
00000000
01000000
00000000
00010000
00000000
00001000
00000000
,
00000110
00000000
00000000
00000000
00000001
00000200
00000000
00000000
00000000
00000300
00001000
00010000
00000000
00011000
00000000
00000000
,
00100000
10000000
00000000
01000000
00100000
00000000
00010000
01000000
00000000
01000000
00100000
00000000
10100000
00000000
01000000
00000000
,
01100000
00000000
00100000
00000000
10000000
01000000
00010000
00001000
,
00000010
00000001
00000000
00000100
00000010
00000000
00001000
00000100
00000000
00000100
00000010
00000000
00000001
00000000
00000100
00000000
,
00001000
00000100
00000010
00010000
00001000
00000010
00001000
00010000
,
00100000
10000000
00100000
00000000
10000000
01000000
10000000
00000000
01000000
00100000
01000000
00000000
10000000
00010000
10000000
00000000
,
00200000
00000000
00000000
00000000
,
00000000
00000000
00000000
00000000
,
00300000
00000000
00000000
00000000
;

//---------------dance-double - NewbStepper-DDP----------------
#NOTES:
     dance-double:
     NewbStepper:
     Medium:
     11:
     0.425001,0.578002,0.566669,0.340001,0.095625,420,340,80,48,0,0,0.425001,0.578002,0.566669,0.340001,0.095625,420,340,80,48,0,0:
00000000
00000000
00000000
00000000
,
00000000
00000000
00000000
00000000
,
00000000
00000000
00000000
00000000
,
00000000
00000000
00000000
00000000
,
00000000
00000000
00000000
00000000
,
00000000
00000000
00000000
00000000
,
00000000
00000000
00000000
00000000
,
00000000
00000000
00000000
00000000
,
00000101
00000000
00000010
00000000
,
00000000
00001100
00000010
00000000
,
01010000
00000000
00100000
00000000
,
00000000
11000000
00100000
00000000
,
00110000
00000000
01000000
00000000
,
00000000
00001010
00000100
00000000
,
00022000
00000000
00000000
00000000
,
00000000
00000000
00000000
00033000
,
00002020
00000000
00003030
00000000
,
00000101
00000000
00000000
00000110
00000000
00000000
00001010
00000000
00000000
00010010
00000000
00000000
00011000
00000000
00000000
00000000
,
02020000
03030000
00000000
00000000
00000000
00000000
00000000
00000000
,
11000000
00000000
00000000
01100000
00000000
00000000
00110000
00000000
00000000
00101000
00000000
00000000
00011000
00000000
00000000
00000000
,
00002200
00000000
00000000
00003300
00000000
00000000
00000000
00000000
,
00001001
00000000
00000000
00000011
00000000
00000000
00001010
00000000
00000000
00011000
00000000
00000000
00210000
00000000
00300000
00000000
,
02020000
03030000
00000000
00000000
00000000
00000000
00000000
00000000
,
10010000
00000000
00000000
10100000
00000000
00000000
00110000
00000000
00000000
00011000
00000000
00000000
00001010
00000000
00000000
00000000
,
00000101
00000010
00001001
00001000
,
00000001
00000000
00000000
00000010
00000000
00000000
00001000
00000000
00000000
00010000
00000000
00000000
00100000
00000000
10000000
00000000
,
11000000
00100000
10010000
00010000
,
10000000
00000000
00000000
00100000
00000000
00000000
00010000
00000000
00000000
00001000
00000000
00000000
00000010
00000000
00000001
00000000
,
00000100
00000010
00001000
00000100
00010000
00001000
00000010
00001000
,
00022000
00033000
00000000
02200000
03300000
00000000
20200000
00000000
,
00000000
00000000
00000000
00000000
,
00000000
00000000
00000000
30300000
,
10000000
01000000
00100000
01000000
00010000
00001000
00000010
00000000
,
00001000
00010000
00001000
00000100
00001000
00000100
00000001
00000000
,
00000010
00000000
00000001
00000101
00000000
00000100
00001100
00000000
,
00000000
00020000
00001000
00031000
02001000
00000000
03000000
00100000
,
10000000
00000000
00000000
00000000
01000000
00000000
00000000
00010000
00000000
00000000
00001000
00000000
00000010
00000000
00001000
00000000
,
00000000
00010000
00100000
00010000
00001000
00000010
00000001
00000000
,
00001000
00000010
00000000
00000100
00001100
00000000
00010000
00100000
,
00000000
01000000
01010000
00000000
00100000
10000000
01000000
00010000
,
00002000
00000000
00000000
00000000
00003010
00000001
00000100
00001000
,
00010000
00000000
00001000
00000000
00100000
00010000
00100000
01000000
,
20000000
00000000
30020000
00000000
00031000
00000100
00010000
00001000
,
00000010
00000002
00000000
00000103
00000110
00000000
00001000
00000000
,
00000001
00000000
00000000
00000100
00000000
00000000
00000001
00000000
00000010
00000000
00001000
00000000
00000000
00000000
00010000
00000000
,
00001000
00010000
00000100
00010000
00001000
00001000
00000000
00100000
,
00020000
00000000
00000000
00030000
,
20000000
00000000
00000000
30000000
,
00020000
00000000
01000000
00000000
,
10000000
00000000
00100000
00000000
,
00032000
00000000
00000100
00000000
,
00000001
00000000
00000010
00000000
,
00023000
00000000
00100000
00000000
,
10000000
00000000
01000000
00000000
,
00032000
00000000
00000010
00000000
,
00000001
00000000
00000100
00000000
,
00013000
01000000
00010000
00000000
10000000
01000000
10000000
00000000
,
01000000
00100000
01000000
00000000
00010000
00000000
00000100
00000000
,
00001000
00000100
00001000
00000000
00000001
00000100
00000001
00000000
,
00000100
00000010
00000100
00000000
00001000
00000000
01000000
00000000
,
00010000
10000000
00010000
00000000
00010000
00001000
00010000
00000000
,
00001000
00000001
00001000
00000000
00000001
00000100
00001000
00010000
,
00200000
00000000
00000000
00000000
,
00000000
00000000
00300000
00000000
,
00100000
10000000
00100000
00000000
10000000
01000000
10000000
00000000
,
01000000
00010000
01000000
00000000
00010000
00001000
00010000
00000000
,
00001000
00000010
00001000
00000000
00000010
00000001
00000010
00000000
,
00000001
00000100
00000001
00000000
00001001
00000000
00001001
00000000
,
00000010
00000001
00000100
00000000
00000001
00000100
00001000
00000000
,
00000100
00001000
00010000
00000000
00001000
00010000
00100000
00000000
,
00010000
00100000
10000000
00000000
00100000
10000000
01000000
00000000
,
10000000
01000000
00010000
00000000
01100000
00000000
00000000
00000000
,
00100000
10000000
01000000
00000000
01000000
00010000
00001000
00000000
,
00001000
00000010
00000001
00000000
00000001
00000100
00001000
00000000
,
00001000
00010000
00100000
00000000
00100000
10000000
01000000
00000000
,
01000000
00010000
00001000
00000000
00001001
00000000
00000000
00000000
,
00000010
00000001
00000100
00000000
00001000
00010000
00100000
00000000
,
10000000
01000000
00010000
00000000
00001100
00000000
00000110
00000000
,
00002000
00000000
00000000
00000000
,
00020000
00000000
00000000
00033000
,
00220000
00000000
00330000
00000000
,
11000000
00000000
00000000
01100000
00000000
00000000
00110000
00000000
00000000
00101000
00000000
00000000
00011000
00000000
00000000
00000000
,
00002200
00003300
00000000
00000000
00000000
00000000
00000000
00000000
,
00000101
00000000
00000000
00000110
00000000
00000000
00001010
00000000
00000000
00010010
00000000
00000000
00011000
00000000
00000000
00000000
,
02020000
00000000
00000000
03030000
00000000
00000000
00000000
00000000
,
10010000
00000000
00000000
10100000
00000000
00000000
00110000
00000000
00000000
00011000
00000000
00000000
00001020
00000000
00000030
00000000
,
00002200
00003300
00000000
00000000
00000000
00000000
00000000
00000000
,
00001001
00000000
00000000
00000011
00000000
00000000
00001010
00000000
00000000
00011000
00000000
00000000
00110000
00000000
00000000
00000000
,
11000000
00000000
00000000
00000000
00200000
00000000
00000000
00000000
00000000
00000000
01000000
00000000
00000000
01300000
00000000
00000000
,
10000000
00000000
00000000
00100000
00000000
00000000
00010000
00000000
00000000
00001000
00000000
00000000
00000010
00000000
00000001
00000000
,
00000101
00000010
00001001
00001000
,
00000001
00000000
00000000
00000010
00000000
00000000
00001000
00000000
00000000
00010000
00000000
00000000
00100000
00000000
10000000
00000000
,
01000000
00100000
00010000
01000000
00001000
00010000
00100000
00010000
,
00022000
00033000
00000000
00000220
00000330
00000000
00000022
00000000
,
00000000
00000000
00000000
00000000
,
00000000
00000000
00000000
00000000
,
00000033
00000000
00000000
00000000
;

//---------------dance-double - NewbStepper-BDP----------------
#NOTES:
     dance-double:
     NewbStepper:
     Easy:
     7:
     0.266132,0.442001,0.538335,0.290418,0.003542,263,187,76,41,0,0,0.266132,0.442001,0.538335,0.290418,0.003542,263,187,76,41,0,0:
00000000
00000000
00000000
00000000
,
00000000
00000000
00000000
00000000
,
00000000
00000000
00000000
00000000
,
00000000
00000000
00000000
00000000
,
00000000
00000000
00000000
00000000
,
00000000
00000000
00000000
00000000
,
00000000
00000000
00000000
00000000
,
00000000
00000000
00000000
00000000
,
10010000
00000000
01000000
00000000
,
00000000
10010000
01000000
00000000
,
00011000
00000000
00100000
00000000
,
00000000
00011000
00000010
00000000
,
00001001
00000000
00000100
00000000
,
00000000
00001001
00000100
00000000
,
00000220
00000000
00000000
00000000
,
00000000
00000000
00000000
00000330
,
00002002
00000000
00000000
00003003
00000000
00000000
00000000
00000000
,
00000101
00000000
00000000
00001100
00000000
00000000
00011000
00000000
,
02200000
00000000
00000000
03300000
00000000
00000000
00000000
00000000
,
11000000
00000000
00000000
01010000
00000000
00000000
00011000
00000000
,
00000220
00000330
00000000
00000000
00000000
00000000
00000000
00000000
,
00000011
00000000
00000000
00001010
00000000
00000000
00011000
00000000
,
02200000
00000000
00000000
03300000
00000000
00000000
00000000
00000000
,
10100000
00000000
00000000
00110000
00000000
00000000
00011000
00000000
,
00000220
00000330
00000000
00000000
00000000
00000000
00000000
00000000
,
00000101
00000000
00000000
00001010
00000000
00000000
00010100
00000000
,
00011000
00001000
00101000
00100000
,
01000000
00000000
00000000
01000000
00000000
00000000
00010000
00000000
,
00001000
00001000
00010000
00010000
,
00022000
00033000
00000000
00000100
00000000
00000000
00000010
00000000
,
00002002
00000000
00000000
00000000
,
00000000
00000000
00000000
00003003
,
00000001
00000100
00000010
00000100
,
00000001
00000010
00001000
00001000
,
00011000
00000000
01100000
00010000
,
00000000
10000000
01000000
00010000
,
00001000
00000000
00000110
00001000
,
00000000
00000001
00000100
00001000
,
00010000
00000000
01100000
00100000
,
00000000
10000000
00100000
00010000
,
00002000
00000000
00103000
00010000
,
00000000
01100000
00010000
00001000
,
00000110
00000000
00001001
00000000
,
00000001
00000100
00001000
00010000
,
01100000
00000000
10010000
00000000
,
10000000
01000000
00010000
00001000
,
00000200
00000000
00000000
00000000
,
00000000
00000000
00000000
00000300
,
00000002
00000000
00000000
00000003
,
00002000
00000000
00000000
00003000
,
00000020
00000000
00000000
00000000
,
00000000
00000000
00000000
00000030
,
00020000
00000000
00000000
00030000
,
00002000
00000000
00000000
00000000
,
02000000
00000000
00000000
00000000
,
00000000
00000000
00000000
03003000
,
10010000
10000000
00010000
00010000
,
10000000
01000000
00010000
00010000
,
00001000
00000010
00000001
00001000
,
00001001
00000001
00001000
00001000
,
00000001
00000100
00001000
00001000
,
00010000
00100000
10000000
00010000
,
20000000
00000000
00000000
00000000
,
00000000
00000000
30000000
00000000
,
10100000
00000000
00110000
00000000
,
10010000
00000000
00000000
00000000
,
00000011
00000000
00001010
00000000
,
00001001
00000000
00000000
00000000
,
01010000
00000000
11000000
00000000
,
10010000
00000000
00000000
00000000
,
00001100
00000000
00000101
00000000
,
00001001
00000000
00000000
00000000
,
00100000
00000000
10010000
00000000
,
01000000
01000000
10010000
00000000
,
00001000
00000000
00010000
00000000
,
00000010
00000010
00001001
00000000
,
00000001
00000000
00000100
00000000
,
00001000
00000000
00010000
00000000
,
00200000
00000000
00000000
00000000
,
02000000
00000000
00000000
03300000
,
20020000
00000000
00000000
30030000
00000000
00000000
00000000
00000000
,
11000000
00000000
00000000
01010000
00000000
00000000
00011000
00000000
,
00000220
00000000
00000000
00000330
00000000
00000000
00000000
00000000
,
00000101
00000000
00000000
00001100
00000000
00000000
00011000
00000000
,
02200000
03300000
00000000
00000000
00000000
00000000
00000000
00000000
,
10100000
00000000
00000000
00110000
00000000
00000000
00011000
00000000
,
00000220
00000000
00000000
00000330
00000000
00000000
00000000
00000000
,
00000011
00000000
00000000
00001010
00000000
00000000
00011000
00000000
,
02200000
00000000
00000000
00000000
00000000
00000000
03300000
00000000
00000000
00000000
00000000
00000000
00000000
01000000
00000000
00000000
,
10000000
00000000
00000000
00010000
00000000
00000000
00001000
00000000
,
00000000
00000100
00000010
00000010
,
00000100
00000000
00000000
00000100
00000000
00000000
00001000
00000000
,
00010000
00010000
00001000
00001000
,
00022000
00033000
00000000
01000000
00000000
00000000
00100000
00000000
,
20020000
00000000
00000000
00000000
,
00000000
00000000
00000000
00000000
,
30030000
00000000
00000000
00000000
;

//---------------dance-single - Kekkle-CSP----------------
#NOTES:
     dance-single:
     Kekkle:
     Challenge:
     17:
     0.755895,0.952003,0.510002,0.368335,0.796878,747,675,72,52,0,0,0.755895,0.952003,0.510002,0.368335,0.796878,747,675,72,52,0,0:
0000
0000
0000
0000
,
0000
0000
0000
0000
,
0000
0000
0000
0000
,
0000
0000
0000
0000
,
0000
0000
0000
0000
,
0000
0000
0000
0000
,
0000
0000
0000
0000
,
0000
0000
0000
0000
,
0001
0200
0310
1000
,
0001
0010
0110
0000
,
0100
2000
3010
0100
,
0001
1000
1100
0000
,
0100
0020
0031
1000
,
0010
0100
0110
0001
,
2002
0000
0000
0000
,
0000
0000
0000
3003
,
0001
0100
0000
0010
1000
0000
0100
0010
0000
0010
0001
0000
1001
0000
0100
0000
,
0110
0000
0000
0101
0000
0000
1010
0000
0000
1100
0000
0000
1001
0000
0001
0000
,
0100
0010
0000
1000
0001
0000
0010
0100
0000
0100
1000
0000
1001
0000
0001
0000
,
0101
0000
0000
0110
0000
0000
1010
0000
0000
0101
0000
0000
0011
0000
0001
0000
,
1000
0010
0000
0100
0010
0000
0001
0010
0000
0010
1000
0000
1100
0000
0100
0000
,
0110
0000
0000
0011
0000
0000
1010
0000
0000
0110
0000
0000
1001
0000
0100
0000
,
0010
0001
0000
1000
0010
0000
0100
0001
0000
0001
0010
0000
0110
0000
0100
0000
,
1100
0000
0000
1001
0000
0000
0101
0000
0100
0010
0100
0010
1000
0001
1000
0001
,
0010
0100
0000
1000
0001
0000
0100
0000
0110
0000
0010
0000
1000
0001
0010
0000
,
0100
1000
0000
0010
0100
0000
0100
0000
0001
1000
0000
1000
0100
0000
0100
0000
,
0010
0001
0000
1000
0010
0000
0100
0000
0101
0000
0001
0000
1000
0100
0010
0000
,
0001
0100
0000
0010
1000
0000
1000
0000
0001
0010
0000
0010
0100
0000
0100
0000
,
1000
0010
0001
1000
0100
0001
0010
0100
,
1000
0001
1000
0100
0010
0100
1000
0001
0100
0010
0100
1000
0100
0001
1000
0200
,
0020
0000
0000
0000
,
0000
0000
0000
0330
,
1000
0000
1000
0000
0010
0000
0100
0001
1000
0100
0010
0100
1000
0001
1000
0001
,
0100
0000
0010
1000
0100
0010
0001
0010
0100
0010
0100
1000
0020
0000
0000
0000
,
0130
0000
0001
0000
1000
0010
0100
0000
0110
0000
0010
0000
1000
0001
0010
0000
,
0110
0000
0100
1000
0001
0100
0010
0000
1010
0000
1000
0001
0010
0100
1000
0100
,
0010
0001
0000
0001
0100
0000
0100
0010
1000
0000
0001
0000
0010
0001
1000
0000
,
0010
0000
0110
0000
0100
0000
0101
0000
0001
0000
1000
0010
0100
0001
0100
0010
,
1000
0000
0001
0010
0100
1000
0100
0010
0001
0000
1000
0000
0010
0100
0001
0000
,
1000
0000
1200
0000
0000
0000
0310
0000
0011
0000
0001
1000
0010
0100
0010
0100
,
0002
0000
0000
0000
0000
0000
0000
0000
1003
0000
0010
0000
0100
0001
1000
0000
,
0001
0000
0011
0000
0010
0000
0110
0000
0100
1000
0001
0100
0010
1000
0001
0010
,
0100
0000
1000
0000
0010
0100
0001
0100
0010
0000
1000
0000
0001
0010
0100
0000
,
1000
0000
0020
0000
0130
0000
0001
0000
0010
0100
1000
0100
0010
0001
0100
0001
,
2000
0000
0000
0000
3001
0000
0001
0000
1001
0000
1000
0000
0010
0100
0001
0000
,
1000
0000
1000
0000
0100
0000
0010
0000
0100
1000
0100
0010
0100
1000
0001
0100
,
0020
0000
0000
0000
,
0000
0000
0000
0000
,
0230
0000
0301
0000
,
0020
1000
0130
0000
,
2000
0000
3010
0000
,
0200
1000
0310
0000
,
0200
0000
0301
0000
,
2000
3010
0200
0000
,
0020
0000
0000
0000
,
0000
0000
0000
0330
,
0010
0100
0000
0100
0001
0000
1000
0000
0100
0010
0000
0010
0001
0000
0100
0000
,
0010
1000
0000
1000
0001
0000
0010
0000
0100
1000
0001
0000
0100
0000
0000
0000
,
0001
0100
0000
0100
0010
0000
1000
0000
0100
0010
0000
0010
0001
0000
0010
0000
,
0100
1000
0000
1000
0010
0000
0100
0000
0001
0010
0100
0000
1000
0000
0010
0000
,
0100
0010
0001
0010
0100
0001
1000
0100
,
0010
0001
0010
0100
1000
0010
0100
0001
0100
0010
0100
1000
0100
0010
0100
0001
,
2000
0000
0000
0000
,
0000
0000
0000
3001
,
0100
0002
0000
1003
0020
0000
0130
0000
0001
0020
0000
0130
2000
0000
3010
0000
,
1000
0020
0000
0130
0002
0000
0013
0000
0100
1000
0100
0010
0001
1000
0001
0000
,
0100
0020
0000
1030
0002
0000
0013
0000
0100
2000
0000
3001
0020
0000
0031
0000
,
1000
0020
0000
0130
0002
0000
0013
0000
0001
0100
0001
1000
0100
0010
0001
0000
,
0010
0200
0000
1300
0002
0000
0103
0000
0010
2000
0000
3001
0020
0000
0130
0000
,
1000
0020
0000
0130
0002
0000
1003
0000
0100
0010
0001
1000
0010
0100
0010
0000
,
1000
0020
0000
1030
0200
0000
0310
0000
0001
0200
0000
0301
0020
0000
0130
0000
,
1000
0002
0000
0013
0200
0000
1300
0000
0010
0100
0001
1000
0200
0000
0000
0000
,
1300
0010
0001
0010
1000
0000
0100
0000
0010
0001
0010
0100
1000
0000
0010
0000
,
0100
0001
0100
0010
1000
0000
0100
0000
0010
0001
1000
0000
1001
0000
0000
0000
,
0001
0100
0010
1000
0100
0000
0010
0000
0001
1000
0001
0010
0100
0000
1000
0000
,
0010
0100
0010
1000
0001
0000
0010
0000
0100
1000
0001
0000
1001
0000
0000
0000
,
1100
0100
0010
0001
0101
0100
0010
1000
,
0010
0100
0010
1000
0001
0010
0100
1000
0100
0010
0001
1000
0100
0001
0100
1000
,
0020
0000
0000
0000
,
0000
0000
0000
0000
,
0130
0001
0000
0010
0100
0000
1000
0001
0000
0001
0100
0000
0110
0000
0010
0000
,
1010
0000
0000
0101
0000
0000
0011
0000
0000
1100
0000
0000
1001
0000
0001
0000
,
0010
0100
0000
0010
0001
0000
0100
0010
0000
0010
1000
0000
1100
0000
0100
0000
,
0110
0000
0000
0011
0000
0000
1100
0000
0000
0101
0000
0000
0110
0000
0010
0000
,
1000
0001
0000
1000
0100
0000
0010
0001
0000
0001
0100
0000
0101
0000
0001
0000
,
1001
0000
0000
1100
0000
0000
0011
0000
0000
0101
0000
0000
1010
0000
0010
0000
,
0100
0001
0000
0010
0100
0000
1000
0010
0000
0100
0001
0000
1001
0000
1000
0000
,
1100
0000
0100
0010
0100
1000
0010
0100
0001
1000
0001
1000
0100
0010
0100
0010
,
0002
0000
0000
0000
1003
0200
0000
0000
0301
0200
0000
0000
0000
0310
0000
0000
,
0011
0000
0000
1100
0000
0000
1010
0000
0000
0101
0000
0000
0011
0000
0001
0000
,
1000
0010
0000
0100
0001
0000
0010
0100
0010
0001
0000
1000
0010
0000
0100
0000
,
0101
0000
0000
0011
0000
0000
1010
0000
0000
1100
0000
0000
1001
0000
0001
0000
,
0100
0100
0010
0010
1000
1000
0100
0100
,
0010
0001
0010
0100
1000
0010
0100
0010
0001
0010
0100
0001
0010
0100
1000
0100
,
0020
0000
0000
0000
,
0000
0000
0000
0000
,
0031
0000
0000
0000
;

//---------------dance-double - Kekkle-CDP----------------
#NOTES:
     dance-double:
     Kekkle:
     Challenge:
     17:
     0.742741,0.918003,0.481668,0.219584,0.779169,734,666,68,31,0,0,0.742741,0.918003,0.481668,0.219584,0.779169,734,666,68,31,0,0:
// measure 0
00000000
00000000
00000000
00000000
,  // measure 1
00000000
00000000
00000000
00000000
,  // measure 2
00000000
00000000
00000000
00000000
,  // measure 3
00000000
00000000
00000000
00000000
,  // measure 4
00000000
00000000
00000000
00000000
,  // measure 5
00000000
00000000
00000000
00000000
,  // measure 6
00000000
00000000
00000000
00000000
,  // measure 7
00000000
00000000
00000000
00000000
,  // measure 8
20000000
30100000
01100000
01000000
,  // measure 9
00002000
00013000
00011000
00000000
,  // measure 10
00002000
00013000
00010100
00000100
,  // measure 11
00002000
00003001
00001001
00000000
,  // measure 12
00000002
00000013
00000110
00000100
,  // measure 13
00020000
00031000
00011000
00000000
,  // measure 14
00022000
00000000
00000000
00000000
,  // measure 15
00000000
00000000
00000000
00033000
,  // measure 16
00001000
00010000
00000000
00010000
00100000
00000000
00100000
10000000
00000000
10000000
01000000
00000000
01100000
00000000
00100000
00000000
,  // measure 17
00101000
00000000
00000000
00011000
00000000
00000000
00010010
00000000
00000000
00000110
00000000
00000000
00000101
00000000
00000001
00000000
,  // measure 18
00001000
00000010
00000000
00000010
00000001
00000000
00000001
00000010
00000000
00000010
00010000
00000000
00000100
00000000
00001000
00000000
,  // measure 19
00001100
00000000
00000000
00010100
00000000
00000000
00011000
00000000
00000000
01001000
00000000
00000000
01100000
00000000
00100000
00000000
,  // measure 20
10000000
00010000
00000000
00010000
00001000
00000000
00001000
00000010
00000000
00000010
00000100
00000000
00000001
00000000
00001000
00000000
,  // measure 21
00001001
00000000
00000000
00000011
00000000
00000000
00001001
00000000
00000000
00001100
00000000
00000000
00010100
00000000
00010000
00000000
,  // measure 22
00001000
00010000
00000000
00010000
00100000
00000000
00100000
10000000
00000000
10000000
01000000
00000000
00100000
00000000
00001000
00000000
,  // measure 23
00011000
00000000
00000000
00010100
00000000
00000000
00011000
00000000
00000000
01001000
00000000
00000000
01000000
00010000
01000000
00100000
,  // measure 24
10000000
00010000
00000000
00100000
01000000
00000000
10000000
00000000
10010000
00000000
00010000
00000000
01000000
00001000
00010000
00000000
,  // measure 25
00001000
00010000
00000000
00001000
00000100
00000000
00000100
00000000
00001000
00010000
00000000
01000000
00010000
00000000
00010000
00000000
,  // measure 26
00001000
00000100
00000000
00000010
00000100
00000000
00000001
00000000
00001001
00000000
00001000
00000000
00000100
00000010
00000001
00000000
,  // measure 27
00001000
00000010
00000000
00001000
00010000
00000000
00010000
00000000
00100000
01000000
00000000
00100000
00001000
00000000
00001000
00000000
,  // measure 28
00010000
00010000
00000010
00000010
00000100
00000100
00000001
00000001
,  // measure 29
00001000
00000100
00001000
00000100
00010000
00000010
00010000
00001000
01000000
00010000
01000000
00100000
10000000
00010000
10000000
01000000
,  // measure 30
00200000
00000000
00000000
00000000
,  // measure 31
00000000
00000000
00000000
00300000
,  // measure 32
00001000
00000000
00001000
00000000
00010000
00000000
00000010
00001000
00000010
00000100
00000001
00001000
00000100
00000010
00000100
00000010
,  // measure 33
00000001
00000000
00001000
00000000
00000010
00010000
00001000
00000000
00010000
00000000
00001000
01000000
00020000
00000000
00000000
00000000
,  // measure 34
10030000
00000000
10000000
00000000
01000000
00000000
00100000
00000000
00010000
01000000
00100000
00000000
00010000
00001000
00010000
00000000
,  // measure 35
00001000
00000000
00000200
00000000
00000310
00000000
00001000
00000000
00000001
00000010
00000100
00001000
00000100
00000010
00000001
00000000
,  // measure 36
00001000
00000010
00000000
00001000
00000100
00000000
00010000
00001000
00010000
00100000
00000000
01000000
00010000
00000000
10000000
00000000
,  // measure 37
01000000
00000000
01100000
00000000
00100000
00000000
00110000
00000000
00010000
10000000
00100000
01000000
00010000
01000000
00100000
10000000
,  // measure 38
00010000
00000000
00100000
00000000
01000000
00100000
00001000
00000000
00011000
00000000
00010000
00000000
00000010
00001000
00000001
00000000
,  // measure 39
00000010
00000000
00000210
00000000
00000000
00000000
00001300
00000000
00000001
00000100
00000010
00010000
00001000
00010000
00000010
00001000
,  // measure 40
00000200
00000000
00000000
00000000
00000000
00000000
00000000
00000000
00010300
00000000
00001000
00000000
00010000
00001000
01000000
00000000
,  // measure 41
00010000
00000000
10010000
00000000
10000000
00000000
11000000
00000000
01000000
00100000
00010000
00100000
01000000
10000000
00010000
01000000
,  // measure 42
00100000
00000000
01000000
00000000
00010000
00100000
00001000
00010000
00001000
00000000
00010000
00000000
00000010
00001000
00000001
00000000
,  // measure 43
00000010
00000000
00000200
00000000
00001300
00000000
00000010
00000000
00000100
00000001
00000100
00000010
00001000
00000100
00010000
00000100
,  // measure 44
00002000
00000000
00000000
00000000
00003100
00000000
00010000
00000000
00001000
00000000
01000000
00000000
00010000
00100000
01000000
00000000
,  // measure 45
10000000
00000000
00010000
00000000
01000000
00000000
01000000
00000000
00100000
10000000
00100000
01000000
00001000
00010000
00001000
01000000
,  // measure 46
00200000
00000000
00000000
00000000
,  // measure 47
00000000
00000000
00000000
00300000
,  // measure 48
20000000
00000000
30010000
00000000
,  // measure 49
00200000
01000000
00301000
00000000
,  // measure 50
00020000
00000000
00030010
00000000
,  // measure 51
00000200
00001000
00000301
00000000
,  // measure 52
00000020
00000000
00001030
00000000
,  // measure 53
00020000
00100000
00031000
00000000
,  // measure 54
00022000
00000000
00000000
00000000
,  // measure 55
00000000
00000000
00000000
00033000
,  // measure 56
00001000
01000000
00000000
01000000
00010000
00000000
10000000
00000000
01000000
00100000
00000000
00100000
00001000
00000000
00010000
00000000
,  // measure 57
00001000
01000000
00000000
01000000
00001000
00000000
00010000
00000000
00001000
00010000
00000010
00000000
00001010
00000000
00000000
00000000
,  // measure 58
00001000
00000001
00000000
00000001
00000010
00000000
00000100
00000000
00001000
00000010
00000000
00000010
00000100
00000000
00001000
00000000
,  // measure 59
00010000
00001000
00000000
00001000
01000000
00000000
00010000
00000000
00100000
01000000
10000000
00000000
10010000
00000000
00010000
00000000
,  // measure 60
01000000
00001000
00010000
00000010
00001000
00000001
00000010
00000100
,  // measure 61
00001000
00000001
00001000
00000010
00010000
00001000
00010000
00000100
00010000
00001000
01000000
00001000
01000000
00010000
01000000
00100000
,  // measure 62
20000000
00000000
00000000
00000000
,  // measure 63
00000000
00000000
00000000
30100000
,  // measure 64
01000000
00001000
00000000
00001000
00010000
00000000
01000000
00000000
00100000
00001000
00000000
00001000
00010000
00000000
00000010
00000000
,  // measure 65
00001000
00000001
00000000
00000001
00000010
00000000
00000100
00000000
00001000
00000001
00001000
00000001
00000010
00000100
00001000
00000000
,  // measure 66
00000100
00010000
00000000
00010000
00001000
00000000
01000000
00000000
00010000
00100000
00000000
00100000
01000000
00000000
10000000
00000000
,  // measure 67
00100000
01000000
00000000
01000000
00001000
00000000
00010000
00000000
00001000
00010000
00001000
00010000
00000010
00001000
00000100
00000000
,  // measure 68
00000010
00000001
00000000
00000001
00001000
00000000
00000010
00000000
00000100
00001000
00000000
00001000
00010000
00000000
00100000
00000000
,  // measure 69
01000000
00001000
00000000
00001000
00010000
00000000
01000000
00000000
00100000
00010000
00100000
01000000
10000000
00010000
10000000
00000000
,  // measure 70
00100000
01000000
00000000
01000000
00001000
00000000
00010000
00000000
00100000
01000000
00000000
01000000
00001000
00000000
00010000
00000000
,  // measure 71
00001000
00010000
00000000
00010000
00000100
00000000
00001000
00000000
00000001
00000100
00000010
00001000
00000020
00000000
00000000
00000000
,  // measure 72
00000130
00001000
00010000
00100000
01000000
00000000
00010000
00000000
00100000
01000000
10000000
00010000
01000000
00000000
00100000
00000000
,  // measure 73
10000000
00010000
01000000
00001000
00010000
00000000
00001000
00000000
00010000
00000010
00000100
00000000
00000110
00000000
00000000
00000000
,  // measure 74
00000010
00001000
00000001
00000010
00000100
00000000
00000010
00000000
00000001
00001000
00000100
00010000
00001000
00000000
00010000
00000000
,  // measure 75
00001000
01000000
00010000
01000000
00100000
00000000
10000000
00000000
00010000
00100000
01000000
00000000
01100000
00000000
00000000
00000000
,  // measure 76
00100000
00100000
00001000
00001000
00010000
00010000
00000010
00000010
,  // measure 77
00000100
00000001
00000100
00000001
00001000
00000100
00010000
00001000
00010000
00100000
01000000
00010000
10000000
01000000
00100000
01000000
,  // measure 78
20000000
00000000
00000000
00000000
,  // measure 79
00000000
00000000
00000000
30000000
,  // measure 80
00100000
01000000
00000000
01000000
00001000
00000000
00001000
00010000
00000000
00010000
00000100
00000000
00001100
00000000
00001000
00000000
,  // measure 81
00001001
00000000
00000000
00001100
00000000
00000000
00010100
00000000
00000000
00011000
00000000
00000000
01001000
00000000
01000000
00000000
,  // measure 82
00010000
10000000
00000000
10000000
01000000
00000000
01000000
00010000
00000000
00010000
00001000
00000000
01001000
00000000
01000000
00000000
,  // measure 83
01010000
00000000
00000000
01001000
00000000
00000000
00011000
00000000
00000000
00010010
00000000
00000000
00000110
00000000
00000100
00000000
,  // measure 84
00000001
00001000
00000000
00001000
00010000
00000000
00010000
00001000
00000000
00001000
00000010
00000000
00010010
00000000
00010000
00000000
,  // measure 85
00011000
00000000
00000000
01001000
00000000
00000000
01010000
00000000
00000000
01100000
00000000
00000000
10100000
00000000
10000000
00000000
,  // measure 86
00010000
00100000
00000000
00100000
01000000
00000000
01000000
00010000
00000000
00010000
00001000
00000000
00000100
00000000
00000010
00000000
,  // measure 87
00001000
00000000
00000001
00000010
00000100
00000010
00000001
00000010
00000100
00010000
00001000
00010000
00000100
00010000
00001000
01000000
,  // measure 88
00020000
00000000
00000000
00000000
10030000
00020000
00000000
00000000
01030000
00020000
00000000
00000000
00000000
10030000
00000000
00000000
,  // measure 89
10100000
00000000
00000000
01100000
00000000
00000000
01001000
00000000
00000000
00011000
00000000
00000000
00010100
00000000
00000100
00000000
,  // measure 90
00000010
00000001
00000000
00000001
00001000
00000000
00000010
00001000
00000010
00010000
00000000
00010000
00001000
00000000
00010000
00000000
,  // measure 91
00011000
00000000
00000000
00101000
00000000
00000000
00011000
00000000
00000000
00010010
00000000
00000000
00000110
00000000
00000100
00000000
,  // measure 92
00000001
00001000
00000100
00010000
00001000
01000000
00010000
10000000
,  // measure 93
01000000
00100000
01000000
10000000
01000000
00100000
00001000
00010000
00001000
01000000
00001000
00010000
00000010
00001000
00000010
00000100
,  // measure 94
00000020
00000000
00000000
00000000
,  // measure 95
00000000
00000000
00000000
00000000
,  // measure 96
00001030
00000000
00000000
00000000
;
