#VERSION:0.83;
#TITLE:SEVEN ~漆戒~;
#ARTIST:NAOKI feat.小坂りゆ;
#TITLETRANSLIT:SEVEN ~Shikkai~;
#ARTISTTRANSLIT:NAOKI feat. Riyu Kosaka;
#MUSIC:SEVEN ~Shikkai~.ogg;
#SAMPLESTART:74.325;
#SAMPLELENGTH:15;
#OFFSET:1.546;
#BPMS:0=155;

//---------------dance-single - Talkion-bSP----------------
#NOTEDATA:;
#CHARTNAME:Talkion-bSP;
#STEPSTYPE:dance-single;
#DESCRIPTION:Talkion-bSP;
#DIFFICULTY:Beginner;
#METER:3;
#CREDIT:Talkion;
#NOTES:
0000
0000
0000
0000
,
0000
0000
0000
0000
,
0000
0000
0000
0000
,
0000
0000
0000
0000
,
0000
0000
0000
0000
,
1000
0000
0000
0000
,
1000
0000
0000
0000
,
1000
0000
0000
0000
,
1000
0000
0000
0000
,
0001
0000
0001
0000
,
0100
0000
0000
0000
,
1000
0000
1000
0000
,
0100
0000
0000
0000
,
0001
0000
0001
0000
,
0100
0000
0000
0000
,
1000
0000
1000
0000
,
0100
0000
0000
0000
,
0001
0000
1000
0000
,
0010
0000
0000
0000
,
1000
0000
0001
0000
,
0010
0000
0000
0000
,
0001
0000
1000
0000
,
0010
0000
0000
0000
,
0100
0000
0100
0000
,
0100
0000
0100
0000
,
0001
0000
0010
0000
,
0100
0000
0000
0000
,
1000
0000
0010
0000
,
0100
0000
0000
0000
,
0001
0000
0010
0000
,
0100
0000
0000
0000
,
1000
0000
1000
0000
,
1001
0000
0000
0000
,
1002
0000
0000
0000
,
0003
0000
0000
0000
,
0000
0000
0000
0000
,
0000
0000
0000
0000
,
0000
0000
0000
0000
,
0000
0000
0000
0000
,
0000
0000
0000
0000
,
0000
0000
0000
0000
,
2000
0000
0000
0000
,
3000
0000
0000
0000
,
0002
0000
0000
0000
,
0003
0000
0000
0000
,
2000
0000
0000
0000
,
3000
0000
0000
0000
,
0002
0000
0000
0000
,
0003
0000
0000
0000
,
1000
0000
0010
0000
,
0001
0000
0000
0000
,
0001
0000
0010
0000
,
1000
0000
0000
0000
,
1000
0000
0100
0000
,
0001
0000
0000
0000
,
0001
0000
0100
0000
,
1000
0000
0000
0000
,
0001
0000
0001
0000
,
0100
0000
0010
0000
,
1000
0000
1000
0000
,
0100
0000
0010
0000
,
0001
0000
0001
0000
,
0100
0000
0010
0000
,
1000
0000
1000
0000
,
0001
0000
0010
0000
,
0100
0000
0100
0000
,
1000
0000
0010
0000
,
0100
0000
0100
0000
,
0001
0000
0010
0000
,
0100
0000
0100
0000
,
1000
0000
0010
0000
,
0100
0000
0100
0000
,
0001
0000
0000
0000
,
2001
0000
0000
0000
,
0000
0000
0000
3000
,
0000
0000
0000
0000
,
0001
0000
0001
0000
,
0002
0000
0000
0000
,
0000
0000
0000
0000
,
0000
0000
0000
0000
,
0000
0000
0000
0000
,
0003
0000
0000
0000
;

//---------------dance-single - Talkion-BSP----------------
#NOTEDATA:;
#CHARTNAME:Talkion-BSP;
#STEPSTYPE:dance-single;
#DESCRIPTION:Talkion-BSP;
#DIFFICULTY:Easy;
#METER:6;
#CREDIT:Talkion;
#NOTES:
0000
0000
0000
0000
,
0000
0000
0000
0000
,
0000
0000
0000
0000
,
0000
0000
0000
0000
,
0000
0000
0000
0000
,
1000
0000
0100
0000
,
0010
0000
0001
0000
,
1000
0000
0010
0000
,
0100
0000
0002
0003
,
1000
0000
0010
0000
,
0100
0010
1000
0000
,
0001
0000
0010
0000
,
0100
0010
0001
0000
,
1000
0000
0010
0000
,
0100
0010
1000
0000
,
0001
0010
0100
0000
,
1000
0001
0100
0000
,
0001
0001
1000
1000
,
0200
0000
0000
0010
0000
0000
0300
0000
,
1000
1000
0001
0001
,
0200
0000
0000
0010
0000
0000
0300
0000
,
0001
0001
1000
1000
,
0200
0000
0000
0010
0000
0000
0300
0000
,
1000
1000
1000
0001
,
0010
0100
1000
0000
,
0001
0001
0100
0100
,
0020
1000
0100
0030
,
1000
1000
0100
0100
,
0020
0001
0100
0030
,
0001
0001
0100
0100
,
0020
1000
0100
0030
,
0001
0001
1000
0000
,
1001
0000
0000
0000
,
2002
0000
0000
0000
,
3003
0000
0000
0000
,
0000
0000
0000
0000
,
0000
0000
0000
0000
,
0200
0000
0000
0000
,
0000
0000
0000
0000
,
0000
0000
0000
0000
,
0000
0000
0000
0300
,
0002
0003
0200
0300
,
0020
0000
0030
0000
,
2000
3000
0200
0300
,
0020
0000
0030
0000
,
0002
0003
0200
0300
,
2000
0000
3000
0000
,
0002
0003
0020
0030
,
2000
0000
3000
0000
,
0001
0010
1000
0010
,
0001
0000
1000
1000
,
0001
0100
1000
0100
,
0001
0000
1000
1000
,
0001
0010
0100
0001
,
1000
0000
0010
0010
,
0001
0000
1000
0000
,
1001
0000
1001
0000
,
0001
0001
0100
0100
,
1000
0100
0001
0000
,
1000
1000
0100
0100
,
0001
0100
1000
0000
,
0001
0001
0100
0100
,
1000
0100
0001
0000
,
1000
1000
0100
0100
,
0001
1000
0010
0000
,
0001
0001
0010
0010
,
1000
0010
0001
0000
,
1000
1000
0010
0010
,
0001
0010
1000
0000
,
0001
0001
0010
0010
,
1000
0010
0001
0000
,
1000
1000
0010
0010
,
0001
1000
0100
0001
,
2002
0000
0000
0000
,
0000
0000
0000
3003
,
0000
0000
0000
0000
,
2000
0000
3001
0020
,
0200
0000
0000
0000
,
0000
0000
0000
0000
,
0000
0000
0000
0000
,
0000
0000
0000
0000
,
0330
0000
0000
0000
;

//---------------dance-single - Talkion-DSP----------------
#NOTEDATA:;
#CHARTNAME:Talkion-DSP;
#STEPSTYPE:dance-single;
#DESCRIPTION:Talkion-DSP;
#DIFFICULTY:Medium;
#METER:9;
#CREDIT:Talkion;
#NOTES:
0000
0000
0000
0000
,
0000
0000
0000
0000
,
0000
0000
0000
0000
,
0000
0000
0000
0000
,
0000
0000
0000
0000
,
1000
1000
0100
0100
,
0010
0010
0001
0001
,
1000
1000
0010
0010
,
0100
0000
0100
0000
0002
0000
1003
0100
,
1000
0000
0001
0100
0020
0000
0031
0000
,
0020
0000
1000
0000
0130
0000
0001
0100
,
0001
0000
1000
0100
0020
0000
1030
0000
,
0020
0000
0001
0000
0130
0000
1000
0100
,
1000
0000
0001
0100
0020
0000
0031
0000
,
0020
0000
1000
0000
0130
0000
0001
1000
,
0002
0013
2000
3010
,
0002
0010
1003
1001
,
0001
0100
0001
0000
0100
1000
0100
0000
,
0010
0100
0000
0100
0002
0000
0003
0000
,
1000
0100
1000
0000
0100
0001
0100
0000
,
0010
0100
0000
0100
2000
0000
3000
0000
,
0001
0100
0001
0000
0100
1000
0100
0000
,
0010
0100
0000
0100
0002
0000
0003
0000
,
1000
0010
0001
0100
,
1000
0001
1000
0000
2002
0000
3003
0000
,
0001
0010
0001
0000
0010
1000
0010
0000
,
0001
0100
0000
0100
0020
0000
0030
0000
,
1000
0010
1000
0000
0010
0001
0010
0000
,
1000
0100
0000
0100
0020
0000
0030
0000
,
0001
0010
0001
0000
0010
1000
0010
0000
,
0001
0100
0000
0100
0020
0000
0030
0000
,
1000
0010
0001
0100
,
1000
0000
0000
1000
0000
0000
1000
0000
0001
0000
0000
0000
0200
0000
0000
0000
,
0320
0000
0000
0000
,
0030
0000
0000
0000
,
0000
0000
0000
0000
,
0000
0000
0000
0000
,
2000
0000
0000
0000
,
0000
0000
0000
0000
,
0000
0000
0000
0000
,
0000
0000
0000
3000
,
0002
0000
0000
0010
0000
0000
0000
0003
,
2000
0000
0000
0010
0000
0000
0000
3000
,
0002
0000
0000
0100
0000
0000
0000
0003
,
2000
0000
0000
0100
0000
0000
0000
3000
,
0002
0000
0000
1000
0000
0000
0000
0003
,
0020
0000
0000
0100
0000
0000
0000
0030
,
0002
0000
0000
1000
0000
0000
0000
0003
,
0200
0000
0000
0000
0000
0000
0000
0300
,
0001
0100
1000
0000
0100
0010
1000
0000
,
2010
0001
0100
3001
,
1000
0100
0001
0000
0100
0010
0001
0000
,
0012
1000
0100
1003
,
0001
0010
1000
0000
0010
0001
0100
0000
,
0210
1000
0010
0301
,
1000
0000
0000
0100
0000
0000
0000
0000
0001
0000
0000
0100
0000
0000
0000
0000
,
1000
0000
0000
1000
0000
0000
1000
0000
0001
0000
0000
0000
0000
0000
0000
0000
,
1000
0100
0010
0000
0010
0001
0100
0000
,
0100
0010
1000
0000
2002
0000
3003
0000
,
0001
0010
0100
0000
0100
1000
0010
0000
,
0010
0100
0001
0000
2002
0000
3003
0000
,
1000
0100
0010
0000
0010
0001
0100
0000
,
0100
0010
1000
0000
2002
0000
3003
0000
,
0001
0010
0100
0000
0100
1000
0010
0000
,
0010
0100
0010
0100
2000
0000
3000
0000
,
0100
0001
1000
0000
1000
0100
0010
0000
,
0010
0100
0001
0000
0220
0000
0330
0000
,
0010
0001
1000
0000
1000
0010
0100
0000
,
0100
0010
0001
0000
0220
0000
0330
0000
,
0100
0001
1000
0000
1000
0100
0010
0000
,
0010
0100
0001
0000
0220
0000
0330
0000
,
0010
0001
1000
0000
1000
0010
0100
0000
,
0001
0000
0000
0001
0000
0000
0001
0000
1000
0000
0000
0000
0200
0000
0000
0000
,
0320
0000
0000
0000
,
0000
0000
0000
0030
,
0000
0000
0000
0000
,
0001
0000
0000
0001
0000
0000
0100
0000
0010
0000
0000
0000
2000
0000
0000
0000
,
0002
0000
0000
0000
,
0000
0000
0000
0000
,
0000
0000
0000
0000
,
0000
0000
0000
0000
,
3003
0000
0000
0000
;

//---------------dance-single - Talkion-ESP----------------
#NOTEDATA:;
#CHARTNAME:Talkion-ESP;
#STEPSTYPE:dance-single;
#DESCRIPTION:Talkion-ESP;
#DIFFICULTY:Hard;
#METER:12;
#CREDIT:Talkion;
#NOTES:
0000
0000
0000
0000
,
0000
0000
0000
0000
,
0000
0000
0000
0000
,
0000
0000
0000
0000
,
0000
0000
0000
0000
,
1000
0100
0010
0001
,
1000
0010
0100
0001
,
1000
0100
0010
0001
,
1000
0000
0010
0000
0200
0000
0310
0010
,
1000
0000
0000
0000
0001
0000
0010
0000
0200
0000
0000
0302
0000
0000
0203
0000
,
2300
0000
0000
3002
0000
0000
0203
0000
0000
0000
0300
0000
0010
0000
0010
0000
,
1000
0000
0000
0000
0001
0000
0010
0000
2000
0000
0000
3020
0000
0000
0032
0000
,
0203
0000
0000
2300
0000
0000
3200
0000
0302
0000
0000
0000
0003
0000
1000
0000
,
0100
0000
0000
0000
0100
0000
1000
0000
0002
0000
0000
0203
0000
0000
0320
0000
,
0032
0000
0000
0023
0000
0000
2030
0000
0000
0000
3000
0000
0001
0000
0001
0000
,
0020
0000
0000
2030
0000
0000
3001
0000
0200
0000
0000
2300
0000
0000
3001
0000
,
0200
0000
0000
2300
0000
0000
3200
0000
0000
0000
0300
0000
1001
0000
0000
0000
,
1000
0100
0010
0100
0001
0100
0010
0100
,
1000
0100
0010
0002
0100
0000
0003
1000
,
0001
0100
0010
0100
1000
0100
0010
0100
,
0001
0100
0010
2000
0100
0000
3000
0001
,
1000
0100
0010
0100
0001
0100
0010
0100
,
1000
0100
0010
0002
0100
0000
0003
1000
,
1100
0101
1100
0101
,
1000
0100
0010
0100
0001
0000
1100
0000
,
0001
0010
0100
0010
1000
0010
0100
0010
,
0001
0010
0100
2000
0010
0000
3000
0001
,
1000
0010
0100
0010
0001
0010
0100
0010
,
1000
0010
0100
0002
0010
0000
0003
1000
,
0001
0010
0100
0010
1000
0010
0100
0010
,
0001
0010
0100
2000
0010
0000
3000
0001
,
0011
0000
1010
0000
0011
0000
1000
0010
,
0110
0000
0000
0001
0000
0000
0010
0000
0110
0000
0000
0000
2000
0000
0000
0000
,
3002
0000
0000
0000
,
0003
0000
0000
0000
,
0000
0000
0000
0000
,
0000
0000
0000
0000
,
0200
0000
0000
0000
,
0000
0000
0000
0000
,
0000
0000
0000
0000
,
0000
0000
0000
0300
,
0010
1000
0100
0020
0000
0000
0000
0000
,
1000
0000
0000
0001
0000
0000
0030
0000
,
0100
1000
0010
0200
0000
0000
0000
0000
,
1000
0000
0000
0001
0000
0000
0300
0000
,
0010
1000
0100
0020
0000
0000
0000
0000
,
1000
0000
0000
0001
0000
0000
0030
0000
,
0100
1000
0001
2000
0000
0000
0000
3000
,
0010
0100
0010
2000
0000
0000
0000
3000
,
0001
0010
1000
0001
0100
1000
0001
0010
,
1000
0010
0110
1001
,
1000
0010
0001
1000
0100
0001
1000
0010
,
0001
0010
0110
1001
,
0001
0010
1000
0001
0100
0001
1000
0010
,
0001
1000
1010
0101
,
1001
0000
0000
0010
0000
0000
1000
0000
1001
0000
0000
0010
0000
0000
0001
0000
,
1001
0000
0000
1010
0000
0000
0101
0000
0202
0000
0000
0000
0303
0000
0000
0000
,
1000
0000
0100
0020
0000
0000
0130
0000
0001
0000
0100
0020
0000
0000
0130
0000
,
1000
0000
0100
0020
0000
0000
0031
0000
2002
0000
0000
0000
3003
0000
0000
0000
,
1000
0000
0010
0200
0000
0000
0310
0000
0001
0000
0010
0200
0000
0000
0310
0000
,
1000
0000
0010
0200
0000
0000
0301
0000
2002
0000
0000
0000
3003
0000
0000
0000
,
1000
0000
0100
0020
0000
0000
0130
0000
0001
0000
0100
0020
0000
0000
0130
0000
,
1000
0000
0100
0020
0000
0000
0031
0000
1001
0000
0000
0000
1000
0000
1000
0000
,
0001
0000
0100
0020
0000
0000
0130
0000
1000
0000
0100
0020
0000
0000
0130
0000
,
0001
0000
0100
0020
0000
0000
1030
0000
0100
0000
1000
0000
0002
0000
0000
0000
,
0013
0000
1000
0020
0000
0000
0031
0000
0100
0000
0010
0200
0000
0000
0301
0000
,
0010
0000
1000
0020
0000
0000
0031
0000
1001
0000
0000
0000
1000
0000
1000
0000
,
0010
0000
0001
0020
0000
0000
1030
0000
0100
0000
0010
0200
0000
0000
1300
0000
,
0010
0000
0001
0020
0000
0000
1030
0000
1001
0000
0000
0000
0001
0000
0001
0000
,
0010
0000
1000
0020
0000
0000
0031
0000
0100
0000
0010
0200
0000
0000
0301
0000
,
0010
0000
1000
0020
0000
0000
0031
0000
1001
0000
0000
0000
1000
0000
1000
0000
,
0010
0000
0001
0020
0000
0000
1030
0000
0100
0000
0010
0200
0000
0000
1300
0000
,
0010
0000
0000
0010
0000
0000
0100
0000
0101
0000
0000
0000
1010
0000
0000
0000
,
2002
0000
0000
0000
,
0000
0000
0000
3003
,
0000
0000
0000
0000
,
2000
0000
0000
3200
0000
0000
0320
0000
0230
0000
0000
0000
0302
0000
0000
0000
,
2000
0000
0000
0000
,
0000
0000
0000
0000
,
0000
0000
0000
0000
,
0000
0000
0000
0000
,
3003
0000
0000
0000
;

//---------------dance-single - Talkion-CSP----------------
#NOTEDATA:;
#CHARTNAME:Talkion-CSP;
#STEPSTYPE:dance-single;
#DESCRIPTION:Talkion-CSP;
#DIFFICULTY:Challenge;
#METER:14;
#CREDIT:Talkion;
#NOTES:
0000
0000
0000
0000
,
0000
0000
0000
0000
,
0000
0000
0000
0000
,
0000
0000
0000
0000
,
0000
0000
0000
0000
0000
0000
0000
0000
0000
0000
0000
0000
0000
0000
1000
0001
,
1000
0100
0010
0001
,
1000
0010
0100
0001
,
1000
0100
0010
0001
,
2000
0000
0010
0000
0001
0000
3100
0010
,
0001
0000
0000
0000
0001
0000
1000
0010
0200
0000
0000
2300
0000
0000
3200
0000
,
0302
0000
0000
2003
0000
0000
3200
0000
0000
0000
0310
0000
0100
0000
0010
0001
,
1000
0000
0000
0000
1000
0000
0010
0000
0002
0000
0000
0023
0000
0000
2030
0000
,
3200
0000
0000
0302
0000
0000
0203
0000
2300
0000
0000
0000
3001
0000
1000
0010
,
0100
0000
0000
0000
0100
0000
0001
0000
2000
0000
0000
3200
0000
0000
0320
0000
,
2030
0000
0000
3020
0000
0000
0032
0000
0000
0000
1003
0000
0001
0000
1000
0010
,
0200
0000
0000
2300
0000
0000
3001
0000
0020
0000
0000
2030
0000
0000
3001
0000
,
0020
0000
0000
2030
0000
0000
3010
0000
0001
0010
0001
0000
1001
0000
0000
0000
,
1000
0000
0000
1010
0000
0000
0010
0100
0001
0000
0000
1001
0000
0000
1000
0100
,
0010
0000
0000
0011
0000
0000
2002
0000
0000
0000
3003
0000
1000
0000
0010
0100
,
0001
0000
0000
0011
0000
0000
0010
0100
1000
0000
0000
1001
0000
0000
0001
0100
,
0010
0000
0000
1010
0000
0000
2002
0000
0000
0000
3003
0000
0001
0000
0010
0100
,
1000
0000
0000
1010
0000
0000
0010
0100
0001
0000
0000
1001
0000
0000
1000
0100
,
0010
0000
0000
0011
0000
0000
2002
0000
0000
0000
3003
0000
1000
0000
0001
0100
,
0010
0000
0000
1000
0001
0000
0000
1000
0100
0000
0000
1000
0001
0000
0000
0100
,
0010
0000
0000
1010
0000
0000
1000
0001
0010
0000
0001
0000
1000
0100
1000
0100
,
0010
0000
0000
0011
0000
0000
0001
1000
0010
0000
0000
0110
0000
0000
0100
0010
,
0001
0000
0000
0011
0000
0000
0010
0100
0001
0000
0000
0000
1001
0000
0001
0010
,
0100
0000
0000
1100
0000
0000
1000
0001
0100
0000
0000
0110
0000
0000
0010
0100
,
1000
0000
0000
1100
0000
0000
0100
0010
1000
0000
0000
0000
1001
0000
1000
0100
,
0010
0000
0000
0011
0000
0000
0001
1000
0010
0000
0000
0110
0000
0000
0100
0010
,
0001
0000
0000
0011
0000
0000
0010
0100
0001
0000
0000
0000
1001
0000
0001
0010
,
0100
0000
0000
1000
0001
0000
0000
1000
0010
0000
0000
1000
0001
0000
1000
0100
,
0010
0000
0000
0011
0000
0000
1001
0000
1001
0000
0000
0000
0001
1000
0100
1000
,
0020
0000
0000
0000
,
0030
0000
0000
0000
,
0000
0000
0000
0000
,
0000
0000
0000
0000
,
0200
0000
0000
0000
,
0000
0000
0000
0000
,
0000
0000
0000
0000
,
0000
0000
0000
0300
,
0002
0000
0000
0023
0000
0000
0230
0000
2300
0000
0000
3020
0000
0000
0230
0000
,
0302
0000
1000
1003
,
0200
0000
0000
0320
0000
0000
0230
0000
2300
0000
0000
3020
0000
0000
0032
0000
,
0023
0000
0100
0130
,
0002
0000
0000
2003
0000
0000
3200
0000
0320
0000
0000
0032
0000
0000
0203
0000
,
2300
0000
0100
3100
,
0002
0000
0000
2003
0000
0000
3200
0000
0320
0000
0000
0032
0000
0000
0203
0000
,
0320
0000
0000
0030
,
1000
0000
0010
0100
0010
0000
0001
0000
1000
0000
0100
0010
0100
0000
0001
0000
,
2000
3100
0110
1001
,
0001
0000
0100
0010
0100
0000
1000
0000
0001
0000
0010
0100
0010
0000
1000
0000
,
0002
0013
0110
1001
,
1000
0000
0001
0100
0010
0000
0001
0000
1000
0000
0100
0010
1000
0000
0001
0000
,
0020
0130
1100
0011
,
1001
0000
0000
1010
0000
0000
0010
0100
0001
0000
0000
0011
0000
0000
0010
0100
,
1000
0000
0000
1010
0000
0000
0101
0000
0101
0000
0000
0000
0001
1000
0010
1000
,
0001
0000
0001
0010
0000
0010
0100
0000
0100
0000
0100
1000
0000
1000
0001
0000
,
0001
0000
0001
0100
0000
0100
0010
0000
2020
0000
3030
0000
1000
0001
1000
0000
,
0100
0000
0100
0010
0000
0010
0001
0000
0001
0000
0001
1000
0000
1000
0010
0000
,
0010
0000
0010
0100
0000
0100
0001
0000
2002
0000
3003
0000
1000
0001
0010
0001
,
1000
0000
1000
0010
0000
0010
0100
0000
0100
0000
0100
0001
0000
0001
1000
0000
,
1000
0000
1000
0100
0000
0100
0010
0000
0022
0000
0033
0000
0001
0000
1000
0001
,
0100
0000
0100
0010
0000
0010
1000
0000
1000
0000
1000
0001
0000
0001
0010
0000
,
0010
0000
0010
0100
0000
0100
1000
0000
0020
0000
0130
0000
0001
1000
0100
1000
,
0001
0000
0001
0100
0000
0100
0010
0000
0010
0000
0010
0001
0000
0001
0010
0000
,
0010
0000
0010
1000
0000
1000
0100
0000
2200
0000
3300
0000
1000
0000
0001
1000
,
0010
0000
0010
0100
0000
0100
0001
0000
0001
0000
0001
0010
0000
0010
1000
0000
,
1000
0000
1000
0010
0000
0010
0001
0000
2002
0000
3003
0000
1000
0001
0100
0001
,
1000
0000
1000
0100
0000
0100
0010
0000
0010
0000
0010
1000
0000
1000
0010
0000
,
0010
0000
0010
0001
0000
0001
0100
0000
0202
0000
0303
0000
0001
0000
1000
0001
,
0010
0000
0010
0100
0000
0100
1000
0000
1000
0000
1000
0001
0000
0001
0100
0010
,
1000
0000
0000
0100
0000
0000
1000
0000
0001
0000
0000
0000
0010
0001
1000
0001
,
0200
0000
0000
0000
,
0000
0000
0000
0300
,
0000
0000
0000
0000
,
0020
0000
0000
0230
0000
0000
0302
0000
0023
0000
0000
0000
2030
0000
0000
0000
,
0002
0000
0000
0000
,
0000
0000
0000
0000
,
0000
0000
0000
0000
,
0000
0000
0000
0000
,
3003
0000
0000
0000
;

//---------------dance-double - Talkion-BDP----------------
#NOTEDATA:;
#CHARTNAME:Talkion-BDP;
#STEPSTYPE:dance-double;
#DESCRIPTION:Talkion-BDP;
#DIFFICULTY:Easy;
#METER:6;
#CREDIT:Talkion;
#NOTES:
00000000
00000000
00000000
00000000
,
00000000
00000000
00000000
00000000
,
00000000
00000000
00000000
00000000
,
00000000
00000000
00000000
00000000
,
00000000
00000000
00000000
00000000
,
00010000
00000000
00000100
00000000
,
00000010
00000000
00000001
00000000
,
00001000
00000000
00000100
00000000
,
00010000
00000000
00002000
00003000
,
01000000
00000000
00100000
00000000
,
10000000
00010000
10000000
00000000
,
01000000
00000000
00100000
00000000
,
00001000
00001000
00010000
00000000
,
00000010
00000000
00000100
00000000
,
00000001
00001000
00000001
00000000
,
00000010
00000100
00010000
00000000
,
00001000
00100000
01000000
00000000
,
10000000
10000000
00010000
00010000
,
02000000
00000000
00000000
00100000
00000000
00000000
03000000
00000000
,
00001000
00001000
00010000
00010000
,
00000200
00000000
00000000
00000010
00000000
00000000
00000300
00000000
,
00001000
00001000
00000001
00000001
,
00000200
00000000
00000000
00000010
00000000
00000000
00000300
00000000
,
00000001
00001000
00000100
00010000
,
00001000
01000000
00010000
00000000
,
10000000
10000000
00100000
00100000
,
01000000
00001000
00010000
00000000
,
00000100
00000100
00000010
00000010
,
00000001
00001000
00000100
00000000
,
00010000
00010000
00001000
00001000
,
01000000
00100000
10000000
00000000
,
00010000
00100000
00001000
00000000
,
00011000
00000000
00000000
00000000
,
00022000
00000000
00000000
00000000
,
00033000
00000000
00000000
00000000
,
00000000
00000000
00000000
00000000
,
00000000
00000000
00000000
00000000
,
00000200
00000000
00000000
00000000
,
00000000
00000000
00000000
00000000
,
00000000
00000000
00000000
00000000
,
00000000
00000000
00000000
00000300
,
00020000
00030000
00002000
00003000
,
02000000
00000000
03000000
00000000
,
00002000
00003000
00200000
00300000
,
02000000
00000000
03000000
00000000
,
00200000
00300000
00002000
00003000
,
00020000
00000000
00030000
00000000
,
00000020
00000030
00002000
00003000
,
00000002
00000000
00000003
00000000
,
00001000
00000100
00000010
00001000
,
00010000
00000000
00000100
00000100
,
00001000
00000010
00000100
00001000
,
00010000
00000000
00000010
00000010
,
00001000
00010000
01000000
00100000
,
10000000
00000000
00010000
00010000
,
00100000
00000000
00001000
00000000
,
00011000
00000000
00011000
00000000
,
00010000
00010000
00000100
00000100
,
00000010
00000001
00001000
00000000
,
00000001
00000001
00000100
00000100
,
00000010
00010000
00001000
00000000
,
00010000
00010000
00000100
00000100
,
00000010
00000001
00001000
00000000
,
00000001
00000001
00000100
00000100
,
00001000
00010000
00100000
00000000
,
10000000
10000000
00010000
00010000
,
00100000
01000000
00010000
00000000
,
00001000
00001000
00000010
00000010
,
00000100
00010000
00001000
00000000
,
01000000
01000000
00100000
00100000
,
00010000
00001000
00000100
00000000
,
00000001
00000001
00001000
00001000
,
00000100
00010000
00001000
00100000
,
02200000
00000000
00000000
00000000
,
00000000
00000000
00000000
03300000
,
00000000
00000000
00000000
00000000
,
20000000
00000000
30010000
02000000
,
00200000
00000000
00000000
00000000
,
00000000
00000000
00000000
00000000
,
00000000
00000000
00000000
00000000
,
00000000
00000000
00000000
00000000
,
03300000
00000000
00000000
00000000
;

//---------------dance-double - Talkion-DDP----------------
#NOTEDATA:;
#CHARTNAME:Talkion-DDP;
#STEPSTYPE:dance-double;
#DESCRIPTION:Talkion-DDP;
#DIFFICULTY:Medium;
#METER:9;
#CREDIT:Talkion;
#NOTES:
00000000
00000000
00000000
00000000
,
00000000
00000000
00000000
00000000
,
00000000
00000000
00000000
00000000
,
00000000
00000000
00000000
00000000
,
00000000
00000000
00000000
00000000
,
00010000
00010000
00000100
00000100
,
00000010
00000010
00000001
00000001
,
00001000
00001000
00000100
00000100
,
00010000
00000000
00010000
00000000
00002000
00000000
01003000
00100000
,
01000000
00000000
00010000
10000000
02000000
00000000
03010000
00000000
,
00002000
00000000
00010000
00000000
00003010
00000000
00000100
00000010
,
00000100
00000000
00001000
00000001
00000200
00000000
00001300
00000000
,
00020000
00000000
00001000
00000000
00130000
00000000
01000000
00100000
,
01000000
00000000
00010000
10000000
02000000
00000000
03010000
00000000
,
00002000
00000000
00010000
00000000
00003010
00000000
00000100
00000010
,
00000200
00001300
00020000
00031000
,
00000200
00000010
00001300
00001001
,
00000001
00000100
00000010
00000000
00000100
00001000
00010000
00000000
,
00001000
01000000
00000000
01000000
00020000
00000000
00030000
00000000
,
10000000
01000000
00100000
00000000
01000000
00010000
00001000
00000000
,
00010000
00000100
00000000
00000100
00002000
00000000
00003000
00000000
,
00000001
00000100
00000010
00000000
00000100
00001000
00010000
00000000
,
00001000
01000000
00000000
01000000
00020000
00000000
00030000
00000000
,
10000000
01000000
00100000
00001000
,
00010000
00000010
00002000
00003000
,
00000001
00000010
00000100
00000000
00001000
00000010
00000100
00000000
,
00001000
00010000
00000000
00010000
00200000
00000000
00300000
00000000
,
10000000
00100000
01000000
00000000
00010000
00100000
01000000
00000000
,
00010000
00001000
00000000
00001000
00000020
00000000
00000030
00000000
,
00000001
00000010
00000100
00000000
00001000
00000010
00000100
00000000
,
00001000
00010000
00000000
00010000
00200000
00000000
00300000
00000000
,
10000000
00100000
01000000
00001000
,
00010000
00000000
00000000
00010000
00000000
00000000
00010000
00000000
00000100
00000000
00000000
00000000
00002000
00000000
00000000
00000000
,
00003002
00000000
00000000
00000000
,
00000003
00000000
00000000
00000000
,
00000000
00000000
00000000
00000000
,
00000000
00000000
00000000
00000000
,
00000200
00000000
00000000
00000000
,
00000000
00000000
00000000
00000000
,
00000000
00000000
00000000
00000000
,
00000000
00000000
00000000
00000300
,
00000020
00000000
00000000
00001000
00000000
00000000
00000000
00000030
,
00020000
00000000
00000000
00001000
00000000
00000000
00000000
00030000
,
00000200
00000000
00000000
00001000
00000000
00000000
00000000
00000300
,
00020000
00000000
00000000
00001000
00000000
00000000
00000000
00030000
,
00000020
00000000
00000000
00000100
00000000
00000000
00000000
00000030
,
00020000
00000000
00000000
00001000
00000000
00000000
00000000
00030000
,
00000200
00000000
00000000
00000010
00000000
00000000
00000000
00000300
,
00020000
00000000
00000000
00001000
00000000
00000000
00000000
00030000
,
00000100
00000010
00001000
00000000
00010000
00001000
00100000
00000000
,
02001000
00100000
00001000
03010000
,
01000000
00100000
00010000
00000000
00001000
00010000
00000100
00000000
,
00010200
00000010
00010000
00001300
,
00000001
00000100
00001000
00000000
00010000
00001000
00000010
00000000
,
00000120
00001000
00000100
00000031
,
00000100
00000000
00000000
00001000
00000000
00000000
00000000
00000000
00010000
00000000
00000000
00100000
00000000
00000000
00000000
00000000
,
10000000
00000000
00000000
10000000
00000000
00000000
10000000
00000000
00010000
00000000
00000000
00000000
00000000
00000000
00000000
00000000
,
10000000
01000000
00100000
00000000
00100000
00001000
00010000
00000000
,
00010000
00000010
00001000
00000000
00002002
00000000
00003003
00000000
,
00000001
00000100
00000010
00000000
00000010
00010000
00001000
00000000
,
00001000
00100000
00010000
00000000
20020000
00000000
30030000
00000000
,
10000000
01000000
00100000
00000000
00100000
00001000
00010000
00000000
,
00010000
00000010
00001000
00000000
00002002
00000000
00003003
00000000
,
00000001
00000100
00000010
00000000
00000010
00010000
00001000
00000000
,
00001000
00100000
00001000
00100000
00020000
00000000
00030000
00000000
,
10000000
00100000
00010000
00000000
00010000
00001000
00000100
00000000
,
00000100
00000010
00000001
00000000
00000220
00000000
00000330
00000000
,
00000001
00000010
00001000
00000000
00001000
00010000
01000000
00000000
,
01000000
00100000
10000000
00000000
02200000
00000000
03300000
00000000
,
10000000
00100000
00010000
00000000
00010000
00001000
00000100
00000000
,
00000100
00000010
00000001
00000000
00000220
00000000
00000330
00000000
,
00000001
00000010
00001000
00000000
00001000
00010000
01000000
00000000
,
10000000
00000000
00000000
10000000
00000000
00000000
10000000
00000000
00010000
00000000
00000000
00000000
02000000
00000000
00000000
00000000
,
03002000
00000000
00000000
00000000
,
00000000
00000000
00000000
00003000
,
00000000
00000000
00000000
00000000
,
00010000
00000000
00000000
00010000
00000000
00000000
00000100
00000000
00000010
00000000
00000000
00000000
00000002
00000000
00000000
00000000
,
00002000
00000000
00000000
00000000
,
00000000
00000000
00000000
00000000
,
00000000
00000000
00000000
00000000
,
00000000
00000000
00000000
00000000
,
00003003
00000000
00000000
00000000
;

//---------------dance-double - Talkion-EDP----------------
#NOTEDATA:;
#CHARTNAME:Talkion-EDP;
#STEPSTYPE:dance-double;
#DESCRIPTION:Talkion-EDP;
#DIFFICULTY:Hard;
#METER:12;
#CREDIT:Talkion;
#NOTES:
00000000
00000000
00000000
00000000
,
00000000
00000000
00000000
00000000
,
00000000
00000000
00000000
00000000
,
00000000
00000000
00000000
00000000
,
00000000
00000000
00000000
00000000
,
00010000
00000100
00000010
00000001
,
00001000
00000010
00010000
00001000
,
01000000
00100000
10000000
00010000
,
00100000
00000000
01000000
00000000
20000000
00000000
30010000
00010000
,
01000000
00000000
00000000
00000000
00001000
00000000
00010000
00000000
00002000
00000000
00000000
00203000
00000000
00000000
01300000
00000000
,
00200000
00000000
00000000
00302000
00000000
00000000
00023000
00000000
00000000
00000000
00030000
00000000
00000100
00000000
00000100
00000000
,
00000010
00000000
00000000
00000000
00001000
00000000
00010000
00000000
00000020
00000000
00000000
00000230
00000000
00000000
00001300
00000000
,
00020000
00000000
00000000
00032000
00000000
00000000
00103000
00000000
02000000
00000000
00000000
00000000
03000000
00000000
00100000
00000000
,
00001000
00000000
00000000
00000000
00001000
00000000
00010000
00000000
00002000
00000000
00000000
02003000
00000000
00000000
03100000
00000000
,
02000000
00000000
00000000
03002000
00000000
00000000
00023000
00000000
00000000
00000000
00030000
00000000
00000010
00000000
00000010
00000000
,
00000200
00000000
00000000
00000302
00000000
00000000
00001003
00000000
00000200
00000000
00000000
00000320
00000000
00000000
00001030
00000000
,
00020000
00000000
00000000
02030000
00000000
00000000
03200000
00000000
00000000
00000000
00300000
00000000
10010000
00000000
00000000
00000000
,
10000000
00100000
01000000
00100000
00010000
00001000
00010000
00000010
,
00000100
00000010
00001000
00000002
00000010
00000000
00000003
00001000
,
00000001
00000010
00000100
00000010
00001000
00010000
00001000
00100000
,
01000000
00100000
00010000
20000000
00100000
00000000
30000000
00010000
,
10000000
00100000
01000000
00100000
00010000
00001000
00010000
00000010
,
00000100
00000010
00001000
00000002
00000010
00000000
00000003
00001000
,
00000001
00000010
00001000
00010000
,
01000000
10000000
00010000
10000000
00100000
00000000
10010000
00000000
,
10000000
01000000
00100000
01000000
00010000
00001000
00000100
00000010
,
00000100
00000001
00001000
00000200
00000010
00000000
00000300
00001000
,
00000001
00000100
00000010
00000100
00001000
00010000
01000000
00100000
,
01000000
10000000
00010000
02000000
00100000
00000000
03000000
00010000
,
10000000
01000000
00100000
01000000
00010000
00001000
00000100
00000010
,
00000100
00000001
00001000
00000200
00000010
00000000
00000300
00001000
,
00000001
00000000
00000100
00000000
00001000
00000000
00010000
00100000
,
01100000
00000000
00000000
00010000
00000000
00000000
00100000
00000000
01100000
00000000
00000000
00000000
20000000
00000000
00000000
00000000
,
30020000
00000000
00000000
00000000
,
00030000
00000000
00000000
00000000
,
00000000
00000000
00000000
00000000
,
00000000
00000000
00000000
00000000
,
02000000
00000000
00000000
00000000
,
00000000
00000000
00000000
00000000
,
00000000
00000000
00000000
00000000
,
00000000
00000000
00000000
03000000
,
00001000
00010000
00000100
00000020
00000000
00000000
00000000
00000000
,
00001000
00000000
00000000
00000001
00000000
00000000
00000130
00000000
,
00010000
00001000
01000000
00200000
00000000
00000000
00000000
00000000
,
00010000
00000000
00000000
10000000
00000000
00000000
01300000
00000000
,
00001000
00010000
00000100
00000020
00000000
00000000
00000000
00000000
,
00001000
00000000
00000000
00000001
00000000
00000000
00000130
00000000
,
00010000
00001000
01000000
00020000
00000000
00000000
00030000
00000000
,
00100000
01000000
00100000
00020000
00000000
00000000
00030000
00000000
,
10000000
00100000
00010000
00001000
01000000
00010000
00001000
00000010
,
00000100
00000001
00000011
00001100
,
00000001
00000010
00001000
00010000
00000100
00001000
00010000
00100000
,
01000000
10000000
10100000
01010000
,
10000000
01000000
00010000
00001000
00010000
00100000
01000000
00001000
,
00010000
00000100
00001100
00000011
,
00001001
00000000
00000000
00000100
00000000
00000000
00010000
00000000
00011000
00000000
00000000
01000000
00000000
00000000
00001000
00000000
,
00011000
00000000
00000000
00010100
00000000
00000000
00101000
00000000
00202000
00000000
00000000
00000000
00303000
00000000
00000000
00000000
,
00001000
00000000
01000000
00200000
00000000
00000000
01300000
00000000
00001000
00000000
00100000
02000000
00000000
00000000
03100000
00000000
,
00001000
00000000
01000000
00200000
00000000
00000000
01300000
00000000
00002000
00000000
00000000
00000000
00003000
00000000
00000000
00000000
,
00010000
00000000
00000100
00000020
00000000
00000000
00000130
00000000
00010000
00000000
00000010
00000200
00000000
00000000
00000310
00000000
,
00010000
00000000
00000100
00000020
00000000
00000000
00000130
00000000
00020000
00000000
00000000
00000000
00030000
00000000
00000000
00000000
,
00001000
00000000
01000000
00200000
00000000
00000000
01300000
00000000
00001000
00000000
00100000
02000000
00000000
00000000
03100000
00000000
,
00001000
00000000
01000000
00200000
00000000
00000000
01300000
00000000
00001000
00000000
00000000
00000000
00010000
00000000
00010000
00000000
,
00000100
00000000
00000010
00000200
00000000
00000000
00001300
00000000
00000001
00000000
00000100
00000020
00000000
00000000
00000130
00000000
,
00001000
00000000
00010000
00002000
00000000
00000000
00103000
00000000
01000000
00000000
00100000
00000000
00020000
00000000
00000000
00000000
,
10030000
00000000
00100000
02000000
00000000
00000000
03001000
00000000
00010000
00000000
00000100
00000020
00000000
00000000
00000130
00000000
,
00010000
00000000
00001000
02000000
00000000
00000000
03100000
00000000
00010000
00000000
00000000
00000000
00001000
00000000
00001000
00000000
,
00010000
00000000
00000100
00000020
00000000
00000000
00000130
00000000
00001000
00000000
00000001
00000200
00000000
00000000
00001300
00000000
,
00010000
00000000
00001000
00200000
00000000
00000000
01300000
00000000
10000000
00000000
00000000
00000000
00010000
00000000
00010000
00000000
,
10000000
00000000
00100000
02000000
00000000
00000000
03001000
00000000
00010000
00000000
00000100
00000020
00000000
00000000
00000130
00000000
,
00010000
00000000
00001000
02000000
00000000
00000000
03100000
00000000
00010000
00000000
00000000
00000000
00001000
00000000
00001000
00000000
,
00010000
00000000
00000100
00000020
00000000
00000000
00000130
00000000
00001000
00000000
00000001
00000200
00000000
00000000
00001300
00000000
,
00010000
00000000
00000000
00010000
00000000
00000000
00100000
00000000
10000000
00000000
00000000
00000000
10100000
00000000
00000000
00000000
,
02020000
00000000
00000000
00000000
,
00000000
00000000
00000000
03030000
,
00000000
00000000
00000000
00000000
,
00002000
00000000
00000000
00023000
00000000
00000000
00030200
00000000
00000320
00000000
00000000
00000000
00002030
00000000
00000000
00000000
,
00020000
00000000
00000000
00000000
,
00000000
00000000
00000000
00000000
,
00000000
00000000
00000000
00000000
,
00000000
00000000
00000000
00000000
,
00033000
00000000
00000000
00000000
;

//---------------dance-double - Talkion-CDP----------------
#NOTEDATA:;
#CHARTNAME:Talkion-CDP;
#STEPSTYPE:dance-double;
#DESCRIPTION:Talkion-CDP;
#DIFFICULTY:Challenge;
#METER:14;
#CREDIT:Talkion;
#NOTES:
00000000
00000000
00000000
00000000
,
00000000
00000000
00000000
00000000
,
00000000
00000000
00000000
00000000
,
00000000
00000000
00000000
00000000
,
00000000
00000000
00000000
00000000
00000000
00000000
00000000
00000000
00000000
00000000
00000000
00000000
00000000
00000000
00010000
00001000
,
00010000
00000100
00000010
00000001
,
00001000
00000010
00010000
00001000
,
01000000
00100000
10000000
00010000
,
00200000
00000000
01000000
00000000
00010000
00000000
00301000
00001000
,
00010000
00000000
00000000
00000000
00000010
00000000
00001000
00000010
00000200
00000000
00000000
00002300
00000000
00000000
00013000
00000000
,
00000020
00000000
00000000
00002030
00000000
00000000
00003002
00000000
00000000
00000000
00000013
00000000
00000100
00000000
00010000
00001000
,
00010000
00000000
00000000
00000000
00001000
00000000
00100000
00000000
00020000
00000000
00000000
02030000
00000000
00000000
03100000
00000000
,
00020000
00000000
00000000
00032000
00000000
00000000
01003000
00000000
00020000
00000000
00000000
00000000
10030000
00000000
01000000
00100000
,
00010000
00000000
00000000
00000000
01000000
00000000
00001000
00000000
00020000
00000000
00000000
00230000
00000000
00000000
01300000
00000000
,
00002000
00000000
00000000
00023000
00000000
00000000
00030200
00000000
00000000
00000000
00001300
00000000
00000001
00000000
00000010
00000100
,
00000020
00000000
00000000
00002030
00000000
00000000
00013000
00000000
00000200
00000000
00000000
00002300
00000000
00000000
00003001
00000000
,
00000200
00000000
00000000
00002300
00000000
00000000
00013000
00000000
00001000
01000000
00001000
00000000
00011000
00000000
00000000
00000000
,
00020000
00000000
00000000
00000010
00000000
00030000
00001000
00100000
00020000
00000000
00000000
10000000
00000000
00030000
01000000
00001000
,
00020000
00000000
00000000
00030200
00000000
00000000
00000010
00000000
00000000
00000000
00000000
00000000
00001300
00000000
00000100
00010000
,
00002000
00000000
00000000
00100000
00000000
00003000
00010000
00000010
00002000
00000000
00000000
00000001
00000000
00003000
00000100
00010000
,
00002000
00000000
00000000
02003000
00000000
00000000
00100000
00000000
00000000
00000000
00000000
00000000
03010000
00000000
01000000
00001000
,
00020000
00000000
00000000
00000010
00000000
00030000
00001000
00100000
00020000
00000000
00000000
10000000
00000000
00030000
01000000
00001000
,
00020000
00000000
00000000
00030200
00000000
00000000
00000010
00000000
00000000
00000000
00000000
00000000
00001300
00000000
00000100
00010000
,
00001000
00011000
01010000
11000000
,
10020000
00000000
00000000
02030000
00000000
00000000
03001000
00000000
00010000
00000000
00000000
00000000
00000010
00001000
00000001
00001000
,
00000200
00000000
00000000
00000010
00000000
00000300
00010000
00001000
00200000
00000000
00000000
01000000
00000000
00300000
00001000
00010000
,
00000020
00000000
00000000
00000230
00000000
00000000
00001300
00000000
00010000
00000000
00000000
00000000
00001000
00000000
00100000
00010000
,
00200000
00000000
00000000
01000000
00000000
00300000
00001000
00010000
00000200
00000000
00000000
00000010
00000000
00000300
00010000
00001000
,
02000000
00000000
00000000
03200000
00000000
00000000
00310000
00000000
00001000
00000000
00000000
00000000
00010000
00000000
00000100
00001000
,
00000200
00000000
00000000
00000010
00000000
00000300
00010000
00001000
00200000
00000000
00000000
01000000
00000000
00300000
00001000
00010000
,
00000020
00000000
00000000
00000230
00000000
00000000
00001300
00000000
00010000
00000000
00000000
00000000
00001000
00000000
00100000
00010000
,
10000000
00000000
00000000
00000000
11000000
00000000
00000000
00000000
01010000
00000000
00000000
00000000
00011000
00000000
00010000
00000010
,
00000100
00000000
00000000
00000100
00000000
00000000
00000100
00000000
00000100
00000000
00000000
00000000
00000001
00000100
00000010
00010000
,
00002000
00000000
00000000
00000000
,
00003000
00000000
00000000
00000000
,
00000000
00000000
00000000
00000000
,
00000000
00000000
00000000
00000000
,
00020000
00000000
00000000
00000000
,
00000000
00000000
00000000
00000000
,
00000000
00000000
00000000
00000000
,
00000000
00000000
00000000
00030000
,
00002000
00000000
00000000
02003000
00000000
00000000
03200000
00000000
20300000
00000000
00000000
32000000
00000000
00000000
03200000
00000000
,
00302000
00000000
00010000
00013000
,
00000020
00000000
00000000
00000230
00000000
00000000
00000320
00000000
00020030
00000000
00000000
00032000
00000000
00000000
00003020
00000000
,
00000032
00000000
00001000
00001003
,
00000020
00000000
00000000
00000230
00000000
00000000
00002300
00000000
00023000
00000000
00000000
00030200
00000000
00000000
00000320
00000000
,
00002030
00000000
00010000
00013000
,
00000200
00000000
00000000
00000320
00000000
00000000
00002030
00000000
00023000
00000000
00000000
02030000
00000000
00000000
23000000
00000000
,
30020000
00000000
00000000
00030000
,
10000000
00000000
00100000
01000000
00100000
00000000
00010000
00000000
00001000
00000000
00000100
00000010
00000100
00000000
00000001
00000000
,
00002000
00003100
00000110
00001001
,
00000001
00000000
00000100
00000010
00000100
00000000
00001000
00000000
00010000
00000000
00100000
01000000
00100000
00000000
10000000
00000000
,
00020000
00130000
01100000
10010000
,
10000000
00000000
00010000
01000000
00100000
00000000
00010000
00000000
00001000
00000000
00000100
00000010
00001000
00000000
00000001
00000000
,
00000020
00000130
00001100
00001001
,
00000201
00000000
00000000
00000010
00000000
00000300
00001000
00010000
00002000
00000000
00000000
00100000
00000000
00003000
00010000
10000000
,
00010000
00000000
00000000
01010000
00000000
00000000
10100000
00000000
10100000
00000000
00000000
00000000
10000000
00010000
01000000
00010000
,
10000000
00000000
10000000
01000000
00000000
01000000
00100000
00000000
00100000
00000000
00100000
00001000
00000000
00001000
00010000
00000000
,
00010000
00000000
00010000
00000010
00000000
00000010
00000100
00000000
00000202
00000000
00000303
00000000
00000001
00000000
00001000
00000000
,
00000001
00000000
00000001
00000010
00000000
00000010
00000100
00000000
00000100
00000000
00000100
00010000
00000000
00010000
00001000
00000000
,
00001000
00000000
00001000
01000000
00000000
01000000
00100000
00000000
20200000
00000000
30300000
00000000
10000000
00010000
00100000
00010000
,
10000000
00000000
10000000
00100000
00000000
00100000
01000000
00000000
01000000
00000000
01000000
00001000
00000000
00001000
00010000
00000000
,
00010000
00000000
00010000
00000100
00000000
00000100
00000010
00000000
00000022
00000000
00000033
00000000
00000001
00000000
00001000
00000001
,
00000100
00000000
00000010
00001000
00000000
00001000
00000001
00000000
00000001
00000000
00000001
00000010
00000000
00000010
00000100
00000000
,
00000100
00000000
00000100
00010000
00000000
00010000
00001000
00000000
02000000
00000000
03100000
00000000
01000000
00001000
00010000
00001000
,
00100000
00000000
00100000
01000000
00000000
01000000
00010000
00000000
00010000
00000000
00010000
00001000
00000000
00001000
01000000
00000000
,
01000000
00000000
01000000
00100000
00000000
00100000
00010000
00000000
00022000
00000000
00033000
00000000
00001000
00000000
00010000
00000010
,
00001000
00000000
00000010
00000100
00000000
00000100
00001000
00000000
00001000
00000000
00001000
00010000
00000000
00010000
00000100
00000000
,
00000100
00000000
00000100
00000010
00000000
00000010
00001000
00000000
00022000
00000000
00033000
00000000
00010000
00001000
01000000
00001000
,
00010000
00000000
00010000
00000100
00000000
00000100
00000010
00000000
00000010
00000000
00000010
00001000
00000000
00001000
00010000
00000000
,
00010000
00000000
00010000
01000000
00000000
01000000
10000000
00000000
20020000
00000000
30030000
00000000
00010000
00000000
01000000
00100000
,
10000000
00000000
00010000
00100000
00000000
00100000
01000000
00000000
01000000
00000000
01000000
00010000
00000000
00010000
00001000
00000010
,
00000100
00000000
00000000
00000100
00000000
00000000
00001000
00000000
00000001
00000000
00000000
00000000
00000100
00000010
00001000
00000010
,
00000200
00000000
00000000
00000000
,
00000000
00000000
00000000
00000300
,
00000000
00000000
00000000
00000000
,
00002000
00000000
00000000
00023000
00000000
00000000
00230000
00000000
02300000
00000000
00000000
00000000
03002000
00000000
00000000
00000000
,
00020000
00000000
00000000
00000000
,
00000000
00000000
00000000
00000000
,
00000000
00000000
00000000
00000000
,
00000000
00000000
00000000
00000000
,
00033000
00000000
00000000
00000000
;
