#TITLE:SELENE;
#ARTIST:Jyc Row feat. AppleBukker;
#BANNER:SELENE.png;
#BACKGROUND:SELENE-bg.png;
#MUSIC:SELENE.ogg;
#SAMPLESTART:49.53;
#SAMPLELENGTH:15;
#BPMS:0=155;
#STOPS:44=0.097,44.25=0.097,44.5=0.097,44.75=0.097,64=0.194,67.5=0.194,87=0.194,88.5=0.194,90=0.194,120.5=0.097,120.75=0.097,121=0.097,121.25=0.097,121.5=0.097,121.75=0.097,122=0.097,122.25=0.097;

//---------------dance-single - Kekkle-BSP----------------
#NOTES:
     dance-single:
     Kekkle:
     Easy:
     8:
     0.346683,0.399917,0.097854,0.264206,0.048927,248,238,10,27,0,0,0.346683,0.399917,0.097854,0.264206,0.048927,248,238,10,27,0,0:
// measure 0
0000
0000
0000
0000
,  // measure 1
0000
0000
0000
0000
,  // measure 2
0000
0000
0000
0000
,  // measure 3
0000
0000
0000
0000
,  // measure 4
0001
0100
0001
0100
,  // measure 5
1000
0100
0001
0100
,  // measure 6
0010
0100
0001
0100
,  // measure 7
1000
0100
0001
0100
,  // measure 8
0010
1000
0010
1000
,  // measure 9
0100
1000
0001
1000
,  // measure 10
0001
0010
0100
0010
,  // measure 11
0000
0100
1000
0100
,  // measure 12
0010
0001
0010
0100
,  // measure 13
0010
0000
0001
0100
0001
0000
1000
0000
,  // measure 14
0100
0010
0001
0100
,  // measure 15
0010
0000
1000
0010
1000
0000
0020
0000
,  // measure 16
0000
0230
0000
0000
0000
0302
0000
0000
,  // measure 17
0003
0001
0020
0000
,  // measure 18
0230
0000
0320
0000
,  // measure 19
0032
0000
2003
0000
,  // measure 20
3020
0000
0230
0000
,  // measure 21
0300
0000
0002
0000
0023
0000
0000
0230
,  // measure 22
0000
0000
2300
0000
0000
3002
0000
0003
,  // measure 23
0000
0100
0000
0010
0000
1000
0001
1000
,  // measure 24
0000
0100
0000
1000
0000
0010
0100
0010
,  // measure 25
0000
1000
0000
0001
0000
0010
0000
0100
,  // measure 26
0000
1000
0000
0100
0000
0010
0000
0000
,  // measure 27
0000
0001
0000
0100
0000
0010
1000
0010
,  // measure 28
0000
0100
0000
0001
0000
0010
0100
0010
,  // measure 29
0000
0100
0000
1000
0000
0001
0000
0100
,  // measure 30
0000
0020
0000
0000
0000
1030
0000
0001
,  // measure 31
0000
0010
0100
0010
0000
0100
0010
0100
,  // measure 32
0000
0010
0100
0010
0000
0001
0000
1000
,  // measure 33
0000
0010
1000
0010
0000
1000
0010
1000
,  // measure 34
0000
0010
1000
0010
0000
0100
0000
0001
,  // measure 35
0000
0000
0000
0100
0000
0000
0000
0001
0000
0000
0000
0100
0000
0000
0000
0001
0000
0000
0000
0100
0000
0000
0000
0001
,  // measure 36
0000
0000
0000
0100
0000
0000
0000
0001
0000
0000
0000
0100
0000
0000
0000
0001
0000
0000
0000
0000
0000
1000
0000
0000
,  // measure 37
0000
0001
1000
0001
0000
1000
0001
1000
,  // measure 38
0000
0001
1000
0001
0000
0010
0000
0100
,  // measure 39
0000
1000
0000
0010
0000
0100
0000
0001
,  // measure 40
0000
0010
0000
0100
0000
1000
0000
1001
,  // measure 41
0000
0001
0000
1001
0000
1000
0000
1001
,  // measure 42
0000
0001
0000
0001
0000
1000
0000
0010
,  // measure 43
0000
0100
0000
0001
0000
1000
0000
0100
,  // measure 44
0000
0010
0001
0010
0000
0100
0000
1000
,  // measure 45
0000
0001
0000
0100
0000
0010
0000
1000
,  // measure 46
0000
0000
0000
0001
0000
0000
0000
1000
0000
0000
0000
0001
0000
0000
0000
1000
0000
0000
0000
0000
0000
0010
0000
0000
,  // measure 47
0000
0100
0000
0001
0000
1000
0000
0100
,  // measure 48
0000
0010
0100
0010
0000
0001
0000
0100
,  // measure 49
0000
0010
0000
1000
0000
0100
0000
0001
,  // measure 50
0000
0100
1000
0100
0000
0010
0000
0001
,  // measure 51
0000
1000
0000
0010
0000
0200
0000
0320
,  // measure 52
0000
0230
0000
0320
0000
1030
0000
0100
,  // measure 53
0000
0010
0000
0001
0000
0110
0000
0110
,  // measure 54
0000
1001
0000
1001
0000
0001
0000
0020
,  // measure 55
0000
0130
0000
0020
0000
0031
0000
1000
,  // measure 56
0000
0010
0000
0100
0000
0001
0000
0010
,  // measure 57
0000
0100
0000
1000
0000
0010
0000
0100
,  // measure 58
0000
0001
1000
0001
0000
0020
0000
0000
,  // measure 59
0230
0000
0000
2300
0000
0000
3002
0000
,  // measure 60
0000
0013
0000
0110
0000
1001
0000
0000
,  // measure 61
0000
0000
0000
1001
0000
0000
0000
0000
0000
0000
0000
0000
0000
0000
0000
0001
0000
0000
0000
1000
0000
0000
0000
0001
,  // measure 62
0000
1000
0000
0020
0000
0000
0000
0030
;

//---------------dance-single - Kekkle-bSP----------------
#NOTES:
     dance-single:
     Kekkle:
     Beginner:
     4:
     0.162158,0.184577,0,0.048927,0,116,116,0,5,0,0,0.162158,0.184577,0,0.048927,0,116,116,0,5,0,0:
0000
0000
0000
0000
,
0000
0000
0000
0000
,
0000
0000
0000
0000
,
0000
0000
0000
0000
,
0001
0000
1000
0000
,
0010
0000
1000
0000
,
0001
0000
0100
0000
,
1000
0000
0100
0000
,
0001
0000
1000
0000
,
0100
0000
0010
0000
,
0001
0000
0100
0000
,
0010
0000
0000
1000
,
0000
0010
0000
0100
,
0000
0001
0000
1000
,
0000
0010
0000
0001
,
0000
0010
0000
1000
,
0000
0000
0000
0000
0000
0001
0000
0000
,
0000
0000
0100
0000
,
0010
0000
2000
3000
,
0002
0003
0010
0000
,
0100
0000
1000
0000
,
0001
0000
0200
0000
,
0000
0000
0000
0000
0000
0000
0000
0300
,
0000
0010
0000
0000
0000
1000
0000
0000
,
0000
0100
0000
0000
0000
0010
0000
0000
,
0000
0001
0000
0000
0000
0010
0000
0000
,
0000
1000
0000
0000
0000
0010
0000
0000
,
0000
0100
0000
0000
0000
1000
0000
0000
,
0000
0010
0000
0000
0000
0100
0000
0000
,
0000
0001
0000
0000
0000
1000
0000
0000
,
0000
0200
0000
0000
0000
0300
0000
0000
,
0000
0010
0000
0000
0000
0001
0000
0000
,
0000
0010
0000
0000
0000
0100
0000
0000
,
0000
1000
0000
0000
0000
0001
0000
0000
,
0000
1000
0000
0000
0000
0010
0000
0000
,
0000
1000
0000
0000
0000
0100
0000
0000
,
0000
0010
0000
0000
0000
0100
0000
0000
,
0000
0100
0000
0000
0000
0010
0000
0000
,
0000
0001
0000
1000
0000
0001
0000
0000
,
0000
0100
0000
0000
0000
0010
0000
0000
,
0000
1000
0000
0000
0000
0100
0000
0000
,
0000
0010
0000
0000
0000
0001
0000
0000
,
0000
0010
0000
0000
0000
0100
0000
0000
,
0000
1000
0000
0000
0000
0001
0000
0000
,
0000
0100
0000
0000
0000
0010
0000
0000
,
0000
1000
0000
0000
0000
0001
0000
0000
,
0000
1000
0000
0000
0000
0100
0000
0000
,
0000
0010
0000
0000
0000
0100
0000
0000
,
0000
1000
0000
0000
0000
0001
0000
0000
,
0000
0100
0000
0000
0000
0010
0000
0000
,
0000
0100
0000
0000
0000
0001
0000
0000
,
0000
1000
0000
0000
0000
0100
0000
0000
,
0000
0010
0000
0000
0000
0100
0000
0000
,
0000
1000
0000
0000
0000
0010
0000
0000
,
0000
0100
0000
0000
0000
0001
0000
0000
,
0000
0010
0000
0000
0000
1000
0000
0000
,
0000
0010
0000
0000
0000
0001
0000
0000
,
0000
0100
0000
0000
0000
1000
0000
0000
,
0000
0100
0000
0000
0000
0001
0000
0000
,
1000
0000
0000
0001
0000
0000
1000
0000
,
0000
0001
0000
0000
0000
0010
0000
0000
,
0000
0100
0000
0000
0000
1000
0000
0001
,
0000
1000
0000
0002
0000
0000
0000
0003
;

//---------------dance-double - RIME-BDP----------------
#NOTES:
     dance-double:
     RIME:
     Easy:
     7:
     0.311735,0.398327,0.058712,0.048927,0,223,217,6,5,0,0,0.311735,0.398327,0.058712,0.048927,0,223,217,6,5,0,0:
00000000
00000000
00000000
00000000
,
00000000
00000000
00000000
00000000
,
00000000
00000000
00000000
00000000
,
00000000
00000000
00000000
00000000
,
00010000
00010000
00001000
00000000
,
00010000
00000100
00000010
00000001
,
00000100
00000100
00000010
00000000
,
00000100
00000010
00001000
00000100
,
00010000
00010000
00001000
00000000
,
00010000
00001000
00100000
00010000
,
10000000
10000000
00100000
00000000
,
01100000
01000000
00010000
00100000
,
00100000
00010000
00000000
00100000
,
00001000
00000010
00000001
00000100
,
00000100
00000010
00000000
00000100
,
00001000
00010000
01000000
10000000
,
10000000
00000000
00000000
00100000
00000000
00000000
00000000
00100000
,
00000000
10000000
01000000
01000000
,
00100000
00000000
00010000
00100000
,
00001000
00010000
00000010
00000010
,
00000100
00000000
00000001
00000010
,
00000100
00001000
00000001
00000001
,
00000000
00001000
00000000
00000000
00000001
00000000
00000000
00000000
,
00000000
00000010
00000000
00000010
00000000
00000100
00000000
00000000
,
00000000
00001000
00000000
00000100
00000000
00010000
00000000
00001000
,
00000000
01000000
00000000
01000000
00000000
00100000
00000000
00000000
,
00000000
10000000
00000000
00100000
00000000
01000000
00000000
00010000
,
00000000
00100000
00000000
00100000
00000000
00010000
00000000
00000000
,
00000000
00100000
00000000
00001000
00000000
00000010
00000000
00000100
,
00000000
00001000
00000000
00001000
00000000
00000010
00000000
00000000
,
00000000
00002000
00000000
00000000
00000000
00003001
00000000
00001000
,
00000000
00000100
00000000
00001000
00000000
00000001
00000000
00000100
,
00000000
00001000
00000000
00010000
00000000
01000000
00000000
10000000
,
00000000
00010000
00000000
10000000
00000000
00100000
00000000
10000000
,
00000000
00010000
00000000
00100000
00000000
00001000
00000000
00010000
,
00000000
00001000
00000000
00100000
00000000
00001000
00000000
00000010
,
00000000
00000001
00000000
00000100
00000000
00000010
00000000
00001000
,
00000000
00000001
00000000
00001000
00000000
00000100
00000000
00000010
,
00000000
00000001
00000000
00000100
00000000
00001000
00000000
00010000
,
00000000
00001000
00000000
00100000
00000000
00001000
00000000
01000000
,
00000000
10000000
00000000
01000000
00000000
00010000
00000000
00000010
,
00000000
00010000
00000000
00100000
00000000
00001000
00000000
00010000
,
00000000
00000100
00000000
00001000
00000000
00000001
00000000
00000100
,
00000000
00000010
00000000
00001000
00000000
00000001
00000000
00000010
,
00000000
00000100
00000000
00001000
00000000
00001100
00000000
00011000
,
00000000
00001100
00000000
00011000
00000000
00001000
00000000
01000000
,
00000000
00000100
00000000
00010000
00000000
00100000
00000000
00100000
,
00000000
10000000
00000000
00010000
00000000
00100000
00000000
00100000
,
00000000
01000000
00000000
10000000
00000000
00100000
00000000
00010000
,
00000000
00001000
00000000
00000100
00000000
00000010
00000000
00001000
,
00000000
00000001
00000000
00000010
00000000
00000100
00000000
00000100
,
00000000
00000010
00000000
00000001
00000000
00000100
00000000
00000100
,
00000000
00000010
00000000
00001000
00000000
00000001
00000000
00000010
,
00000000
00001000
00000000
00010000
00000000
00001000
00000000
00100000
,
00000000
01000000
00000000
10000000
00000000
00100000
00000000
00100000
,
00000000
00010000
00000000
00100000
00000000
10000000
00000000
10000000
,
00000000
01000000
00000000
10000000
00000000
01000000
00000000
01000000
,
00000000
00010000
00000000
01000000
00000000
00100000
00000000
00010000
,
00000000
00001000
00000000
00000100
00000000
00000010
00000000
00000100
,
00000000
00001000
00000000
00000001
00000000
00000100
00000000
00000010
,
00000000
00001000
00000000
00000001
00000000
00000020
00000000
00000130
,
00000000
00000020
00000000
00000031
00000000
00000012
00000000
00000100
,
00000000
00001000
00000000
00020000
00000000
00030003
00000000
00000000
;

//---------------dance-double - RIME-DDP----------------
#NOTES:
     dance-double:
     RIME:
     Medium:
     13:
     0.643041,0.674092,0.009785,0.009785,0.112532,460,459,1,1,0,0,0.643041,0.674092,0.009785,0.009785,0.112532,460,459,1,1,0,0:
00000000
00000000
00000000
00000000
,
00000000
00000000
00000000
00000000
,
00000000
00000000
00000000
00000000
,
00000000
00000000
00000000
00000000
,
00100000
00010000
01000000
00000000
01000000
00010000
00100000
00000000
,
00010000
00100000
00001000
00010000
00000100
00001000
00000010
00000000
,
00001000
00000001
00000010
00000000
00000010
00000001
00001000
00000000
,
00000001
00000010
00000100
00001000
00000010
00000100
00001000
00000000
,
00000100
00000001
00001000
00000000
00001000
00000001
00000100
00000000
,
00000010
00001000
00000100
00010000
00001000
00100000
00010000
00000000
,
00100000
01000000
10000000
00000000
00100000
01000000
00010000
00000000
,
10000000
01000000
00100000
00010000
10000000
00000000
01000000
00000000
00100000
00000000
00010000
00000000
10000000
00000000
00100000
00000000
,
00010000
00000000
00010000
00100000
10000000
00000000
10000000
01000000
,
00010000
00001000
00000100
00000001
00001000
00000000
00000001
00000010
,
00001000
00000000
00001000
00000010
00000001
00000000
00000001
00000100
,
00001000
00010000
01000000
10000000
00010000
00000000
10000000
00100000
,
01000000
00100000
10000000
00010000
00100000
01000000
10000000
00010000
,
10000000
10000000
01000000
00100000
00100000
01000000
10000000
00010000
,
01000000
10000000
01000000
00010000
00000010
00000001
00000010
00000001
,
00000100
00000001
00001000
00000001
00000010
00000010
00000100
00000100
,
00001000
00001000
00000001
00000001
00000100
00000100
00001000
00001000
,
00010000
00010000
01000000
01000000
00100000
00010000
01000000
00100000
,
10000000
01000000
00100000
00010000
01000000
00100000
10000000
00010000
,
00100000
00010000
00010000
00100000
00100000
00001000
00001000
00010000
,
00010000
00100000
00100000
10000000
10000000
01000000
01000000
00010000
,
00010000
00001000
00001000
00000010
00000010
00000001
00000001
00000100
,
00000100
00000010
00001000
00000100
00001000
00000001
00000100
00001000
,
00000100
00000010
00000010
00010000
00010000
00001000
00001000
00100000
,
00100000
01000000
01000000
10000000
10000000
00010000
00010000
01000000
,
01000000
00100000
10000000
00010000
10000000
01000000
00100000
00010000
,
00100000
00000000
00101000
00001000
00010000
00001000
00010000
00001000
00010000
00001000
00010000
00000000
00000100
00000000
00000010
00000000
,
00000001
00001000
00000001
00000010
00001000
00000010
00010000
00100000
,
00000010
00001000
00000001
00000100
00000010
00001000
00000100
00010000
,
00001000
01000000
00010000
10000000
01000000
00100000
00010000
00100000
,
10000000
00000000
00000000
00100000
00000000
00000000
01000000
00000000
00000000
10000000
00000000
00000000
00100000
00000000
00000000
00010000
00000000
00000000
00000000
00001000
00000000
00000010
00000000
00000000
,
00000000
00000001
00000000
00001000
00000000
00000000
00000000
00000010
00000000
00010000
00000000
00000000
00000000
00001000
00000000
00100000
00000000
00000000
00000000
00010000
00000000
10000000
00000000
00000000
,
00000000
00100000
00000000
01000000
00000000
00000000
00000000
00010000
00000000
00100000
00000000
00000000
00000000
01000000
00000000
10000000
00000000
00000000
01000000
00000000
00000000
00010000
00000000
00000000
,
00001000
00000100
00000001
00001000
00000100
00000010
00000001
00000100
,
00000001
00000010
00000100
00001000
00000100
00010000
00100000
10000000
,
01000000
00100000
00010000
00100000
10000000
00100000
00001000
00010000
,
00000100
00000010
00000001
00001000
00000001
00000010
00001000
00010000
,
01000000
10000000
00100000
01000000
00010000
10000000
01000000
00010000
,
00010000
01000000
10000000
00010000
01000000
00100000
00010000
00001000
,
00000100
00000001
00000010
00000100
00000010
00000001
00000100
00001000
,
00000100
00000000
00000001
00000000
00000010
00000000
00000100
00000000
00001000
00000000
00000010
00000000
00000000
00000010
00100000
00000000
,
00100000
00000000
00000000
00010000
00000000
00000000
00000000
00000000
00000000
00010000
00000000
00000000
00000000
00000000
00000000
00010000
00000000
00000000
10000000
00000000
00000000
00000000
00000000
00000000
00000000
00000000
00000000
10000000
00000000
00000000
00100000
00000000
00000000
00000000
00000000
00000000
00000000
00000000
10000000
00000000
00000000
00000000
01000000
00000000
00000000
00000000
00010000
00000000
,
00000000
00000000
01000000
00000000
00000000
01000000
00000000
00000000
01000000
00100000
01000000
00000000
10000000
00000000
00100000
00000000
,
00010000
00100000
01000000
00010000
00100000
00001000
00000010
00000001
,
00000100
00000010
00001000
00000001
00000010
00000100
00001000
00000010
,
00000001
00001000
00000100
00000001
00000010
00000100
00000100
00010000
,
00010000
01000000
01000000
10000000
10000000
00100000
01000000
00010000
,
00010000
00100000
01000000
10000000
10000000
00100000
00010000
00001000
,
00000010
00001000
00010000
01000000
10000000
00010000
01000000
00100000
,
00100000
10000000
01000000
00100000
00100000
00010000
00100000
00001000
,
00010000
00000100
00000010
00000001
00000100
00000010
00001000
00000001
,
00000001
00000010
00000100
00001000
00001000
00000100
00010000
00100000
,
10000000
01000000
00100000
00010000
10000000
01000000
00100000
00010000
,
00010000
01000000
00100000
10000000
10000000
00010000
00100000
00001000
,
00010000
00000100
00000001
00000100
00010000
00000010
00000100
00000001
,
00000001
00000010
00000100
00001000
00001000
00000010
00010000
00001000
,
00100000
01000000
10000000
00010000
01000000
00100000
10000000
00010000
,
00010000
00100000
01000000
10000000
10000000
00100000
00010000
00001000
,
00000100
00000001
00001000
00000100
00000020
00000030
00000000
00000000
;

//---------------dance-double - Kekkle-EDP----------------
#NOTES:
     dance-double:
     Kekkle:
     Hard:
     16:
     0.910043,0.857935,0.362060,0.420772,0.944292,651,614,37,43,0,0,0.910043,0.857935,0.362060,0.420772,0.944292,651,614,37,43,0,0:
00000000
00000000
00000000
00000000
,
00000000
00000000
00000000
00000000
,
00000000
00000000
00000000
00000000
,
00000000
00000000
00000000
00000000
00000000
00000000
00000000
00000000
00000000
00000000
00001000
00000000
00010000
00001000
00100000
00001000
,
00020000
00000000
00000000
00000000
00031000
00000000
00100000
00010000
10000000
00010000
00100000
00000000
00010000
00000000
10000000
00100000
,
01000000
00100000
10000000
00000000
00010000
00000000
00100000
00001000
00010000
00000000
00001000
00000000
00001000
00000000
00001000
00010000
,
00000020
00000000
00000000
00000000
00000130
00000000
00000001
00001000
00000100
00001000
00000001
00000000
00001000
00000000
00000010
00010000
,
00001000
00000000
00010000
00000100
00001000
00000000
00000100
00010000
00001000
01000000
00010000
01000000
00000000
01000000
00100000
10000000
,
00020000
00000000
00000000
00000000
10030000
00000000
00010000
01000000
00100000
00000000
10000000
00010000
01000000
00000000
01000000
00000000
,
10010000
00000000
00000000
00010000
01000000
00001000
00010000
00002000
00000000
00013000
00000010
00001000
00000010
00000100
00000001
00000000
,
00001000
00000000
00001000
00000000
00010010
00000000
00000000
00000010
00010000
00001000
00010000
00000000
00011000
00000000
00001000
00000000
,
02000000
03020000
20030000
30200000
01300000
00000000
00010000
10000000
01000000
00100000
00000000
00000000
00002000
00000000
00000000
00000000
,
00013000
00000000
00000010
00001000
00000001
00001000
00000010
00000000
00001000
00000000
00000100
00010000
00001000
00010000
00000100
00000000
,
00010000
00000000
00001000
01000000
00100000
00000000
01100000
00000000
01000000
00010000
10000000
01000000
00200000
00000000
00000000
00000000
,
00301000
00010000
00000100
00010000
00001000
00000000
01000000
00001000
00010000
00000000
00000100
00010000
00002000
00000000
00000000
00000000
,
01003000
00000000
00010000
10000000
00100000
10000000
01000000
00000000
00100000
00000000
00001000
00010000
00002000
00000000
00000000
00000000
,
00003100
00000000
00000001
00001000
00000010
00001000
00000100
00000000
00010000
00000000
00002000
00000000
01000000
00000000
01003000
00000000
,
00100000
00000000
00000000
00000000
00100000
00000000
00000000
00000000
00100000
00000000
00000000
00000000
10000000
00000000
00000000
00000000
00000000
00000000
10010000
00000000
00000000
00000000
00000000
00000000
00010000
00000000
00000000
00000000
00000000
00000000
00100000
00000000
00000000
00000000
00000000
00000000
00101000
00000000
00000000
00000000
00000000
00000000
00001000
00000000
00000000
00010000
00000000
00000000
,
00000010
00000000
00010000
00000000
00011000
00000000
00010000
00001000
01000000
00000000
00001000
00000000
00011000
00000000
00001000
00010000
,
00000100
00000000
00000100
00000000
00001001
00000000
00000000
00000001
00000200
00000000
00000000
00000000
00000310
00000000
00001000
00000010
,
00010000
00001000
00010000
00000000
00001000
00000000
01000000
00100000
10000000
00010000
10000000
00000000
01000000
00000000
00100000
00001000
,
00010000
00000000
00011000
00000000
00001000
00000100
00000010
00001000
00000010
00000000
00010000
00000000
00011000
00000000
00100000
00000000
,
00001000
00000000
00011000
00000000
00000010
00000000
00010000
00000000
00011000
00000000
00001000
00000000
01001000
00000000
01000000
00010000
,
10000000
00100000
02000000
00000000
00000000
00000000
03010000
00000000
01000000
00010000
10000000
00100000
01000000
00000000
00001000
00000000
,
00100000
00001000
00010000
00000100
00001000
00000000
00000100
00000000
00000010
00000001
00001000
00000010
00000100
00000000
00001000
00010000
,
00001000
00000100
00000020
00000000
00000000
00000000
00001030
00000000
00000100
00010000
00001000
00100000
00010000
00000000
10000000
00000000
,
00100000
01000000
00010000
10000000
00100000
00000000
01000000
00000000
00010000
01000000
00001000
00000000
00011000
00000000
00010000
00001000
,
00000100
00000010
00002000
00000000
00000000
00000000
00003001
00000000
00000100
00000010
00010000
00000100
00001000
00000000
00000100
00000000
,
00010000
00001000
00100000
01000000
00100000
00000000
00010000
00000000
10000000
00010000
01000000
00000000
01000000
00000000
00002000
00000000
,
00013000
00000100
00001000
00000010
00010000
00001000
01000000
00100000
,
00100000
00000000
20000000
32000000
03200000
00320000
00032000
00003200
00000320
00000032
00001003
00000000
00000010
00000000
00010010
00000000
,
00010000
00001000
00100000
00100000
00001000
00010000
00000100
00000100
,
00010000
00001000
01000000
00000000
01100000
00000000
00100000
10000000
00010000
01000000
00001000
00000000
00010000
00000000
00000010
00000000
,
00000010
00000000
00000100
00000001
00001000
00000000
00000100
00000000
00000100
00000000
00020000
00000000
00000000
00000000
00031000
00000000
,
00001000
00000000
00000000
00000000
00000000
00000000
00100000
00000000
00000000
00010000
00000000
00000000
10000000
00000000
00000000
00000000
00000000
00000000
00100000
00000000
00000000
01000000
00000000
00000000
00001000
00000000
00000000
00010000
00000000
00000000
00001000
00000000
00000000
00000000
00100000
00000000
00000000
00000000
00001000
00000000
00000000
00000000
00010000
00000000
00000000
00000000
00000100
00000000
,
00000000
00000010
00000000
00000001
00000000
00000010
00000000
00001000
00000000
00010000
00000000
01000000
00000000
00100000
00000000
00010000
00000000
10000000
00000000
00100000
00000000
00010000
00000000
00001000
,
00000000
00000100
00000000
00000010
00000000
00001000
00000000
00000001
00000000
00000010
00000000
00001000
00000000
00010000
00000000
00001000
00000000
00000000
00100000
00000000
00000000
00101000
00000000
00000000
,
00001000
00010000
00000010
00000010
00010000
00001000
01000000
01000000
,
00001000
00010000
00000010
00000000
00000100
00000000
00000001
00001000
00000010
00000100
00000001
00001000
00000100
00010000
00000100
00001000
,
00000010
00010000
00002000
00000000
01000000
00000000
01003000
00000000
00100000
10000000
00010000
00000000
10000000
00000000
11000000
00000000
,
01000000
00100000
00010000
00100000
00000000
00100000
00001000
00010000
00000000
00010000
00001000
00000000
00010000
00000000
00010200
00000000
,
00000000
00010300
00001000
02001000
00000000
03001000
00010000
00010010
,
00000010
00000100
00000001
00000000
00001001
00000000
00001000
00000100
00010000
00000010
00010000
00001000
00100000
00010000
00100000
01000000
,
10000000
00010000
01000000
00000000
00001000
00000000
00011000
00000000
00010000
00000000
00000010
00000100
00000001
00000000
00000002
00000000
,
00000000
00001003
00000100
00000000
00010100
00000000
00010000
00001000
01000000
00100000
02000000
00000000
00000000
03010000
10000000
00000000
,
00010000
00000000
00000000
10000000
00000000
00000000
00000000
00000000
00000000
00010000
00000000
00000000
00000000
00000000
00000000
00000000
00000000
00000000
00101000
00000000
00000000
00000000
00000000
00000000
00100000
00000000
00000000
00001000
00000000
00000000
00020000
00000000
00000000
00000000
00000000
00000000
00000000
00000000
00000010
00000000
00000000
00000000
00000010
00000000
00000000
00000000
00000010
00000000
,
00000000
00000000
00031000
00000000
00000000
00011000
00000000
00010000
00000010
00000100
00000001
00000000
00001000
00000000
00001001
00000000
,
00000001
00000100
00000010
00010000
00000010
00000000
00001000
00000000
00000100
00010000
00001000
01000000
00100000
00000000
10000000
00000000
,
00010000
00100000
00001000
00000000
00011000
00000000
00010000
00000010
00001000
00000100
00010000
00000000
00000010
00000000
00001000
00000000
,
00000001
00000100
00000010
00010000
00001000
00000000
00001000
00000000
00100000
01000000
10000000
00010000
01000000
00000000
01000000
00000000
,
00100000
10000000
00010000
00000000
01010000
00000000
01000000
00001000
00010000
00000010
00002000
00000000
00000000
00000000
00003001
00000000
,
00000100
00000010
00010000
00001000
00010000
00000000
00000100
00000000
00010000
00001000
01000000
00010000
01000000
00000000
00100000
10000000
,
00010000
00000000
00100000
00001000
00010000
00000000
00001000
00010000
00000010
00010000
00002000
00000000
00000000
00000000
00003100
00000000
,
00000001
00001000
00000100
00010000
00000100
00000000
00001100
00000000
00001000
00000001
00000010
00000000
00000100
00000000
00010100
00000000
,
00010000
00001000
01000000
00000000
01100000
00000000
20010000
00000000
00000000
31000000
00200000
00000000
00000000
00000000
00301000
00010000
,
00000100
00000000
00000020
00000000
00000000
00000000
00000031
00001000
00000100
00000000
00010000
00001000
00010000
00000000
00011000
00000000
,
00000000
00001000
01000000
00000000
00100000
00000000
10000000
00010000
01000000
00001000
00020000
00000000
00000000
00000000
00030010
00000000
,
00001000
00000001
00001000
00000100
00010000
00000000
00001000
00000000
00100000
01000000
10000000
00010000
01000000
00000000
00001000
00000000
,
00100000
00001000
00010000
00000000
00010010
00000000
00000010
00010000
00000100
00001000
00000010
00000000
00001000
00000000
00001000
00000000
,
00000100
00000001
00000001
00000100
00010000
00010000
00001000
01000000
,
01000000
00000000
00010000
10000000
00100000
01000000
00001000
00010000
00000100
00010000
00002000
00000000
00000000
00000000
00013000
00000000
,
00000000
00000000
00000000
00000010
00000000
00000000
00000000
00000000
00000000
00000010
00000000
00000000
00001000
00000000
00000000
00000002
00000000
00000000
00000000
00000000
00000000
00000000
00000000
00000000
00001003
00000000
00000000
00000000
00000000
00000000
00000100
00000000
00000000
00000000
00010000
00000000
00000000
00000000
00001000
00000000
00000000
00000000
01000000
00000000
00000000
00000000
00100000
00000000
,
10000000
00100000
00000000
01000000
00000000
00000000
01000000
00000000
00000000
00001000
00000000
00000000
00022000
00000000
00000000
00033000
00000000
00000000
00000000
00000000
00000000
00000000
00000000
00000000
;

//---------------dance-single - Kekkle-ESP----------------
#NOTES:
     dance-single:
     Kekkle:
     Hard:
     16:
     0.938001,0.888576,0.508841,0.450129,0.973648,671,619,52,46,0,0,0.938001,0.888576,0.508841,0.450129,0.973648,671,619,52,46,0,0:
0000
0000
0000
0000
,
0000
0000
0000
0000
,
0000
0000
0000
0000
,
0000
0000
0000
0000
0000
0000
0000
0000
0000
0000
0001
0000
1000
0001
0100
0001
,
2000
0000
0000
0000
3100
0000
0010
0001
1000
0001
0010
0000
0100
0000
1000
0001
,
0100
0001
1000
0000
0010
0000
0100
0001
1000
0000
0001
0000
0001
0000
0001
0100
,
0020
0000
0000
0000
1030
0000
0001
0100
0010
0100
0001
0000
1000
0000
0001
0100
,
0010
0000
1000
0010
0100
0000
0001
1000
0001
0010
0100
1000
0000
1000
0100
0010
,
0002
0000
0000
0000
1003
0000
0001
0100
0010
0000
1000
0010
0100
0000
0100
0000
,
1001
0000
0000
0001
1000
0100
0010
0200
0000
1300
0001
0100
0010
1000
0001
0010
,
0100
0000
1000
0000
1001
0000
0001
0100
0010
1000
0001
0000
0101
0000
0100
0000
,
0020
2030
3002
0203
0310
0000
1000
0001
0010
0100
0000
0000
0020
0000
0000
0000
,
0031
0000
1000
0010
0100
0001
1000
0000
0001
0000
1000
0100
0010
0001
1000
0000
,
0010
0000
1000
0010
0100
0000
0110
0000
0010
1000
0001
0100
0020
0000
0000
0000
,
1030
0001
0100
0010
1000
0000
0001
0100
1000
0000
1000
0100
0002
0000
0000
0000
,
1003
0000
0001
1000
0100
0010
0001
0000
1000
0000
0010
0100
0002
0000
0000
0000
,
1003
0000
0100
0010
0001
1000
0010
0000
0100
0000
0002
0000
1000
0000
1003
0000
,
0010
0000
0000
0000
0010
0000
0000
0000
0010
0000
0000
0000
1000
0000
0000
0000
0000
0000
1001
0000
0000
0000
0000
0000
0001
0000
0000
0000
0000
0000
1000
0000
0000
0000
0000
0000
1100
0000
0000
0000
0000
0000
0100
0000
0000
0010
0000
0000
,
0001
0000
0100
0000
0101
0000
0001
0100
0010
0000
1000
0000
1100
0000
0100
1000
,
0001
0000
0001
0000
0002
0000
0000
0103
0020
0000
0000
0000
1030
0000
0001
0100
,
0010
1000
0001
0000
1000
0000
0100
0001
0100
1000
0001
0000
1000
0000
0010
0100
,
0001
0000
1001
0000
1000
0001
0100
1000
0100
0000
0001
0000
1001
0000
1000
0010
,
0100
0000
1001
0000
0001
0010
0100
0000
1001
0000
0010
0000
1001
0000
1000
0010
,
0100
0001
2000
0000
0000
0000
3001
0000
0100
0010
1000
0001
0100
0000
0001
0000
,
1000
0100
0010
0001
1000
0000
0010
0000
0100
0001
1000
0000
1001
0000
0001
0100
,
1000
0100
0020
0000
0000
0000
1030
0000
0001
1000
0100
0010
0100
0000
1000
0000
,
0010
0100
0001
1000
0100
0000
1000
0000
0001
0010
0100
0000
0110
0000
0010
0001
,
0010
1000
0020
0000
0000
0000
0031
0000
1000
0010
0100
0001
1000
0000
0010
0000
,
0100
0001
1000
0100
0010
0000
0001
0000
0100
0010
1000
0000
1000
0000
0002
0000
,
1003
1100
0001
0101
1000
1010
0001
0011
,
1000
0000
0002
0203
2300
3200
0302
0023
2030
3020
0031
0000
1000
0000
1100
0000
,
0001
0100
0010
0010
1000
0100
0010
0010
,
0001
1000
0100
0000
0110
0000
0010
0001
1000
0010
0100
0000
0001
0000
0101
0000
,
1001
0000
1000
0100
0010
0000
0011
0000
1001
0000
2000
0000
3000
0000
1001
0000
,
0101
0000
0000
0000
0000
0000
0100
0000
0000
0010
0000
0000
1000
0000
0000
0000
0000
0000
0001
0000
0000
1000
0000
0000
0100
0000
0000
0010
0000
0000
0001
0000
0000
0000
0010
0000
0000
0000
1000
0000
0000
0000
0010
0000
0000
0000
0100
0000
,
0000
1000
0000
0001
0000
1000
0000
0010
0000
0100
0000
0001
0000
0100
0000
1000
0000
0100
0000
0001
0000
1000
0000
0100
,
0000
0010
0000
1000
0000
0001
0000
0100
0000
1000
0000
0001
0000
0100
0000
0010
0000
0000
1000
0000
0000
1001
0000
0000
,
0001
0100
0010
0000
1000
0000
1001
0000
1000
0100
0010
0000
0001
0000
1001
0000
,
0001
0100
0010
0000
1000
0000
0001
0100
0010
1000
0001
1000
0100
0010
0001
0100
,
0001
0010
0200
0000
1000
0000
1300
0000
0001
0100
0010
1000
0001
0000
0101
0000
,
0100
0010
1000
0001
0000
0001
0010
0100
0000
0100
1000
0000
1001
0000
0201
0000
,
0000
0301
1001
1200
0000
1300
1001
0011
,
0010
0001
1000
0000
0001
0000
0001
0100
1000
0100
0001
0100
0010
1000
0001
1000
,
0100
0010
0001
1000
0010
0000
1010
0000
1000
0000
0001
0100
0010
0000
0020
0000
,
0000
1030
0001
0000
1001
0000
1000
0100
0001
0100
2000
0000
0000
3001
0100
0000
,
0010
0000
0000
1000
0000
0000
0000
0000
0000
1000
0000
0000
0000
0000
0000
0000
0000
0000
1001
0000
0000
0000
0000
0000
0001
0000
0000
1000
0000
0000
0200
0000
0000
0000
0000
0000
0000
0000
0010
0000
0000
0000
0010
0000
0000
0000
0010
0000
,
0000
0000
1300
0000
0000
0001
0000
1000
0010
0100
0002
0000
0000
0000
0103
0000
,
0010
1000
0001
0100
0010
0000
1000
0000
0001
0010
0100
1000
0001
0000
0100
0000
,
0001
1000
0010
0000
1010
0000
1000
0001
0010
1000
0020
0000
0000
0000
0031
0000
,
1000
0010
0100
0001
1000
0000
1000
0000
0001
0010
0100
1000
0001
0000
0001
0000
,
1000
0010
0100
0000
0110
0000
0010
1000
0010
0001
0020
0000
0000
0000
1030
0000
,
0001
0010
0100
1000
0001
0000
0100
0000
0010
1000
0001
0010
0100
0000
1000
0100
,
0001
0000
0001
0100
1000
0000
1000
0010
0100
0001
0200
0000
0000
0000
0310
0000
,
1000
0001
0010
0100
1000
0000
0001
0000
1000
0100
0010
0000
0001
0000
1001
0000
,
1000
0010
0100
0000
0110
0000
2001
0000
0000
3100
0020
0000
0000
0000
0031
1000
,
0100
0000
0020
0000
0000
0000
0031
1000
0010
0000
0100
0010
0100
0000
0110
0000
,
0000
0010
1000
0000
0001
0000
1000
0100
0001
0100
2000
0000
0000
0000
3001
0000
,
0100
0010
1000
0001
0010
0000
0100
0000
1000
0001
0100
0001
0010
0000
0001
0000
,
1000
0010
0100
0000
0101
0000
0001
0100
1000
0100
0001
0000
1000
0000
1010
0000
,
1000
0001
0011
0001
1000
1100
1000
0001
,
0101
0000
0100
0010
0100
1000
0100
0001
1000
0100
0020
0000
0000
0000
0031
0000
,
0000
0000
0000
1000
0000
0000
0000
0000
0000
1000
0000
0000
0010
0000
0000
0200
0000
0000
0000
0000
0000
0000
0000
0000
0301
0000
0000
0000
0000
0000
1000
0000
0000
0000
0100
0000
0000
0000
0010
0000
0000
0000
0100
0000
0000
0000
1000
0000
,
0001
1000
0000
0010
0000
0000
0010
0000
0000
1000
0000
0000
2002
0000
0000
3003
0000
0000
0000
0000
0000
0000
0000
0000
;

//---------------dance-single - Kekkle-DSP----------------
#NOTES:
     dance-single:
     Kekkle:
     Medium:
     12:
     0.582931,0.644736,0.117425,0.313133,0.181030,417,405,12,32,0,0,0.582931,0.644736,0.117425,0.313133,0.181030,417,405,12,32,0,0:
0000
0000
0000
0000
,
0000
0000
0000
0000
,
0000
0000
0000
0000
,
0000
0000
0000
0000
,
1000
0001
0200
0000
0301
1000
0100
0000
,
0010
0001
1000
0010
1000
0100
0100
0010
,
0002
0000
1003
0000
0010
0100
0001
0000
,
0101
0000
1010
0000
1000
0001
0001
0100
,
0020
0000
1030
0000
0001
0000
0010
0010
,
0100
0000
0000
0000
1000
0000
1000
0001
0000
0000
0100
0000
0010
0000
1000
0000
,
0002
0000
0103
0000
0010
1000
0001
1000
,
0100
0010
0100
0010
0001
0000
1000
0000
2000
0000
0000
0000
3001
0000
0000
0000
,
0100
0010
1000
0001
0100
0000
0001
0010
,
0100
0000
1000
0001
0010
0001
0200
0000
,
0310
1000
0001
0001
1000
1000
0200
0000
,
0310
0001
0010
1000
0010
0100
2000
0000
,
3001
0100
0010
1000
0001
0010
0100
0100
,
1000
0000
1000
0001
0100
0010
1000
0000
,
1002
0103
2001
3100
,
0010
0001
1000
0000
0020
0000
0130
0000
,
0001
1000
0010
0000
1000
0001
0010
0000
,
0100
1000
0001
0001
0100
0010
1000
0010
,
0100
0001
0100
0010
1000
0010
0100
0001
,
0001
1000
0100
0010
0010
0001
0100
0010
,
0010
1000
0100
0010
0010
0001
1000
0010
,
0100
0001
0010
0100
0100
1000
0010
0100
,
0100
0001
0010
0100
0100
1000
0001
0100
,
0010
1000
0100
1000
1000
0001
0100
0001
,
0001
1000
0010
1000
1000
0001
0010
0100
,
0100
2000
0000
3002
0000
0203
0000
0320
,
0000
0000
1030
0001
1000
0001
0100
0010
0100
0010
1000
0000
0001
0000
0010
0000
,
0100
1000
0001
0001
0100
0010
1000
1000
,
0100
0010
0001
0001
0100
0020
0000
1030
,
1000
0001
0010
1000
1000
0020
0000
0031
,
0001
0000
0000
1000
0000
0000
0010
0000
0000
0100
0000
0000
0010
0000
0000
0001
0000
0000
0000
0001
0000
0010
0000
0000
,
0000
0010
0000
1000
0000
0000
0000
1000
0000
0100
0000
0000
0000
0100
0000
0001
0000
0000
0000
0001
0000
0100
0000
0000
,
0000
0100
0000
1000
0000
0000
0000
1000
0000
0010
0000
0000
0000
0010
0000
0200
0000
0000
0000
0000
0000
0301
0000
0000
,
1000
0100
0010
0010
0001
1000
0010
0010
,
1000
0000
0001
0000
0010
0000
0010
0000
0100
0000
1000
0001
1000
0000
0001
0000
,
0000
0100
0010
0000
0000
1000
0001
0000
1000
0000
0100
0000
0010
0000
0100
0000
,
1000
0000
0001
0000
0000
0001
0100
0000
0000
0100
0020
0000
0000
0000
1030
0000
,
0000
0020
0000
0031
0000
0020
0000
1030
,
0001
0000
0010
0000
1000
0000
0010
0000
0001
0000
1000
0001
1000
0000
0010
0000
,
0100
0000
0001
0000
1000
0000
1000
0000
0100
0000
0010
0100
0010
0000
0010
0000
,
0000
0000
0001
0000
1000
0000
0010
0000
0100
0000
0001
0000
0000
1000
0000
0000
,
1000
0000
0000
0000
0000
0000
0000
0000
0000
0100
0000
0000
0000
0000
0000
0000
0000
0000
0110
0000
0000
0000
0000
0000
0000
0000
0000
0000
0000
0000
0010
0000
0000
0000
0000
0000
0000
0000
0001
0000
0000
0000
1000
0000
0000
0000
0100
0000
,
0000
0000
0010
0000
0000
0010
0000
0000
0001
1000
0002
0000
0000
0000
0103
0000
,
0010
1000
0001
0010
0000
0100
1000
0001
,
0000
0100
1000
0100
0001
0200
0000
0310
,
1000
0100
0010
0010
0000
0001
1000
1000
,
0000
0010
0100
0002
0000
2003
0000
3100
,
0010
0001
1000
0010
0000
0100
0000
0101
,
0000
1010
0000
1100
0000
0200
0000
0310
,
0001
1000
0010
0001
0000
0020
0000
2030
,
0000
0000
3001
0000
0010
0000
0100
0000
0000
1000
0002
0000
0000
0000
0100
0000
,
0103
0000
0000
0000
0010
0000
1000
0000
1000
0000
0001
1000
0000
0000
1000
0000
,
0000
0100
0010
1000
0010
0002
0000
0103
,
0010
0100
1000
0100
0000
0001
1000
0100
,
0000
0001
0100
1000
0100
0010
0000
0011
,
0000
0001
1001
0000
1000
1010
0000
0010
,
0110
0100
1000
0100
0001
0200
0000
0310
,
0000
0000
0000
1000
0000
0000
0000
0000
0000
0001
0000
0000
1000
0000
0000
0001
0000
0000
0000
0000
0000
0000
0000
0000
1000
0000
0000
0000
0000
0000
0100
0000
0000
0000
0010
0000
0000
0000
0001
0000
0000
0000
1000
0000
0000
0000
0010
0000
,
0000
0100
0000
0001
0000
0000
0100
0000
0000
0010
0000
0000
0020
0000
0000
0000
0000
0000
0030
0000
0000
0000
0000
0000
;
