#TITLE:SABER WING(XX-Special);
#ARTIST:TAG;
#BANNER:SABER WING(XX-Special).png;
#BACKGROUND:SABER WING(XX-Special)-bg.png;
#MUSIC:SABER WING(XX-Special).ogg;
#SAMPLESTART:2.435;
#SAMPLELENGTH:15;
#DISPLAYBPM:74:222;
#BPMS:0=222.222,4=222,102=74,103=222,148=444,151=222,229=444,241=74,257=222;
#STOPS:148=0.135,149=0.135,150=0.135,256.667=1.622;

//---------------dance-single - RGTM-CSP----------------
#NOTES:
     dance-single:
     RGTM:
     Challenge:
     17:
     :
0000
0000
0000
0000
,
0000
0000
0000
0000
,
0000
0000
2100
0000
3001
0010
1000
0100
,
0110
1010
1001
0102
,
1003
0010
0001
0100
0110
0000
0011
0000
,
1001
0000
2100
0000
3001
0010
1000
0100
,
1100
0000
0110
0000
0101
0000
0001
0100
,
1000
0010
0001
0000
1000
0100
0001
0010
,
1000
0000
2010
0000
3001
0100
1000
0010
,
0110
1100
1001
0012
,
1003
0100
0001
0010
0110
0000
0101
0000
,
1001
0000
2010
0000
3001
0200
0000
1300
,
0010
0000
0000
0000
0110
0000
0000
0000
1001
0000
0000
0000
1000
0001
1000
0001
,
1000
0001
1000
0001
1000
0001
1000
0001
1000
0001
1000
0001
1000
0001
1000
0001
,
1000
0001
1000
0001
2000
0000
0000
0000
3100
0000
1000
0000
0020
0000
0000
0000
,
0032
0000
1003
0100
0001
0000
0011
0000
,
1010
0000
1001
0000
0001
0100
1000
0010
,
0001
0000
2000
0000
3100
0010
2000
0000
,
3002
0000
0013
0100
0001
0000
0101
0000
,
1100
0000
1001
0000
1000
0010
0100
0001
,
0020
0000
0032
0000
0103
0001
0020
0000
,
2030
0000
3001
0100
1000
0000
1010
0000
,
0011
0000
1001
0000
1000
0100
0001
0010
,
1000
0000
0002
0000
0103
0010
0002
0000
,
2003
0000
0000
0000
3010
0000
0100
0000
2000
0000
0000
0000
3100
0001
0100
0001
,
1000
0001
1000
0001
1000
0100
1000
0100
0010
0000
0000
0000
0102
0000
0000
0000
,
1003
0010
0001
0100
0110
0000
0011
0000
,
1001
0000
2100
0000
3001
0010
1000
0100
,
0110
1010
1001
0102
,
1003
0010
0001
0100
0101
0000
0110
0000
,
1100
0000
1000
0100
0001
0010
1000
0000
,
0001
0100
1000
0010
0001
0000
0012
0000
,
1003
0100
0001
0010
0110
0000
0101
0000
,
1001
0000
2010
0000
3001
0100
1000
0010
,
0110
1100
1001
0012
,
1003
0200
0000
0301
0010
0000
0110
0000
,
1001
0000
0000
0000
0001
1000
0001
1000
0001
1000
0001
1000
0001
1000
0001
1000
,
0002
0003
0020
0030
2000
3000
0001
1000
,
0010
0001
0100
1000
0001
0010
1000
0010
,
0001
1000
0100
0001
0010
1000
0001
0100
,
1000
0100
0001
1000
0010
0001
0100
1000
,
0001
0010
1000
0010
0001
1000
0100
0001
,
0010
1000
0001
0100
1000
0100
0001
1000
,
0010
0100
1000
0010
0001
0010
1000
0010
,
0001
1000
0100
0010
1000
0100
0001
0100
,
1000
0100
0001
1000
0010
0100
1000
0010
,
0001
0010
1000
0010
0001
1000
0100
0010
,
1000
0100
0001
0100
1000
0100
0001
1000
,
0010
0100
0001
1000
0010
0001
0100
1000
,
0001
1000
0100
0010
0001
1000
0100
0001
,
0010
1000
0001
1000
0010
0100
0001
1000
,
0010
0001
0100
1000
0001
1000
0100
0010
,
0001
1000
0100
0001
0010
1000
1010
0010
,
0001
0100
0010
0001
0011
0010
1000
0100
,
0010
1000
1001
0001
0100
1000
0010
0001
,
1001
1000
0100
0001
0010
1000
1001
0000
,
1010
0000
0011
0000
1001
0000
0010
0100
,
0110
2002
0000
0000
,
0000
0000
0000
0000
,
0000
0000
0000
3003
,
0000
0000
0000
0000
0000
0000
1000
0000
0000
0000
0010
0000
0010
0000
0000
0000
0001
0000
0001
0000
0000
1000
0100
0001
,
1000
0000
0000
0000
0000
0000
0001
0000
0000
0000
0001
0000
0010
0000
0000
0000
0010
0000
1000
0000
0000
0001
0100
1000
,
0010
0100
0010
0100
0010
0000
0000
0000
1001
0000
0000
0000
1010
0000
0010
0000
1000
0000
0010
0000
0100
0000
0001
0000
0101
0000
0100
0000
0010
0000
1000
0000
0001
0000
1000
0000
1100
0000
0100
0000
0010
0000
0001
0000
1000
0000
0001
0000
,
0011
0000
0010
0000
0100
0000
1000
0000
0001
0000
0100
0000
0110
0000
0010
0000
1000
0000
0001
0000
0010
0000
0100
0000
0110
0000
0010
0000
0001
0000
1000
0000
0010
0000
0100
0000
0001
0010
0001
0010
0100
0010
0100
0010
0100
1000
0100
1000
,
0001
1000
0001
1000
0001
0100
0001
0100
0010
0000
0000
0000
2100
0000
0000
0000
0000
0000
0000
0000
0000
0000
0000
0000
3001
0000
0000
0000
0000
0000
0010
0000
0000
0000
0000
0000
1000
0000
0000
0000
0000
0000
0100
0000
0000
0000
0000
0000
,
0102
0000
1003
0010
0001
0100
0110
0000
,
0011
0000
1001
0000
1000
0100
0001
0010
,
1000
0000
2010
0000
3001
0100
1000
0010
,
0012
0000
1003
0100
0001
0010
0110
0000
,
0101
0000
1001
0000
1000
0010
0001
1000
,
0010
0000
0012
0000
1003
0100
0001
0010
,
2010
0000
3001
0100
1000
0010
0110
0000
,
1100
0000
1001
0000
0001
0010
1000
0100
,
0001
0000
0102
0000
1003
0010
0001
0100
,
2100
0000
3001
0010
1000
0100
0110
0000
,
0011
0000
0000
0000
0101
0000
0000
0000
0100
0010
0100
0010
0100
0010
0100
0010
,
0100
0010
0100
0010
0100
0000
1000
0000
0001
0000
1000
0000
0100
0000
0001
0000
,
0010
1000
0001
1000
0010
0001
0101
0000
,
0110
0000
1100
0000
1000
0100
0001
0010
,
0100
1000
0010
0001
1000
0001
0010
1000
,
0100
0001
1000
0001
0100
1000
1010
0000
,
0110
0000
0011
0000
0001
0010
1000
0100
,
0010
0001
0011
0000
0010
0100
0000
0100
,
1100
1001
0101
1010
,
0010
0100
0000
0100
0001
0010
0011
0000
,
0110
0000
1010
0010
0001
0100
0010
0001
,
0011
0000
0010
0000
1000
0000
0100
0000
0010
0000
0001
0000
1000
0010
1000
0010
,
0100
0010
0100
0010
0100
0001
0100
0001
1000
0000
0000
0000
0000
0000
0000
0000
;

//---------------dance-double - RGTM-CDP----------------
#NOTES:
     dance-double:
     RGTM:
     Challenge:
     17:
     :
00000000
00000000
00000000
00000000
,
00000000
00000000
00000000
00000000
,
00000000
00000000
21000000
00000000
30010000
00100000
01000000
00010000
,
00001000
00010100
00001001
00000102
,
00001003
00000010
00000100
00001000
00010000
00000000
01001000
00000000
,
10010000
00000000
21000000
00000000
30100000
10000000
01000000
00100000
,
00001000
00000000
00010010
00000000
00001001
00000000
00000001
00000010
,
00001000
00010000
00100000
00000000
10000000
01000000
00010000
00001000
,
00000100
00000000
00000102
00000000
00001003
00000010
00000100
00001000
,
00010000
01001000
10010000
21000000
,
30010000
00100000
01000000
00010000
00001000
00000000
00010100
00000000
,
00001001
00000000
00000021
00000000
00000130
00001000
00000000
00001000
,
00000010
00010010
00101000
20020000
,
00000000
00000000
00000000
00000000
30030000
00000000
00000000
00000000
00010000
10000000
00010000
10000000
00010000
10000000
00010000
10000000
,
00010000
00000000
20000000
00000000
31000000
00010000
00002000
00000000
,
00003200
00000000
00000301
00000010
00001000
00000000
00011000
00000000
,
00101000
00000000
01010000
00000000
10000000
01000000
00010000
00001000
,
00000010
00000000
00000002
00000000
00000103
00001000
00020000
00000000
,
02030000
00000000
13000000
00100000
00010000
00000000
00011000
00000000
,
00010010
00000000
00000101
00000000
00000001
00000010
00001000
00010000
,
02000000
00000000
23000000
00000000
30100000
00010000
00002000
00000000
,
00003020
00000000
00000031
00000100
00001000
00000000
00011000
00000000
,
00101000
00000000
01010000
00000000
10000000
01000000
00010000
00001000
,
00000100
00000000
00000002
00000000
00000013
00001000
00020000
00000000
,
00230000
00000000
00000000
00000000
10300000
00000000
01000000
00000000
00020000
00000000
00000000
00000000
00031000
00010000
00001000
00000000
,
00010000
00000100
00010000
00000000
00000100
00000010
00000100
00000010
00000001
00000000
00000000
00000000
00000012
00000000
00000000
00000000
,
00001003
00000100
00000010
00001000
00010000
00000000
00101000
00000000
,
10010000
00000000
20100000
00000000
30010000
01000000
00100000
00010000
,
00001000
00010010
00001001
00000012
,
00000103
00000001
00000010
00000100
00010000
00000000
01001000
00000000
,
10010000
00000000
10000000
01000000
00010000
00001000
00000100
00000000
,
00000001
00000010
00001000
00010000
00100000
00000000
20100000
00000000
,
30010000
01000000
00100000
00010000
00001000
00000000
00010010
00000000
,
00001001
00000000
00000012
00000000
00001003
00000100
00000010
00001000
,
00010000
00101000
10010000
12000000
,
03100000
00001000
00000000
00001000
00010000
00000000
00001010
00000000
,
00000101
00000000
00000000
00000000
00000001
00001000
00000001
00001000
00000001
00001000
00000001
00001000
00000001
00001000
00000001
00001000
,
00000002
00000003
00000020
00000030
00002000
00003000
00010000
00100000
,
10000000
00100000
00010000
00001000
00010000
01000000
00100000
00000000
,
00001000
00000010
00000001
00000010
00001000
00010000
00001000
00000100
,
00000010
00000000
00010000
01000000
10000000
01000000
00010000
00001000
,
00010000
00100000
01000000
00000000
00001000
00000100
00000001
00000100
,
00001000
00010000
00001000
00000010
00000100
00000000
00010000
00100000
,
10000000
00100000
00010000
00001000
00010000
01000000
00100000
00001000
,
00010000
00001000
00000010
00000001
00000010
00000100
00000001
00000100
,
00010000
00001000
00010000
01000000
10000000
01000000
00010000
00001000
,
00010000
00100000
01000000
00001000
00010000
00001000
00000100
00000001
,
00000100
00000010
00000001
00000010
00010000
00001000
00010000
00100000
,
10000000
01000000
00010000
00001000
00000100
00001000
00010000
00010000
,
00001000
00000010
00000001
00000100
00001000
00010000
01000000
00010000
,
00001000
00001000
00010000
01000000
10000000
00100000
00010000
00001000
,
00000010
00001000
00010000
00010000
00001000
00000100
00000001
00000010
,
00001000
00010000
00100000
00010000
00001000
00010000
00011000
00001000
,
00000010
00000001
00000100
00001000
00011000
00010000
00100000
10000000
,
01000000
00010000
00011000
00001000
00000100
00000001
00000010
00001000
,
00011000
00010000
01000000
10000000
00100000
00010000
00011000
00000000
,
00001010
00000000
00000101
00000000
00001100
00000000
00010000
00001000
,
00011000
02200000
00000000
00000000
,
00000000
00000000
00000000
00000000
,
00000000
00000000
00000000
03300000
,
00000000
00000000
00000000
00000000
00000000
00000000
10010000
00000000
00000000
00000000
10000000
00000000
00100000
00000000
00000000
00000000
00100000
00000000
00010000
00000000
00000000
00010000
00001000
00010000
,
00000100
00000000
00000000
00000000
00000000
00000000
00000010
00000000
00000000
00000000
00000010
00000000
00000001
00000000
00000000
00000000
00000001
00000000
00000100
00000000
00000000
00000010
00000100
00000010
,
00010000
00000000
00001000
00010000
00001000
00000000
00000000
00000000
00011000
00000000
00000000
00000000
00001000
00000000
00100000
00000000
00001000
00000000
00100000
00000000
00010000
00000000
01000000
00000000
00100000
00000000
10000000
00000000
00100000
00000000
10000000
00000000
01000000
00000000
00100000
00000000
00001000
00000000
00010000
00000000
00001000
00000000
00010000
00000000
00000010
00000000
00000100
00000000
,
00000001
00000000
00000010
00000000
00000001
00000000
00000010
00000000
00000100
00000000
00001000
00000000
00000010
00000000
00010000
00000000
00001000
00000000
00100000
00000000
01000000
00000000
10000000
00000000
00010000
00000000
01000000
00000000
00100000
00000000
01000000
00000000
00001000
00000000
00010000
00000000
00000100
00001000
00000100
00000000
00000010
00000100
00000010
00000000
00000001
00000010
00000001
00000000
,
00001000
00000001
00001000
00000001
00001000
00000010
00001000
00000010
00000100
00000000
00000000
00000000
00000102
00000000
00000000
00000000
00000000
00000000
00000000
00000000
00000000
00000000
00000000
00000000
00000013
00000000
00000000
00000000
00000000
00000000
00001000
00000000
00000000
00000000
00000000
00000000
00010000
00000000
00000000
00000000
00000000
00000000
01000000
00000000
00000000
00000000
00000000
00000000
,
20000000
00000000
30100000
00010000
00001000
00000100
00000001
00000000
,
00000110
00000000
00011000
00000000
00001000
00010000
00100000
10000000
,
00010000
00000000
21000000
00000000
30100000
00010000
00001000
00000100
,
00000002
00000000
00000013
00001000
00010000
01000000
10000000
00000000
,
01100000
00000000
00011000
00000000
00001000
00000100
00000010
00001000
,
00000001
00000000
00000012
00000000
00000103
00001000
00010000
00100000
,
20000000
00000000
31000000
00010000
00001000
00000010
00000001
00000000
,
00000110
00000000
00011000
00000000
00001000
00010000
01000000
10000000
,
00010000
00000000
20100000
00000000
31000000
00010000
00001000
00000010
,
00000002
00000000
00000103
00001000
00010000
00100000
10000000
00000000
,
01100000
00000000
00000000
00000000
00011000
00000000
00000000
00000000
00010000
00001000
00010000
00001000
00010000
00001000
00010000
00001000
,
00010000
00000000
00001000
00000010
00000001
00000100
00001000
00010000
,
00100000
00010000
00001000
00000010
00000001
00000100
00001000
00000000
,
00101000
00000000
11000000
00000000
10000000
00100000
01000000
00010000
,
00100000
00001000
00010000
00100000
10000000
01000000
00010000
00001000
,
00000010
00001000
00010000
00100000
10000000
01000000
00010000
00000000
,
00010010
00000000
00000101
00000000
00000001
00000010
00000100
00001000
,
00000010
00010000
00011000
00000000
00001000
01000000
00000000
01000000
,
00100000
10100000
00110000
00011000
,
00010000
00000100
00000000
00000100
00000010
00000000
00000011
00000000
,
00001010
00000000
00011000
00010000
00100000
10000000
00100000
00010000
,
00011000
00000000
00001000
00000000
00000010
00000000
00000001
00000000
00000010
00000000
00001000
00000000
00010000
00001000
00010000
00000000
,
00001000
01000000
00001000
00000000
01000000
00100000
01000000
00100000
10000000
00000000
00000000
00000000
00000000
00000000
00000000
00000000
;
