#VERSION:0.83;
#TITLE:劣等上等;
#ARTIST:GigaP;
#TITLETRANSLIT:Retto Joutou;
#BANNER:Retto Joutou.png;
#BACKGROUND:Retto Joutou-bg.png;
#JACKET:Retto Joutou-jacket.png;
#MUSIC:Retto Joutou.ogg;
#SAMPLESTART:54;
#SAMPLELENGTH:15;
#BPMS:0=160;
#BGCHANGES:-0.25=Retto Joutou.avi=1=0=0=0=StretchNoLoop====,99999=-nosongbg-=1=0=0=0 // don't automatically add -songbackground-;

//---------------dance-double - Talkion-BDP----------------
#NOTEDATA:;
#CHARTNAME:Talkion-BDP;
#STEPSTYPE:dance-double;
#DESCRIPTION:Talkion-BDP;
#DIFFICULTY:Easy;
#METER:7;
#RADARVALUES:0.309075,0.446022,0.106537,0.286831,0,264,251,13,35,0,0,0,0,0,0.309075,0.446022,0.106537,0.286831,0,264,251,13,35,0,0,0,0,0;
#CREDIT:Talkion;
#NOTES:
00000000
00000000
00000000
00000000
,
00000000
00000000
00000000
00000000
,
00000000
00000000
00000000
00000000
,
00000000
00000000
00000000
00000000
,
00000000
00000000
00000000
00000000
,
10000000
01000000
10000000
01000000
,
00100000
00010000
00100000
00010000
,
01000000
01000000
01000000
00002000
,
00020000
00000000
00033000
00000000
,
00000000
00010000
00000000
00000100
00000000
00010000
00000000
00000100
,
00001000
00000001
00001000
00001001
,
00000000
00000001
00000000
00000100
00000000
00000001
00000000
00000100
,
00000010
00010000
00000010
00010010
,
00000000
00010000
00001000
00100000
,
00010000
10000000
10010000
00000000
,
00020000
01030000
00020000
00130000
,
00020000
01030000
00002000
00013000
,
00000000
00000100
00000010
00000001
,
00001000
00000001
00000100
00000000
,
00000010
00010000
00001000
00100000
,
01000000
10000000
00010000
00000000
,
01000000
01000000
00001000
00000000
,
00010000
00010000
00000100
00000000
,
00000010
00000001
00001000
00000001
,
00000200
00000000
00000000
00000310
,
00020000
00001000
00000000
00031000
,
02000000
00100000
00000000
03100000
,
10000000
00100000
00010000
00001000
,
00000020
00000000
00000000
00000030
,
00000002
00000100
00000000
00000103
,
00000020
00001000
00000000
00001030
,
00010000
01000000
00100000
10000000
,
00010000
00020000
00000000
00030000
,
00100000
00000000
00001000
00000000
,
00000010
00000010
00000001
00000001
,
00002000
00000000
00000000
00003001
,
00000100
00000000
00000100
00000000
00000010
00000100
00000010
00000000
,
00010000
00000000
00010000
00000000
00001000
00010000
00001000
00000000
,
01000000
00000000
01000000
00000000
00100000
01000000
00100000
20000000
,
00000000
00010000
31000000
01000000
,
00100000
00000000
00100000
00000000
00001000
00100000
00001000
00000000
,
00010000
00000000
00010000
00000000
00000100
00010000
00000100
00000000
,
00001000
00000000
00001000
00000000
00000001
00001000
00000001
00000200
,
00000000
00001000
00000310
00000000
,
00020000
00031000
00020000
01030000
,
00020000
00030100
00020000
00031000
,
00020000
00130000
00020000
00030010
,
00010000
00001000
01000000
00200000
,
20000000
00000000
00000000
00000000
,
30300000
00000000
00000000
00000000
,
10000000
00100000
01000000
00010000
,
00002000
00000000
00000000
00000000
,
00003100
00000100
00000100
00001001
,
00000010
00000010
00000010
00001001
,
00000100
00000000
00000100
00000000
00010000
00000000
00001000
02000000
,
00000000
00010000
03100000
00100000
,
10000000
00000000
10000000
00000000
00010000
10000000
00100000
00000000
,
01000000
00000000
01000000
00000000
00001000
00010000
00000100
00000000
,
00000010
00000000
00000010
00000000
00000001
00001000
00000010
00020000
,
00000000
00000010
00031000
00000000
,
00012000
01003000
02001000
03010000
,
10020000
00130000
00102000
00013000
,
00021000
00030010
00010020
00001030
,
00002001
00003100
00010000
00001000
,
01000000
01000000
00100000
00100000
,
10000000
10000000
00010000
00010000
,
00100000
00100000
00001000
00001000
,
00010000
00000010
00000100
00000001
,
00002000
00000000
00000000
00000000
,
00003000
00000000
00000000
00000000
,
00000001
00001000
00000100
00000000
,
00010000
00010000
00001000
00000000
,
00000000
01000000
00000000
00010000
00000000
01000000
00000000
00010000
,
00000000
10000000
00000000
00100000
00000000
10000000
00000000
00100000
,
01000000
00001000
00010000
00000100
,
00001000
00000001
00001000
00000001
00001000
00000000
00000010
00000000
,
00000100
00000000
00000000
00000000
,
00000000
00000000
00000000
00001001
;

//---------------dance-double - Talkion-DDP----------------
#NOTEDATA:;
#CHARTNAME:Talkion-DDP;
#STEPSTYPE:dance-double;
#DESCRIPTION:Talkion-DDP;
#DIFFICULTY:Medium;
#METER:11;
#RADARVALUES:0.446052,0.573457,0.196684,0.336002,0.024586,381,357,24,41,0,0,0,0,0,0.446052,0.573457,0.196684,0.336002,0.024586,381,357,24,41,0,0,0,0,0;
#CREDIT:Talkion;
#NOTES:
00000000
00000000
00000000
00000000
,
00000000
00000000
00000000
00000000
,
00000000
00000000
00000000
00000000
,
00000000
00000000
00000000
00000000
,
00000000
00000000
00000000
00000000
,
10000000
00010000
00100000
00101000
,
00001000
00010000
00000010
00001010
,
00001000
00000001
00001000
00000001
00001000
00000000
00000200
00000000
,
00010300
00001000
01000000
00200000
00000000
00000000
00000000
00000000
,
10300000
00010000
00000000
00100000
00000000
00001000
00000000
00010000
,
00000010
00000100
00000010
00000100
00000010
00000010
00001000
00000000
,
00000001
00001000
00000000
00000100
00000000
00010000
00000000
00001000
,
01000000
00100000
01000000
00100000
01000000
01000000
00010000
00000000
,
10000000
00010000
00100000
00000000
00001000
01000000
00100000
00000000
,
10000000
00010000
00100000
00010000
01000000
00000000
00001000
00000000
,
00010000
00000000
00000000
00000100
00000000
00000000
00000100
00000000
00000010
00000000
00000000
00000100
00000000
00000000
00000100
00000000
,
00010000
00000000
00000000
00000010
00000000
00000000
00000010
00000000
00000200
00000000
00000000
00000000
00000301
00000000
00000000
00000000
,
00001000
00000100
00001000
00000100
00010000
00000000
00001000
00000000
,
01000000
00001000
00010000
00000000
00001000
00000000
01000000
00200000
,
00000000
01300000
00100000
00000000
10000000
00010000
00100000
00000000
,
00002000
00100000
01003000
00001000
,
00010000
00000100
00000020
00000000
00000031
00000000
00001000
00000000
,
00000001
00000100
00000020
00000000
00010030
00000000
00001000
00000000
,
00100000
00010000
00100000
00010000
10000000
00100000
01000000
00001000
,
00020000
00000000
00030200
00000000
00000310
00000001
00001001
00000000
,
00002000
00000100
00000000
00000100
,
00023000
01000000
00000000
01000000
,
10030000
00010000
01000000
00000000
00001000
00010000
00000100
00000020
,
00000000
00000230
00020300
00031000
,
00020000
00100000
00000000
00100000
,
00032000
00000010
00000000
00000010
,
00013000
00001000
00010000
00000000
00000010
00001000
00000010
00000000
,
00010000
00001000
00010000
00001000
00000000
01000000
00000000
00100000
,
10000000
00010000
00001000
00000001
,
00001001
00000000
00001001
00000000
00000001
00000010
00000100
00001000
,
00020000
00000000
00000000
01030000
,
10100000
00000000
00110000
00000000
00001000
00010000
00000100
00000010
,
00000011
00000000
00001010
00000000
00010000
00001000
01000000
00100000
,
10100000
00000000
10000000
00010000
00100000
00010000
01000000
00002000
,
00000000
00013000
00000100
00000010
00000002
00000000
00001003
00000000
,
00000101
00000000
00001100
00000000
00010000
00001000
00100000
01000000
,
11000000
00000000
01010000
00000000
00001000
00010000
00000010
00000100
,
00000001
00001000
00000001
00000000
00000010
00000100
00000010
00002000
,
00000000
00013000
00001000
01000000
00001000
00000000
00100000
00010000
,
00000000
01000000
00001000
01000000
00000000
00001000
00010000
00000100
,
00000000
00010000
00001000
01000000
00000000
00001000
00010000
00000010
,
00000000
00010000
00001000
00100000
00000000
00001000
00010000
00001000
,
00000000
00000010
00000001
00000100
00000020
00000000
00001030
00000000
,
00000001
00000001
00000010
00000010
,
00000100
00000100
00001000
00001000
,
00010000
00010000
00100000
00100000
,
02000000
00000000
00000000
00000000
,
13000000
00100000
01000000
01020000
,
00031000
00000010
00000100
00000102
,
00001003
00000000
00000001
00000000
00001000
00000100
00010000
00002000
,
00000000
01003000
00010000
00100000
02000000
00000000
13000000
00000000
,
10100000
00000000
00110000
00000000
00001000
00010000
00000100
00000010
,
00000011
00000000
00001010
00000000
00010000
00001000
01000000
00100000
,
10000000
00010000
10000000
00000000
01000000
00100000
01000000
00020000
,
00000000
00031000
00010000
00000010
00010000
00000000
00000100
00001000
,
00000002
00000103
00020000
01030000
,
00002000
00003010
00020000
00130000
,
00002000
00023000
00030200
00000310
,
00000002
00000000
00002003
00000000
00003100
00010000
00001000
00000000
,
01000000
00000000
00000000
00000000
10010000
00000000
00000000
00000000
10000000
00000000
00000000
00100000
00000000
00000000
00010000
00000000
,
00001000
00000000
00000000
00000000
00011000
00000000
00000000
00000000
00010000
00000000
00000000
00001000
00000000
00000000
00000010
00000000
,
00000001
00000000
00000000
00000000
00001001
00000000
00000000
00000000
00000001
00000000
00000000
00000100
00000000
00000000
00001000
00000000
,
00010000
00000000
00001000
00010000
02000000
00000000
23000000
00000000
,
30020000
00000000
00000000
00000000
,
00030000
00000000
00000000
00000000
,
10000000
00010000
00100000
00001000
,
00010000
00010000
00001000
00000000
00020000
00000000
00030100
00000000
,
00001000
00000001
00000000
00000100
00000000
00000010
00000000
00001000
,
00000000
00010000
00000000
01000000
00000000
00100000
00000000
10000000
,
00010000
00100000
00010000
00100000
00010000
00100000
00010000
00100000
,
00001000
00010000
00001000
00010000
00000200
00000000
00000010
00000310
,
00000001
00000000
00000000
00000000
,
00000000
00000000
00000000
00001001
;

//---------------dance-double - Talkion-EDP----------------
#NOTEDATA:;
#CHARTNAME:Talkion-EDP;
#STEPSTYPE:dance-double;
#DESCRIPTION:Talkion-EDP;
#DIFFICULTY:Hard;
#METER:13;
#RADARVALUES:0.615809,0.700892,0.704785,0.393368,0.110635,526,440,86,48,0,0,0,0,0,0.615809,0.700892,0.704785,0.393368,0.110635,526,440,86,48,0,0,0,0,0;
#CREDIT:Talkion;
#NOTES:
00000000
00000000
00000000
00000000
,
00000000
00000000
00000000
00000000
,
00000000
00000000
00000000
00000000
,
00000000
00000000
00000000
00000000
,
00000000
00000000
00000000
00000000
,
10000000
01000000
00010000
01000000
00100000
00001000
00011000
00000000
,
00010000
00000010
00000100
00000010
00001000
00000001
00001001
00000000
,
00000001
00000010
00001000
00000010
00000001
00001000
00000100
00000100
,
00020000
02030000
23000000
30200000
00300000
00000000
00000000
00000000
,
00100000
10100000
00000000
11000000
00000000
01010000
00000000
00011000
,
00010000
00001000
00010000
00001000
00000010
00000001
00001001
00000000
,
00000100
00000101
00000000
00000011
00000000
00001010
00000000
00011000
,
00001000
00010000
00001000
00010000
01000000
10000000
10010000
00000000
,
10000000
00100000
00010000
00100000
01000000
00001000
00010000
00000100
,
00000010
00000000
00000100
00000000
00010000
00000000
00000010
00000000
00000100
00000000
00000000
00000000
00000100
00000000
00000010
00000100
,
00000010
00000000
00000000
00010010
00000000
00000000
00010000
00000000
00001000
00000000
00000000
01001000
00000000
00000000
01000000
00000000
,
00100000
00000000
00000000
10010000
00000000
00000000
10000000
00000000
00010000
00100000
00010000
00100000
00001000
00000000
00000000
00000000
,
00010000
00000010
00000100
00000001
00001001
00000000
00000011
00000000
,
00000010
00000100
00010000
00001000
00100000
01000000
01000000
20000000
,
00000000
30010000
01000000
00001000
00000100
00001000
00010000
00000100
,
00000020
00000000
00001000
00000000
00000031
00000010
00000100
00000000
,
00010000
00001000
02000000
00000000
13000000
00000000
01010000
00000000
,
00001000
00010000
00000200
00000000
00000301
00000000
00010100
00010000
,
00001000
00001000
01000000
01000000
00100000
10000000
00100000
01000000
,
00002000
00000000
00023000
00000000
00030100
00000010
00000110
00000000
,
00002001
00000000
00000100
00000000
00000000
00000010
00003010
00001000
,
00020000
00000000
00100000
00000000
00000000
01000000
01030000
00010000
,
00001000
00010000
00001000
00000100
00000010
00000001
00001000
00000020
,
00000000
00000000
00010030
00010000
00002000
00000000
00103000
00000000
,
10020000
00000000
00100000
00000000
00000000
01000000
01030000
00010000
,
00002000
00000000
00000100
00000000
00000000
00000010
00003010
00001000
,
00010000
00001000
00010000
00100000
01000000
10000000
00010000
01000000
,
00001000
00010000
00001000
00020000
00000000
00030100
00000000
00000010
,
00000110
00001000
00011000
00010000
,
01100000
00000000
01100000
00000000
10000000
00100000
00001000
00000100
,
00000020
00000000
00000000
00000000
00000000
00000000
00000000
00000000
00000031
00000000
00001000
00000001
00000100
00000000
00000000
00000000
,
00000101
00000000
00000000
00000000
00010100
00000000
00000000
00000000
01010000
00000000
00010000
01000000
00100000
00000000
10000000
00000000
,
10100000
00000000
00000000
00000000
00101000
00000000
00000000
00000000
00001010
00000000
00001000
00000010
00000100
00000000
00000001
00000000
,
00001001
00000000
00000000
00000000
00010100
00000000
00010000
00000000
00001000
00000000
01000000
00010000
01000000
00000000
00200000
00000000
,
00000000
10300000
00100000
00010000
00001000
00010000
01000000
10000000
,
11000000
00000000
00000000
00000000
01001000
00000000
00000000
00000000
00001100
00000000
00001000
00000100
00000010
00000000
00000001
00000000
,
00000011
00000000
00000000
00000000
00010010
00000000
00000000
00000000
00110000
00000000
00010000
00100000
01000000
00000000
10000000
00000000
,
00010000
00100000
00101000
00000000
00011000
00001000
00000010
00000012
,
00000000
00000000
00000103
00000000
00000001
00000000
00000010
00000000
00000100
00000000
00010000
00001000
00010000
00000000
00001000
00000000
,
01000000
00100000
10000000
10010000
00000000
00100000
00001000
00011000
,
00000000
00000010
00010000
00011000
00000000
00000100
00000010
00001001
,
00000000
00000010
00000100
00001001
00000000
00000100
00010000
00011000
,
00000000
01000000
00001000
00010000
02000000
00000000
13000000
00000000
,
00010000
00000000
00000000
00000000
00010000
00000000
00000000
00000000
01000000
00000000
00000000
01000000
00000000
00000000
01000000
00000000
,
00001000
00010000
00001000
00000100
00000001
00000000
00001000
00000000
,
00000001
00000000
00000000
00000000
00000001
00000000
00000000
00000000
00000010
00000000
00000000
00000010
00000000
00000000
00000010
00000000
,
00000200
00000000
00000000
00000000
00000000
00010300
00001000
01000000
,
01100000
01100000
10010000
00011000
,
00000110
00000110
00001001
00011000
,
01100000
00000000
01100000
10000000
01000000
00100000
00001000
00020000
,
00000000
00030010
00000100
00000001
00000010
00001000
00010000
00000010
,
00010010
00000000
00000000
00000000
00110000
00000000
00000000
00000000
00010010
00000000
00010000
00000010
00001000
00000000
00000100
00000000
,
00010100
00000000
00000000
00000000
01010000
00000000
00000000
00000000
00010100
00000000
00010000
00000100
00001000
00000000
00000001
00000000
,
00000100
00000010
00010010
00000000
00011000
00010000
01000000
21000000
,
00000000
00000000
30100000
00000000
10000000
00000000
01000000
00000000
00200000
00000000
00000000
00000000
00301000
00000000
00100000
00001000
,
00020000
00030000
00010200
00000000
00000320
00000030
00000012
00000000
,
00000203
00000300
00002100
00000000
00023000
00030000
02010000
00000000
,
23000000
00000000
30000000
00000000
10000000
00010000
10000000
00010000
02000000
00000000
03000000
00000000
01002000
00000000
00000000
00000000
,
00023000
00000000
00030100
00000100
00000010
00000001
00001001
00000000
,
00001000
00000000
00000000
00000100
00001000
00000000
00000001
00000000
00001000
00000000
00000000
00000010
00001000
00000000
00001000
00000000
,
00010000
00000000
00000000
00100000
00010000
00000000
10000000
00000000
00010000
00000000
00000000
01000000
00010000
00000000
00010000
00000000
,
00001000
00000000
00000000
00000100
00001000
00000000
00000001
00000000
00001000
00000000
00000000
00000010
00001000
00000000
00001000
00000000
,
00010000
00100000
01000000
10000000
00200000
00000000
00320000
00000000
,
00032000
00000010
00013000
02001000
,
03100000
02100000
03002000
00023000
,
00030200
00000010
00001300
00001002
,
00000103
00000000
00000001
00000100
00000001
00000000
00001000
00000000
00000200
00000000
00000000
00000000
00010300
00000000
00000000
00000000
,
00001000
00011000
00000000
01010000
00000000
11000000
00000000
10100000
,
00000000
00110000
00000000
00011000
00000000
00001010
00000000
00000011
,
00000001
00001000
00000001
00001000
00000100
00010000
00000100
00010000
,
00001000
00001000
01000000
01000000
00020000
10000000
10000000
10030000
,
00010000
00000000
00000000
00000000
,
00000000
00000000
00000000
00011000
;

//---------------dance-double - Talkion-CDP----------------
#NOTEDATA:;
#CHARTNAME:Talkion-CDP;
#STEPSTYPE:dance-double;
#DESCRIPTION:Talkion-CDP;
#DIFFICULTY:Challenge;
#METER:15;
#RADARVALUES:0.709468,0.828327,0.622833,0.491711,0.274538,606,530,76,60,0,0,0,0,0,0.709468,0.828327,0.622833,0.491711,0.274538,606,530,76,60,0,0,0,0,0;
#CREDIT:Talkion;
#NOTES:
00000000
00000000
00000000
00000000
,
00000000
00000000
00000000
00000000
,
00000000
00000000
00000000
00000000
,
00000000
00000000
00000000
00000000
,
00000000
00000000
00000000
00000000
,
10000000
00000000
00010000
00100000
00010000
00000000
01000000
00010000
01000000
00000000
00001000
00000000
00011000
00000000
00000000
00000000
,
00010000
00000000
00000100
00001000
00000100
00000000
00001000
00000010
00001000
00000000
00000001
00000000
00001001
00000000
00000000
00000000
,
00000001
00000000
00000010
00000000
00001000
00000000
00000010
00000000
00000002
00000000
00001003
00000001
00000100
00000000
00000010
00000000
,
00002000
00203000
20300000
30020000
00030000
00000000
00000000
00000000
,
10010000
01000000
10010000
00100000
10010000
01000000
00011000
00000100
,
00010000
00020000
00030100
00000200
00000310
00000001
00001001
00000000
,
00001001
00000010
00001001
00000100
00001001
00000010
00011000
00100000
,
00010000
00020000
00130000
00200000
01300000
10000000
10010000
00000000
,
10000000
00100000
00010000
00001000
00010000
01000000
00100000
00001000
,
00010000
00000000
00000010
00000000
00000100
00000000
00000001
00000000
00001000
00000000
00000000
00000000
00001001
00000000
00000001
00000010
,
00000100
00000000
00010000
00001000
00000000
00000000
01000000
00000000
01100000
00000000
00000000
10010000
00000000
00000000
10000000
00000000
,
11000000
00000000
00000000
00110000
00000000
00000000
00001000
00000000
00010000
00000010
00010000
00000010
00000100
00000000
00000000
00000000
,
00000010
00000100
00000010
00010000
00010100
00000000
00101000
00000000
,
10010000
10000000
00100000
01000000
00001000
00010000
00010000
00000200
,
00000000
00000000
00000301
00000000
00000100
00000000
00001000
00000001
00001000
00000000
00000010
00000000
00010000
00000000
00001000
00010000
,
00001000
01000000
00100000
00100000
10000000
10000000
00010000
00000000
,
10000000
00000000
00100000
00000000
00020000
00000000
00030000
00000000
00010010
00000000
00000000
00000000
00010000
00000000
00000010
00000100
,
00000001
00000100
00002000
00003000
01001000
00000000
01000000
00100000
,
10000000
10000000
00010000
00010000
00100000
00001000
00000010
00000001
,
00001000
00000000
00000001
00000100
00000020
00000000
00010030
00001000
00100000
00010000
10000000
00000000
10010000
00000000
00000000
00000000
,
20000000
00000000
00010000
00000000
00000000
00100000
30100000
00010000
,
00002000
00000000
00000010
00000000
00000000
00013000
00001000
00010000
,
00000010
00000010
00000100
00000001
00001000
00000100
00010000
02000000
,
00000000
00000000
13000000
10000000
00010000
00000000
10010000
00000000
,
10000000
10000000
00020000
00000000
00000000
00031000
00010000
01000000
,
00002000
00000000
00000010
00000000
00000000
00013000
00000000
00010000
,
00000010
00000100
00000001
00000100
00000010
00010000
00001000
00100000
,
01000000
10000000
01000000
20000000
00000000
30010000
00000000
01000000
,
00011000
00000100
00011000
01000000
,
00011000
00000000
00011000
00000000
00001010
00000010
00000001
00000100
,
00002000
00000000
00000000
00000000
00000000
00000000
00000000
00000000
00013000
00000000
00001000
01000000
00100000
00000000
00000000
00000000
,
10100000
00000000
00010000
00100000
01000000
00000000
00010000
01000000
00100000
00000000
00010000
01000000
00001000
00000000
00010000
00000000
,
00011000
00000000
00000010
00001000
00000100
00000000
00001000
00000010
00000100
00000000
00000010
00010000
00000100
00000000
00000010
00000000
,
00000011
00000000
00001000
00000010
00000100
00000000
00001000
00000100
00000010
00000000
00000100
00000010
00010000
00000000
00002000
00000000
,
00000000
00000000
00103000
00000000
01000000
00000000
00100000
00000000
00001000
00000000
00010000
00000100
00001000
00000000
00000000
00000000
,
00000101
00000000
00001000
00000100
00000010
00000000
00001000
00000010
00000100
00000000
00001000
00000010
00010000
00000000
00001000
00000000
,
00011000
00000000
01000000
00010000
10000000
00000000
01000000
10000000
00010000
00000000
00100000
00001000
01000000
00000000
00100000
00000000
,
10100000
00000000
10000000
00000000
10010000
00000000
00000000
00000000
00010000
00000000
00100000
00001000
00010000
00000000
00000020
00000000
,
00000000
00000000
00000130
00000010
00001000
00000000
00000001
00000000
00000010
00000000
00000100
00010000
00001000
00000000
00000000
00000000
,
00011000
00200000
00010000
01300000
01000000
20000000
00100000
30010000
,
00010000
00002000
00010000
00103000
00100000
02000000
00010000
03001000
,
00001000
00000020
00000001
00000130
00000100
00002000
00000010
00003001
,
00000001
00000100
00020000
02030000
03200000
00000000
10300000
00000000
,
00010000
00000000
00000000
00000000
00010000
00000000
00000000
00000000
00100000
00000000
00000000
00100000
00000000
00000000
00100000
00000000
,
00001000
00010000
00001000
00000010
00000001
00000000
00001000
00000000
,
00000001
00000000
00000000
00000000
00000001
00000000
00000000
00000000
00000100
00000000
00000000
00000100
00000000
00000000
00000100
00000000
,
00000020
00000000
00000000
00000000
00000000
00010030
01000000
10000000
,
10010000
00000000
10010000
00000000
00101000
00001000
00010100
00000000
,
00001001
00000000
00001001
00000000
00010100
00010000
00101000
00000000
,
10010000
00000000
01000000
00001000
00010000
00000000
00100000
01000000
00010000
00000000
01000000
00001000
00010000
00000000
00000200
00000000
,
00000000
00000000
00000310
00000000
00000100
00000000
00010000
00000000
00000010
00000000
00000100
00000010
00001000
00000000
00000000
00000000
,
00000011
00000000
00001000
00000010
00000100
00000000
00001000
00000100
00000001
00000000
00001000
00000100
00010000
00000000
00001000
00000000
,
00011000
00000000
00100000
00010000
01000000
00000000
00100000
10000000
01000000
00000000
00100000
00001000
00010000
00000000
01000000
00000000
,
11000000
00000000
10000000
00000000
10010000
00000000
00000000
00000000
00010000
00000000
01000000
00001000
00010000
00000000
00000200
00000000
,
00000000
00000000
00000310
00000100
00001000
00000000
00000001
00000000
00000200
00000000
00000320
00000000
00010030
00000000
00001000
00100000
,
00020000
10030000
10200000
01000000
01300000
00001000
00021000
00000100
,
00030100
00001000
00001002
00000010
00000013
00000100
00020100
00001000
,
00031000
00000000
01000000
00000000
00100000
01000000
00100000
01000000
00010000
00000000
10000000
00000000
12000000
00000000
00100000
00000000
,
03200000
00000000
00000000
00000000
00301000
00000000
00001000
00000000
00010000
00000000
00000010
00001000
00000001
00000000
00000000
00000000
,
00000022
00000000
00000033
00000000
00000001
00000010
00001000
00000000
00010000
00001000
00000000
00010000
00001000
00000000
01000000
00200000
,
20000000
00000000
30300000
00000000
10000000
00100000
00010000
00000000
00001000
00010000
00000000
00001000
00010000
00000000
00000100
00000020
,
00000002
00000000
00000033
00000000
00000001
00001000
00000100
00000000
00020000
00001000
00000000
00031000
00010000
00000000
01000000
00000000
,
11000000
10000000
10010000
00010000
02010000
00000000
03002000
00000000
,
00010000
00000100
00013000
00010020
,
00000031
00000021
00020030
02030000
,
23000000
00010000
30100000
10200000
,
00310000
00000000
00001000
00010000
00000010
00000000
00000010
00000000
00000200
00000000
00000000
00000000
00000301
00000000
00000000
00000000
,
00000101
00000010
00001100
00010000
00101000
00010000
01100000
00010000
,
10100000
01000000
00110000
00001000
00010100
00001000
00000110
00001000
,
00000001
00000001
00000100
00000100
00000010
00000010
00010000
00010000
,
00101000
00101000
00101000
00101000
00201000
01300000
10000000
10000000
,
00100000
00000000
00000000
00000000
,
00000000
00000000
00000000
10010000
;

//---------------dance-single - Marten-CSP----------------
#NOTEDATA:;
#CHARTNAME:;
#STEPSTYPE:dance-single;
#DESCRIPTION:Marten-CSP;
#DIFFICULTY:Challenge;
#METER:15;
#RADARVALUES:0.741078,0.828327,0.704785,0.393368,0.299124,633,547,86,48,0,0,0,0,0,0.741078,0.828327,0.704785,0.393368,0.299124,633,547,86,48,0,0,0,0,0;
#CREDIT:Marten;
#NOTES:
0000
0000
0000
0000
,
0000
0000
0000
0000
,
0000
0000
0000
0000
,
0000
0000
0000
0000
,
0000
0000
0000
0000
,
0001
0000
1000
0100
1000
0000
0010
0100
0010
0000
1000
0001
0200
0000
0000
0000
,
0301
0000
0010
0100
0010
0000
0001
1000
0001
0000
0100
0010
2000
0000
0000
0000
,
3001
0001
1000
1000
0010
0100
0001
0010
,
1000
0001
0100
1000
0002
0000
0003
0000
,
1001
0100
1001
0010
1001
0100
1001
0010
,
1000
1000
0010
0010
0100
0001
0011
0000
,
1001
0100
1001
0010
1001
0100
1001
0010
,
0001
0001
0010
0010
0100
1000
1010
0000
,
0101
0000
0001
0100
0001
0000
0010
0000
1000
0000
0010
0000
0100
0000
1000
0000
,
0010
0000
0100
0000
1000
0000
0100
0000
0010
0000
1000
0000
0001
0000
0010
0001
,
0010
0000
0001
0100
0000
0000
0010
0000
1010
0000
0000
1001
0000
0000
0001
0000
,
2000
0000
0000
3200
0000
0000
0310
0000
0001
0100
0001
0100
0020
0000
0000
0000
,
1030
0000
0001
0100
0010
0000
1000
0100
0010
0000
0001
0000
0101
0000
0000
0000
,
0001
0010
1000
0010
0001
1000
0001
1002
,
0000
0000
1003
0100
0010
0000
0001
0100
0010
0000
1000
0000
0100
0000
0010
0000
,
0020
0001
0032
0000
0103
0010
0001
0010
,
1000
0000
0100
1000
0001
0000
0100
0000
0101
0000
0000
0000
0020
0000
1030
0001
,
0100
0000
0100
0001
1000
0000
0100
0000
1100
0000
0000
0000
0020
0000
0031
0000
,
1000
1000
0010
0010
0100
0001
0010
0100
,
0110
0010
0001
0100
1000
0100
0010
1000
,
1002
0000
0013
0100
0000
1000
0010
0100
,
0110
0100
0001
0100
0000
0001
0010
0100
,
0110
0010
0001
0001
1000
1000
0010
0200
,
0000
0000
0300
0000
0001
1000
0001
1000
0001
0000
0000
0000
1001
0000
0001
0000
,
1000
0000
0100
0000
0020
0000
0000
0000
0030
0000
0001
0100
0001
0000
1000
0000
,
0010
0100
0200
0000
0300
0001
1000
0100
,
1100
0100
1000
1000
0001
0100
1000
0100
,
0001
0001
0010
0010
0000
1000
0010
0001
,
1001
0000
0100
0010
1001
0000
0010
0100
,
1001
0000
0110
0000
1001
0100
0110
0010
,
2001
0000
0000
0000
0000
0000
0000
0000
3001
0000
1000
0001
0100
0000
0000
0000
,
1001
0000
0001
0100
0010
0000
0010
1000
0001
0000
1000
0100
1000
0000
0001
0000
,
1001
0000
1000
0100
0010
0000
0010
0001
1000
0000
0001
0100
0001
0000
0010
0000
,
0110
0000
0100
1000
0001
0000
0001
0100
0010
0000
1000
0000
0001
0000
0021
0000
,
0000
0000
1030
0010
0001
0000
1000
0000
0010
0100
0000
0100
0010
0000
1000
0000
,
1100
0000
1000
0010
0100
0000
0100
0001
1000
0000
0001
0010
0001
0000
0100
0000
,
0101
0000
0001
0100
0020
0000
0100
0000
1030
0000
0001
0000
1000
0000
0100
0000
,
0110
0000
0010
0001
0100
0000
0010
1000
0100
0000
1000
0010
0100
0000
0210
0000
,
0000
0000
0301
0000
0010
0000
0110
0000
0011
0000
0001
0100
0020
0000
1030
0000
,
1001
0002
0010
0103
0001
2000
0010
3100
,
1000
0020
0100
1030
0100
0020
0100
0031
,
0100
0000
0010
1000
0001
0000
1001
0000
0001
0000
0010
0100
1000
0000
1001
0000
,
0000
1100
0100
0010
0001
0100
0101
0000
,
0010
0000
0000
0000
0010
0000
0000
0000
0010
0000
0000
0010
0000
0000
0010
0000
,
1000
0100
0010
0001
1000
0000
0001
0000
,
0010
0000
0000
0000
0010
0000
0000
0000
0010
0000
0000
0010
0000
0000
0010
0000
,
2001
0000
0000
0000
0000
3001
0010
0100
,
1100
0000
0101
0000
0011
0001
1001
0000
,
0101
0000
1100
0000
1010
1000
1001
0000
,
0011
0000
0001
1000
0010
0000
0010
0100
0001
0000
1000
0100
0010
0000
0210
0000
,
0000
0000
1300
0000
0010
0000
0100
0000
0001
0010
0000
0010
0001
0000
1000
0000
,
1100
0000
0100
1000
0001
0000
0001
0100
0010
0000
0100
0001
1000
0000
0100
0000
,
0110
0000
0010
0001
2000
0000
0010
0000
3001
0000
0100
0000
0001
0000
0010
0000
,
0110
0100
1100
0000
1000
0010
0001
0020
,
0000
0030
0100
0001
1000
0000
0100
0000
0220
0000
0330
0000
0010
0000
0010
0001
,
2000
0000
3010
0100
0201
0000
0310
0100
,
0120
0000
1030
0001
1002
0000
0103
0010
,
1020
0000
0000
0000
1030
0100
0010
0001
2000
0000
0000
0000
3001
0000
0100
0000
,
0002
0000
0000
0000
2003
0000
0000
0000
0000
0000
3010
1000
0100
0000
0000
0000
,
1100
0000
0100
1000
0001
0000
0100
0001
0010
0000
0001
1000
0000
0001
1000
0000
,
0010
0000
0100
0000
0001
0010
0001
0010
0100
0000
1000
0001
0100
0000
0001
0000
,
0101
0000
0100
0001
1000
0000
0100
0010
0001
0000
1000
0010
0000
1000
0010
0000
,
0200
0001
0001
0301
2000
0000
3002
0000
,
0023
0100
0031
2001
,
3100
1020
0001
1030
,
0210
1000
0310
0102
,
0013
0000
0001
1000
0000
0000
0100
0000
2000
0000
0000
0000
3020
0000
0030
0000
,
0101
0100
1100
1000
1010
0010
0011
0001
,
0101
0001
0011
0010
1010
1000
1100
0100
,
0101
0001
1000
1000
0010
0010
0100
0100
,
0110
0110
0110
0110
0110
0100
0001
1000
,
0100
0000
0000
0000
,
0000
0000
0000
1001
;

//---------------dance-single - Marten-ESP----------------
#NOTEDATA:;
#CHARTNAME:Marten-ESP;
#STEPSTYPE:dance-single;
#DESCRIPTION:Marten-ESP;
#DIFFICULTY:Hard;
#METER:13;
#RADARVALUES:0.636882,0.669034,0.663809,0.311417,0.131123,544,463,81,38,0,0,0,0,0,0.636882,0.669034,0.663809,0.311417,0.131123,544,463,81,38,0,0,0,0,0;
#CREDIT:Marten;
#NOTES:
// measure 0
0000
0000
0000
0000
,  // measure 1
0000
0000
0000
0000
,  // measure 2
0000
0000
0000
0000
,  // measure 3
0000
0000
0000
0000
,  // measure 4
0000
0000
0000
0000
,  // measure 5
1100
0000
0100
0000
1000
0000
0001
0100
0001
0000
1000
0000
0010
0000
0000
0000
,  // measure 6
0101
0000
0100
0000
0001
0000
1000
0100
1000
0000
0001
0000
0010
0000
0000
0000
,  // measure 7
0001
0100
1000
0100
0001
1000
0020
0000
,  // measure 8
0001
1000
0130
0000
,  // measure 9
0001
0011
0000
0101
0000
1100
0000
1010
,  // measure 10
0010
1000
0100
0010
0001
0001
1000
1000
,  // measure 11
0010
1010
0000
1100
0000
0101
0000
0011
,  // measure 12
0010
0001
0100
0010
1000
1000
0001
0001
,  // measure 13
1000
0100
0010
1000
0010
0001
0100
0010
,  // measure 14
0001
0000
0010
0000
0100
0000
0001
0000
1000
0000
0000
0000
0001
0000
0100
0001
,  // measure 15
0100
0000
0000
0101
0000
0000
0001
0000
1000
0000
0000
1100
0000
0000
1000
0000
,  // measure 16
0010
0000
0000
0110
0000
0000
0100
0000
0001
1000
0001
1000
0200
0000
0000
0000
,  // measure 17
1300
0100
0010
0100
0001
0100
1000
0001
,  // measure 18
0100
0001
0010
1000
0010
0001
0100
0020
,  // measure 19
0000
0000
1030
0001
1000
0000
0001
0100
0001
0000
0010
0000
1000
0000
0010
0000
,  // measure 20
0001
0001
1000
1000
0010
0000
0100
0001
,  // measure 21
1000
0000
0001
0000
0010
0001
0010
0000
0100
0000
0000
0000
0110
0000
0010
0000
,  // measure 22
0001
0000
1000
0000
0010
1000
0010
0000
0100
0000
0000
0000
0110
0000
0010
0000
,  // measure 23
1000
0001
0010
1000
0010
0100
0001
0100
,  // measure 24
1100
0000
1000
0001
0100
0001
0010
0001
,  // measure 25
2001
0000
0010
0010
0000
0000
3001
1000
,  // measure 26
1002
1000
0000
0100
0000
0000
0013
0001
,  // measure 27
0021
0000
0100
0000
0001
0001
0000
0130
,  // measure 28
1200
1000
1000
0000
0310
0000
0110
0010
,  // measure 29
0011
0001
2000
0000
3000
0010
1000
0010
,  // measure 30
2010
0000
3010
0100
0000
0100
0001
1000
,  // measure 31
0001
0010
1000
0001
0100
1000
0001
1000
,  // measure 32
0010
0100
0010
1000
0000
0001
0000
1000
,  // measure 33
1001
0000
0010
0100
1001
0000
0100
0010
,  // measure 34
1001
0000
0110
0000
1001
0001
1001
1000
,  // measure 35
1002
0000
0000
0000
0000
0000
0000
0000
1003
0000
0001
1000
0100
0000
0000
0000
,  // measure 36
1100
0000
0000
0000
1000
0000
0001
0000
0100
0000
0001
0010
0001
0000
0100
0000
,  // measure 37
0101
0000
0000
0000
0001
0000
1000
0000
0100
0000
1000
0010
1000
0000
0100
0000
,  // measure 38
0110
0000
0010
0001
0100
0010
1000
0002
,  // measure 39
0000
0000
1003
0000
0100
0000
0010
0000
0100
0000
1000
0001
0010
0000
0000
0000
,  // measure 40
0011
0000
0000
0000
0010
0000
0001
0000
0100
0000
0010
0100
0001
0000
1000
0000
,  // measure 41
1010
0000
0000
0000
0210
0000
0000
0000
0301
0000
1000
0100
1000
0000
0001
0000
,  // measure 42
1000
0010
0100
0000
0001
0010
1000
0020
,  // measure 43
0000
0031
1000
0001
1001
0000
1010
0010
,  // measure 44
0100
0002
0010
0013
0100
2000
0010
3010
,  // measure 45
0100
0002
1000
1003
0100
2000
0001
3001
,  // measure 46
1000
0020
0100
0130
0001
0020
0100
0130
,  // measure 47
0000
0100
1000
0001
0101
0100
0110
0010
,  // measure 48
1000
0000
0000
0000
1000
0000
0000
0000
1000
0000
0000
1000
0000
0000
1000
0000
,  // measure 49
0100
1000
0001
0010
0100
0000
0010
0000
,  // measure 50
0001
0000
0000
0000
0001
0000
0000
0000
0001
0000
0000
0001
0000
0000
0001
0000
,  // measure 51
1002
0000
0000
0000
0000
1003
0010
0100
,  // measure 52
0101
0000
0011
0000
1010
1000
1001
0000
,  // measure 53
1100
0000
1010
0000
0011
0001
1001
0000
,  // measure 54
0110
0000
0000
0000
0010
0000
1000
0000
0100
0000
1000
0001
0100
0000
0020
0000
,  // measure 55
0000
1030
0010
0100
0001
0010
0110
0000
,  // measure 56
0011
0000
0000
0000
0001
0000
1000
0000
0100
0000
1000
0010
0100
0000
0010
0000
,  // measure 57
1000
0000
0000
0000
1002
0000
0000
0000
0013
0000
0001
1000
0001
0000
0100
0000
,  // measure 58
0010
1000
0100
0000
1000
0010
0001
0020
,  // measure 59
0000
0000
1030
0000
0001
0000
0010
0000
0110
0000
0000
0000
0010
0000
0001
0100
,  // measure 60
0002
1003
1200
0310
,  // measure 61
0012
0103
0120
1030
,  // measure 62
2001
0000
0000
0000
3100
0010
0100
0010
0200
0000
0000
0000
1300
0000
0000
0000
,  // measure 63
0020
0000
0000
0000
0230
0000
0000
0000
0000
0000
0310
1000
0001
0000
0000
0000
,  // measure 64
0011
0000
0000
0000
1001
0000
0000
0000
1100
0000
0000
1000
0010
0000
0100
0000
,  // measure 65
0001
0000
0010
0000
1000
0000
0010
0001
0010
0000
0100
1000
0001
0000
1000
0000
,  // measure 66
1010
0000
0000
0000
1001
0000
0000
0000
0101
0000
0000
0001
0010
0000
0100
0000
,  // measure 67
1000
0010
0001
0010
1010
0000
1001
0000
,  // measure 68
0120
1000
0130
0102
,  // measure 69
0013
2100
0001
3100
,  // measure 70
1020
0100
1030
0201
,  // measure 71
0310
0000
1000
0001
0000
0000
0010
0000
0021
0000
0000
0000
0230
0000
0300
0000
,  // measure 72
1001
1100
0101
1010
,  // measure 73
0011
0110
1001
0110
,  // measure 74
0001
0001
1000
1000
0010
0010
0100
0100
,  // measure 75
0010
0010
0010
0010
0010
1000
0001
0010
,  // measure 76
0100
0000
0000
0000
,  // measure 77
0000
0000
0000
1001
;

//---------------dance-single - Marten-DSP----------------
#NOTEDATA:;
#CHARTNAME:Marten-DSP;
#STEPSTYPE:dance-single;
#DESCRIPTION:Marten-DSP;
#DIFFICULTY:Medium;
#METER:11;
#RADARVALUES:0.549077,0.573457,0.483515,0.368783,0.020488,469,410,59,45,0,0,0,0,0,0.549077,0.573457,0.483515,0.368783,0.020488,469,410,59,45,0,0,0,0,0;
#CREDIT:Marten;
#NOTES:
// measure 0
0000
0000
0000
0000
,  // measure 1
0000
0000
0000
0000
,  // measure 2
0000
0000
0000
0000
,  // measure 3
0000
0000
0000
0000
,  // measure 4
0000
0000
0000
0000
,  // measure 5
0001
0100
0010
0100
0001
0010
0100
0000
,  // measure 6
1000
0100
0010
0100
1000
0010
0100
0000
,  // measure 7
0001
0100
0010
1000
0001
0000
0020
0000
,  // measure 8
1000
0001
0130
0000
,  // measure 9
0001
0101
0000
1100
0000
0101
0000
1100
,  // measure 10
1000
0010
0100
0001
0010
0100
1000
0000
,  // measure 11
1000
1010
0000
0011
0000
1010
0000
0011
,  // measure 12
0001
0010
0100
1000
0010
0100
0001
0000
,  // measure 13
1000
0100
1000
0100
0010
0100
0010
0100
,  // measure 14
1000
0010
0100
0001
0100
0000
0001
1000
,  // measure 15
0001
0000
0000
0011
0000
0000
0010
0000
0100
0000
0000
1100
0000
0000
1000
0000
,  // measure 16
0001
0000
0000
1001
0000
0000
1000
0000
0010
0000
0100
0000
0210
0000
0000
0000
,  // measure 17
0301
0010
0100
0010
0002
0000
2003
0000
,  // measure 18
3010
1000
0100
1000
0001
0100
0001
0020
,  // measure 19
0000
0130
1000
0100
0010
0001
1000
0010
,  // measure 20
0200
0000
0320
0000
0030
1000
0001
1000
,  // measure 21
0100
1000
0020
0000
0130
0000
0100
0001
,  // measure 22
0010
0001
0020
0000
0130
0000
0100
1000
,  // measure 23
0001
0010
0010
0100
0010
0010
0100
1000
,  // measure 24
1001
0000
0001
0100
0010
1000
0001
0000
,  // measure 25
0021
0000
0000
0000
0000
0130
1000
0000
,  // measure 26
1020
0000
0000
0000
0000
0130
0001
0000
,  // measure 27
1000
0100
1000
0000
0001
0100
0001
0020
,  // measure 28
0000
0032
2003
3001
,  // measure 29
0100
0001
0010
0000
0000
0100
1000
0001
,  // measure 30
1000
0000
0010
0000
0000
0100
0001
0100
,  // measure 31
0010
1000
0001
0010
0100
1000
0001
0100
,  // measure 32
0001
0010
0100
0010
0000
0100
0000
1000
,  // measure 33
1001
0010
1001
0100
,  // measure 34
1001
0110
1001
0110
,  // measure 35
2001
0000
0000
3100
,  // measure 36
1100
0000
0101
0000
0001
1000
0010
1000
,  // measure 37
0001
0000
0011
0000
0001
0010
1000
0010
,  // measure 38
0001
0010
0001
0100
0010
1000
0100
2000
,  // measure 39
0000
3010
0100
0001
0010
0001
0100
0000
,  // measure 40
0101
0000
1100
0000
1000
0001
0010
0001
,  // measure 41
1000
0000
1020
0000
1030
0010
0001
0010
,  // measure 42
1000
0010
1000
0000
0001
0010
0100
0020
,  // measure 43
0000
0031
1000
0100
1000
0001
0100
0200
,  // measure 44
0000
0301
1000
2000
0000
3100
0010
0020
,  // measure 45
0000
0031
1000
2000
0000
3010
0100
0200
,  // measure 46
0000
0301
0010
0020
0000
0130
1000
2000
,  // measure 47
0000
3001
0100
0001
1000
0010
0100
0000
,  // measure 48
0001
0000
0000
0000
0001
0000
0000
0000
0001
0000
0000
0001
0000
0000
0001
0000
,  // measure 49
1000
0001
1000
0000
0010
0000
0010
0000
,  // measure 50
1000
0000
0000
0000
1000
0000
0000
0000
1000
0000
0000
1000
0000
0000
1000
0000
,  // measure 51
0002
0000
0000
0000
0000
1003
0100
0010
,  // measure 52
0011
0000
0101
0000
1001
0000
0001
1000
,  // measure 53
1010
0000
1100
0000
1001
0000
1000
0001
,  // measure 54
1001
0000
0001
0100
0010
0100
0001
2000
,  // measure 55
0000
3100
1000
0001
0010
0001
0100
0000
,  // measure 56
0101
0000
1100
0000
1000
0010
0100
0010
,  // measure 57
1000
0000
1020
0000
0130
0001
1000
0001
,  // measure 58
0010
1000
0010
0000
0001
1000
0010
0200
,  // measure 59
0000
0301
0100
0010
1000
0100
0010
0001
,  // measure 60
0021
0000
0130
1000
2001
0000
3010
0100
,  // measure 61
0102
0000
0013
0100
2100
0000
3010
0100
,  // measure 62
0120
0000
1030
0001
2001
0000
3100
0010
,  // measure 63
0002
0000
0000
1003
,  // measure 64
1010
0000
0010
1000
0001
0010
0100
0010
,  // measure 65
0001
0100
0001
0000
1000
0100
0001
0100
,  // measure 66
1000
0000
1001
0000
0001
0100
0010
0100
,  // measure 67
0001
0010
0100
0100
2000
0000
3002
0000
,  // measure 68
2003
0010
3100
1002
,  // measure 69
0103
0210
0001
0310
,  // measure 70
1020
0100
1030
2001
,  // measure 71
3100
0000
0010
0001
2000
0000
3200
0300
,  // measure 72
1100
1001
0101
1001
,  // measure 73
1010
1001
0011
1001
,  // measure 74
0001
0100
1000
0100
0001
0100
1000
0100
,  // measure 75
0001
0001
0001
0001
1000
1000
1000
1000
,  // measure 76
0001
0000
0000
0000
,  // measure 77
0000
0000
0000
1001
;

//---------------dance-single - Marten-BSP----------------
#NOTEDATA:;
#CHARTNAME:Marten-BSP;
#STEPSTYPE:dance-single;
#DESCRIPTION:Marten-BSP;
#DIFFICULTY:Easy;
#METER:7;
#RADARVALUES:0.350051,0.541599,0.385173,0.311417,0,299,252,47,38,0,0,0,0,0,0.350051,0.541599,0.385173,0.311417,0,299,252,47,38,0,0,0,0,0;
#CREDIT:Marten;
#NOTES:
0000
0000
0000
0000
,
0000
0000
0000
0000
,
0000
0000
0000
0000
,
0000
0000
0000
0000
,
0000
0000
0000
0000
,
1001
0001
0100
0010
,
1001
1000
0100
0010
,
0001
0100
1000
0200
,
0000
0000
0300
0000
,
0000
0001
0000
0001
0000
1000
0000
1000
,
0001
0010
0100
1000
,
0000
1000
0000
1000
0000
0001
0000
0001
,
1000
0010
0100
0001
,
0010
0010
0100
0100
,
1000
0001
1000
0000
,
0010
0010
0100
0100
,
0010
0100
0010
1001
,
0002
0010
0010
0013
,
0001
0100
0010
2000
,
3001
2000
0010
3010
,
0100
0010
1001
0000
,
0001
0010
1100
0000
,
1000
0010
0101
0000
,
0001
0010
1000
0010
,
0001
1000
1001
0000
,
0002
0100
0000
0103
,
2000
0100
0000
3100
,
0002
0010
0000
0013
,
2000
0010
0000
3010
,
0020
0100
0000
0130
,
0200
0010
0000
0310
,
0100
0001
1000
0100
,
0010
0010
0000
0001
,
1001
0000
1001
0000
,
1001
1001
0110
0110
,
1002
0000
0000
0103
,
0001
0001
0001
0100
,
1000
1000
1000
0100
,
0010
1000
0100
0010
,
0002
0010
1000
0103
,
1000
1000
1000
0100
,
0001
0001
0001
0100
,
0010
0001
0100
0010
,
2000
0010
0001
3100
,
1000
1100
0001
0101
,
1000
1010
0001
0011
,
0010
0110
0100
0110
,
0001
1000
1001
0110
,
0020
0100
0100
0130
,
0001
1000
0001
0001
,
0020
0100
0100
0130
,
0110
0000
0000
0001
,
0101
1100
0101
0000
,
1010
0011
1010
0000
,
1001
0001
0010
0100
,
2000
0010
0001
3100
,
1000
1000
1000
0010
,
0001
0001
0001
0010
,
0100
0001
1000
0001
,
0020
0001
0130
1000
,
2002
3003
0202
0303
,
2020
3030
2200
3300
,
0022
0033
0220
0330
,
0002
0000
0000
1003
,
0001
0010
0100
0001
,
0100
1000
0010
0100
,
1000
0100
0010
1000
,
0001
0020
0100
0130
,
0020
0031
0000
0201
,
0000
0320
1000
1030
,
2000
0100
3100
0210
,
0000
0010
0310
0000
0002
0000
2003
3000
,
0010
0010
1000
1000
,
0001
0001
0100
0100
,
0101
0101
1100
1100
,
1001
1001
0110
0110
,
0010
0000
0000
0000
,
0000
0000
0000
1001
;

//---------------dance-single - Marten-bSP----------------
#NOTEDATA:;
#CHARTNAME:Marten-bSP;
#STEPSTYPE:dance-single;
#DESCRIPTION:Marten-bSP;
#DIFFICULTY:Beginner;
#METER:4;
#RADARVALUES:0.192001,0.318587,0.131123,0.131123,0,164,148,16,16,0,0,0,0,0,0.192001,0.318587,0.131123,0.131123,0,164,148,16,16,0,0,0,0,0;
#CREDIT:Marten;
#NOTES:
0000
0000
0000
0000
,
0000
0000
0000
0000
,
0000
0000
0000
0000
,
0000
0000
0000
0000
,
0000
0000
0000
0000
,
0001
0001
0001
0000
,
1000
1000
1000
0000
,
0010
0010
0010
0020
,
0000
0000
0030
0000
,
0000
1000
0000
1000
,
1000
0000
1001
0000
,
0000
0001
0000
0001
,
0001
0000
1001
0000
,
0001
0000
1000
0000
,
0010
0010
0010
0000
,
0100
0000
0010
0000
,
1000
0000
1001
0000
,
0001
0000
0010
0000
,
0100
0000
1000
1000
,
0000
1000
0000
0001
,
0001
0000
1000
0000
,
0010
0010
0010
0000
,
0010
0010
0010
0000
,
1000
0000
0001
0000
,
0010
0000
0100
0100
,
0100
0000
0000
0000
,
1000
0000
0000
0000
,
0001
0000
0000
0000
,
1000
0000
0000
0000
,
0020
0000
0030
0000
,
0100
0000
0000
0000
,
0001
0000
0001
0000
,
1000
0000
1000
0000
,
1001
0000
1001
0000
,
1001
0000
0110
0000
,
1001
0000
0000
0000
,
0001
0001
0001
0000
,
1000
1000
1000
0000
,
0001
0000
1000
0000
,
0010
0000
0010
0000
,
0100
0100
0100
0000
,
0010
0010
0010
0000
,
1000
0000
0001
0000
,
0020
0000
0030
0000
,
0100
0000
0100
0000
,
0010
0000
0010
0000
,
0001
0000
0001
0000
,
1000
0000
1000
0000
,
0020
0000
0000
0030
,
0200
0000
0000
0300
,
0002
0000
0000
0003
,
2000
0000
0000
3000
,
0001
0001
0001
0000
,
1000
1000
1000
0000
,
0001
0000
0010
0000
,
0100
0000
1000
0000
,
0010
0010
0010
0000
,
0100
0100
0100
0000
,
0001
0000
1000
0000
,
0200
0000
0300
0000
,
1001
0000
1001
0000
,
0110
0000
0110
0000
,
1001
0000
0110
0000
,
2002
0000
3003
0000
,
0001
0000
0001
0000
,
1000
1000
1000
0000
,
0010
0000
0100
0000
,
0001
0001
0001
0001
,
0002
0000
0000
0003
,
0000
2000
0000
3000
,
0020
0000
0030
0200
,
0300
0200
0300
0010
,
0010
0000
1000
0000
,
0001
0000
0010
0000
,
0100
0100
0100
0100
,
0100
0100
0200
0000
,
0300
0000
0000
0000
,
0000
0000
0000
1001
;
