#TITLE:Rave In The Fire;
#ARTIST:m1dy feat. DJ DONNA SUMMER;
#BANNER:Rave In The Fire.png;
#BACKGROUND:Rave In The Fire-bg.png;
#MUSIC:Rave In The Fire.ogg;
#OFFSET:-6.6687;
#SAMPLESTART:34.669;
#SAMPLELENGTH:15;
#BPMS:0=180;

//---------------dance-single - Nitrospan-bSP----------------
#NOTES:
     dance-single:
     Nitrospan:
     Beginner:
     4:
     :
0000
0000
0000
0000
,
1000
0000
0001
0000
,
1000
0000
0001
0000
,
0100
0000
0010
0000
,
0100
0000
0000
0000
,
0010
0000
0100
0000
,
0010
0010
0010
0000
,
1000
0000
0001
0000
,
1000
1000
1000
0000
,
0001
0000
0010
0000
,
0100
0100
0100
0000
,
1000
0000
0010
0000
,
0100
0100
0110
0000
,
0010
0000
0100
0000
,
0001
0001
1000
0000
,
0100
0000
0010
0000
,
0001
0001
1000
0000
,
0010
0000
0100
0000
,
0001
1000
0001
0000
,
0010
0000
0100
0000
,
1001
0000
0000
0000
,
1000
1000
1000
0000
,
0010
1000
0010
0000
,
0100
0100
0100
0000
,
0001
0100
0001
0000
,
0010
0010
0010
0000
,
0001
1000
0001
0000
,
0100
0100
0100
0000
,
0110
0000
1001
0000
,
0010
0000
0000
0000
,
1000
0000
0000
0000
,
0001
0000
0000
0000
,
0100
0000
0000
0000
,
0110
0000
0100
0000
,
1001
0000
0000
0000
,
1001
0000
0100
0000
,
0110
0000
0000
0000
,
0110
0000
0100
0000
,
1001
0000
0000
0000
,
1001
0000
0010
0000
,
0110
0000
0000
0000
,
0001
0000
0000
0000
,
0010
0000
0000
0000
,
0100
0000
0000
0000
,
1000
0000
0000
0000
,
0010
0000
0000
0000
,
0100
0000
0000
0000
,
0001
0001
1000
1000
,
2002
0000
3003
0000
,
1000
0000
0010
0000
,
0100
0100
0100
0000
,
0001
0000
1000
0000
,
0010
0010
0010
0000
,
0100
0000
0010
0000
,
1000
1000
1000
0000
,
0010
0000
0100
0000
,
0001
0001
1001
0000
,
0001
0000
0010
0000
,
0001
0010
0001
0000
,
1000
0000
0100
0000
,
1000
0100
1000
0000
,
0010
0000
0100
0000
,
0010
0100
0010
0000
,
1000
0000
0001
0000
,
2002
0000
0000
3003
;

//---------------dance-single - Nitrospan-BSP----------------
#NOTES:
     dance-single:
     Nitrospan:
     Easy:
     8:
     :
0000
0000
0000
0000
,
1000
1000
0001
0001
,
0100
0010
1000
0001
,
0010
0010
0100
0100
,
1000
0001
1001
0000
,
1000
0010
0100
0010
,
1000
0010
0100
0001
,
0010
0001
0100
0001
,
0010
0100
1000
0001
,
0100
0010
1000
0010
,
0100
0001
1000
0100
,
0010
0001
0100
0001
,
0010
0100
1001
0000
,
0010
1000
0001
0100
,
0010
0100
0001
1000
,
0001
0010
0100
1000
,
0010
0100
1001
0000
,
0010
0100
0010
1000
,
0001
1000
0100
0010
,
0001
1000
0010
0100
,
1001
0000
0000
0000
,
1000
0000
0001
0000
1000
0100
0001
0000
,
0101
1000
1100
0000
,
0001
0000
0100
0000
1000
0100
0001
0000
,
0101
1000
1010
0100
,
0001
0000
0010
0000
1000
0010
0001
0000
,
0011
0100
1100
0000
,
0001
0000
0100
0000
0010
1000
0001
0000
,
1001
1001
1001
1001
,
1000
0000
0000
1100
0000
0000
0001
0000
,
0010
0000
0000
0011
0000
0000
0100
0000
,
0010
0000
0000
0110
0000
0000
1000
0000
,
0001
0010
0100
1000
,
1100
0001
0101
1000
,
1100
0010
0000
0100
,
0101
0010
1010
0100
,
1100
0010
0000
0001
,
0011
0100
0110
0010
,
1010
0001
0000
0100
,
1010
0100
0011
0100
,
1001
0010
0000
0100
,
0002
0000
0000
0000
,
0023
0000
0000
0000
,
0230
0000
0000
0000
,
2300
0000
0000
0000
,
3020
0000
0000
0000
,
0230
0000
0000
0000
,
0301
0011
1000
1100
,
2002
0000
0003
3000
,
0001
0100
0010
1000
,
0010
0100
0001
0000
,
1000
0100
0010
0001
,
0010
0100
1000
0000
,
0010
0100
0001
1000
,
0100
0010
0001
0000
,
0100
0010
1000
0001
,
0100
0100
1001
0000
,
1000
0000
0100
0000
0001
0100
1000
0000
,
1100
0010
0011
0000
,
0001
0000
0100
0000
1000
0100
0001
0000
,
1010
0100
0101
0000
,
0010
0000
0100
0000
1000
0010
0100
0000
,
0101
0010
1100
0000
,
0010
0001
0100
0000
0010
1000
0100
0000
,
0110
0110
1001
1001
;

//---------------dance-single - Nitrospan-DSP----------------
#NOTES:
     dance-single:
     Nitrospan:
     Medium:
     13:
     :
0000
0000
0000
0000
,
0010
0000
0000
0010
0000
0000
0010
0000
0000
1000
0001
0000
1000
0000
0001
0000
,
0010
0100
0000
0000
1000
0000
0001
0000
0100
0000
0000
0010
0000
0000
0100
0000
,
0001
0000
0000
0001
0000
0000
0001
0000
0000
0010
0100
0000
0010
0000
0100
0000
,
1000
0001
1000
0001
0100
0000
0000
0000
,
0010
1000
0010
0100
0001
0100
0010
1000
,
0001
0100
0010
0100
0001
1000
0010
0000
,
0100
0001
0010
0001
0100
0010
1000
0001
,
1000
0010
0100
0001
0010
0001
0100
0000
,
0010
1000
0100
1000
0010
0100
0001
0100
,
0001
0010
0001
0100
0010
1000
0010
0000
,
0100
0010
1000
0010
0100
0001
1000
0010
,
0100
0100
0100
0100
0110
0000
0000
0000
,
0010
1000
0010
0100
0001
0100
0010
1000
,
0001
0010
0001
0100
0010
0100
0001
0000
,
1000
0010
1000
0100
1000
0010
0100
0001
,
0100
0010
1000
0001
2002
0000
3003
0000
,
1000
0100
1000
0010
0100
0001
0100
0010
,
0100
0001
1000
0100
0010
0001
0100
0000
,
0010
0100
0010
0100
0001
1000
0001
1000
,
2002
0000
0000
3003
,
0100
0000
0000
0100
0000
0000
0100
0000
0000
0010
0100
0000
0001
0000
1000
0000
,
0100
0000
1000
0000
0010
0000
0100
0000
0001
0000
0000
1000
0000
0000
0001
0000
,
0010
0000
0000
0010
0000
0000
0010
0000
0000
0100
0010
0000
0001
0000
1000
0000
,
0010
0000
0100
0000
0001
0000
0100
0000
0010
0000
0000
1000
0000
0000
0001
0000
,
0010
0000
0000
0010
0000
0000
0010
0000
0000
0100
0010
0000
0001
0000
1000
0000
,
0010
0000
1000
0000
0100
0000
0010
0000
0001
0000
0000
1000
0000
0000
0001
0000
,
0100
0000
0000
0100
0000
0000
0100
0000
0000
0010
0100
0000
0001
0000
1000
0000
,
0011
1100
1001
0110
,
0010
1000
0000
1010
0000
0000
1000
0001
,
1000
0001
0000
0101
0000
0000
0001
0010
,
0100
1000
0000
1100
0000
0000
1000
0010
,
0100
0001
1000
0001
0010
0100
1000
0000
,
1100
0001
0100
0000
0101
1000
0100
0000
,
0110
0001
1000
0010
0000
0100
0001
1000
,
1010
0100
0001
0000
0011
0100
1000
0000
,
1001
0010
0100
0001
0000
0010
0100
1000
,
0011
1000
0100
0000
1010
0001
0100
0000
,
0110
1000
0001
0010
0000
0100
1000
0010
,
0101
1000
0100
0000
0011
0100
0010
0000
,
1001
0100
0010
1000
0000
0010
0100
0001
,
2000
0000
0000
3200
0000
0000
2300
0000
,
3020
0000
0000
0230
0000
0000
0302
0000
,
0023
0000
0000
0032
0000
0000
0203
0000
,
0320
0000
0000
2030
0000
0000
3020
0000
,
0230
0000
0000
0320
0000
0000
2030
0000
,
3002
0000
0000
0023
0000
0000
0230
0000
,
1300
1100
0001
0101
,
2002
0000
3000
0003
,
1000
0010
1000
0001
0100
0001
0100
0001
,
1000
0010
1000
0100
1000
0010
0100
0000
,
0001
0010
0001
1000
0010
1000
0001
0100
,
0010
0100
0001
1000
0100
0010
0001
0000
,
0100
0001
0100
0010
1000
0010
0100
0001
,
0100
0010
1000
0001
0010
0100
1000
0000
,
0010
1000
0010
0100
0010
0100
0001
0100
,
0001
1000
0001
1000
1001
0000
0000
0000
,
1000
0000
0000
1000
0000
0000
1000
0000
0000
0000
0010
0000
0100
0000
0001
0000
,
0010
0001
0100
0000
0001
1000
0100
0000
,
0010
0000
0000
0010
0000
0000
0010
0000
0000
0000
0001
0000
0010
0000
0100
0000
,
1000
0010
0100
0000
0001
0100
0010
0000
,
0100
0000
0000
0100
0000
0000
0100
0000
0000
0000
0010
0000
1000
0000
0001
0000
,
0010
0100
1000
0000
0010
1000
0001
0000
,
0001
0000
0000
0001
0000
0000
0001
0000
0000
0000
0010
0000
0100
0000
1000
0000
,
0011
1100
0110
1001
;

//---------------dance-single - Nitrospan-ESP----------------
#NOTES:
     dance-single:
     Nitrospan:
     Hard:
     16:
     :
0000
0000
0000
0000
,
1000
0000
0010
0100
0010
0000
1000
0000
0000
0001
0010
0000
0100
1000
0100
0000
,
0010
0001
0000
0000
1000
0000
0001
0000
0100
0010
0000
0010
0000
1000
0001
0000
,
0010
0000
0001
0010
0001
0000
1000
0000
0000
0100
1000
0000
0010
0100
0010
0000
,
1000
0001
1000
0000
0001
1000
0001
0000
0000
0000
0000
0000
0000
0000
0000
0000
,
1000
0000
0100
1000
0000
0000
1001
0000
0010
0000
0100
0000
0001
0010
0001
0000
,
1000
0100
1000
0000
0010
0000
0100
0000
0001
0100
0000
0001
0000
1000
0100
0000
,
0010
0000
0100
1000
0100
0000
0010
0000
0001
0000
0100
0000
0010
1000
0010
0000
,
0100
0001
0100
0000
0010
0000
1000
0000
0100
1000
0000
0001
0000
0100
0010
0000
,
1000
0000
0010
1000
0000
0000
1001
0000
0100
0000
0010
0000
0001
0100
0001
0000
,
1000
0010
1000
0000
0100
0000
0010
0000
0001
0010
0000
0001
0000
1000
0010
0000
,
0100
0000
0010
1000
0010
0000
0100
0000
0001
0000
0010
0000
0100
1000
0100
0000
,
0010
0001
0010
0001
1000
0010
1000
0010
0100
0000
0000
0000
0000
0000
0000
0000
,
0010
0000
1000
0100
0000
0000
1100
0000
0010
0000
0001
0000
0100
0010
0100
0000
,
0001
0100
0001
0000
1000
0000
0100
0000
1000
0010
0000
0100
0000
0001
0010
0000
,
0100
0000
1000
0001
0000
0000
1001
0000
0100
0000
0010
0000
1000
0010
1000
0000
,
0001
0100
0001
0000
0010
0000
0100
0000
1000
0100
0000
0010
0000
0001
1000
0000
,
0001
0000
0100
0001
0000
0000
0011
0000
0100
0000
1000
0000
0010
0100
0010
0000
,
1000
0010
1000
0000
0001
0000
0010
0000
0001
0100
0000
0010
0000
1000
0100
0000
,
0010
0000
0001
1000
0000
0000
1001
0000
0010
0000
0100
0000
0001
1000
0001
0000
,
1000
0001
0000
1000
0100
1000
0100
1000
0001
0100
0000
0010
0000
1000
0001
0000
,
1001
0000
0001
0010
0001
0000
0100
0010
0000
1000
0100
0000
1000
0010
1000
0000
,
0001
0100
0001
0000
0010
0000
0100
0000
1000
0100
0000
0010
0000
0010
0001
0000
,
0100
0000
0001
1000
0001
0000
0100
0010
0000
1000
0100
0000
0010
0001
0010
0000
,
0001
0100
0000
0000
0110
0000
0110
0000
1000
0001
0000
0100
0000
0100
0010
0000
,
1000
0000
0001
0100
0001
0000
0010
0100
0000
1000
0010
0000
1000
0100
1000
0000
,
0001
0010
0001
0000
0100
0000
0010
0000
1000
0010
0000
0100
0000
0100
0001
0000
,
0010
0000
0001
1000
0001
0000
0010
0100
0000
1000
0010
0000
1000
0001
1000
0000
,
1010
0101
0110
1001
,
1000
0100
1000
0001
0100
0001
1000
0001
,
1000
0010
1000
0001
0010
0001
1000
0001
,
1000
0100
0010
0001
0100
0010
1000
0001
,
1000
0010
0100
0001
0010
0100
1000
0001
,
1001
0100
0010
0001
1100
0010
0100
0001
,
1010
0100
0001
0110
0000
1001
0100
0001
,
1100
1100
0010
0100
1001
0100
1000
0100
,
0011
0100
0010
1001
0000
0110
1000
0001
,
1100
1100
0010
0100
0101
1000
0100
0010
,
1100
0010
0100
0011
0000
1001
0010
1000
,
0101
0101
0010
0100
1001
0100
0010
0001
,
1100
0000
0010
0000
0001
0000
1000
0000
0000
0000
1001
0000
0010
0100
0010
0000
,
1000
0100
0010
0001
0010
0100
1000
0001
,
0100
0010
1000
0010
0100
0001
1000
0001
,
0010
0100
1000
0100
0010
0001
1000
0001
,
0100
0010
1000
0010
0100
0001
1000
0001
,
1000
0100
0010
0001
0010
0100
1000
0001
,
1000
0010
0100
0001
0100
0010
1000
0001
,
1000
0100
0010
0000
0001
0100
0010
0000
0100
0001
0010
0000
0100
1000
0001
0000
,
2002
0000
0003
3000
,
0001
0000
0100
0001
0000
0000
1001
0000
0010
0000
0100
0000
1000
0010
1000
0000
,
0001
0100
0001
0000
0010
0000
0100
0000
1000
0100
0000
1000
0000
0001
0100
0000
,
0010
0000
0100
0001
0100
0000
0010
0000
1000
0000
0100
0000
0010
0001
0010
0000
,
0100
1000
0100
0000
0010
0000
0001
0000
0100
0001
0000
1000
0000
0100
0010
0000
,
0001
0000
0010
0001
0000
0000
1001
0000
0100
0000
0010
0000
1000
0100
1000
0000
,
0001
0010
0001
0000
0100
0000
0010
0000
1000
0010
0000
1000
0000
0001
0010
0000
,
0100
0000
0010
0001
0010
0000
0100
0000
1000
0000
0010
0000
0100
0001
0100
0000
,
0010
1000
0010
1000
0001
0010
0001
0010
0100
0000
0000
0000
0000
0000
0000
0000
,
1001
0000
1000
0100
1000
0000
0010
0100
0000
0001
0010
0000
0001
0100
0001
0000
,
1000
0010
1000
0000
0100
0000
0010
0000
0001
0010
0000
0100
0000
0100
1000
0000
,
0010
0000
1000
0001
1000
0000
0010
0100
0000
0001
0010
0000
0100
1000
0100
0000
,
1000
0010
0000
0000
0110
0000
0110
0000
0001
1000
0000
0010
0000
0010
0100
0000
,
0001
0000
1000
0010
1000
0000
0100
0010
0000
0001
0100
0000
0001
0010
0001
0000
,
1000
0100
1000
0000
0010
0000
0100
0000
0001
0100
0000
0010
0000
0010
1000
0000
,
0100
0000
1000
0001
1000
0000
0100
0010
0000
0001
0100
0000
0001
1000
0001
0000
,
1000
0100
0010
0001
0110
0000
1001
0000
;

//---------------dance-double - NewbStepper-BDP----------------
#NOTES:
     dance-double:
     NewbStepper:
     Easy:
     7:
     :
00000000
00000000
00000000
00000000
,
00010000
00000000
00000000
00000000
,
00001000
00000000
00000000
00000000
,
00010000
00000000
00000000
00000000
,
00000000
00000000
00000000
00000000
,
00100000
10000000
00100000
00000000
,
01000000
00010000
01000000
00000000
,
00100000
10000000
01000000
00100000
,
00001000
00000000
00011000
00000000
,
00000010
00000001
00000010
00000000
,
00000100
00001000
00000100
00000000
,
00000010
00000001
00000100
00000010
,
00020000
00000000
00030000
00000000
,
00100000
10000000
01000000
00000000
,
00100000
00010000
01000000
00000000
,
00100000
10000000
01000000
00010000
,
00001000
00000100
00000001
00000000
,
00000010
00000001
00000100
00000000
,
00000010
00001000
00000100
00000000
,
00000010
00000001
00000100
00001000
,
00020000
00000000
00030000
00000000
,
00001000
00000100
00001000
00000000
,
00010000
01000000
00010000
00000000
,
00001000
00000010
00001000
00000000
,
00010000
00100000
00010000
00000000
,
00100000
10000000
01000000
00010000
,
00001000
00000010
00000001
00000100
,
00001000
00010000
00100000
10000000
,
10010000
10010000
10010000
10010000
,
10000000
00000000
00000000
00010000
00000000
00000000
00001000
00000000
,
00000010
00000000
00000000
00000100
00000000
00000000
00000000
00000000
,
00000001
00000000
00000000
00001000
00000000
00000000
00010000
00000000
,
00100000
00000000
00000000
01000000
00000000
00000000
00000000
00000000
,
10000000
01000000
11000000
00000000
,
00010000
01000000
00001000
00010000
,
00001000
00000010
00001010
00000000
,
00000001
00000010
00001000
00000010
,
00000001
00000100
00000101
00000000
,
00001000
00000100
00010000
00001000
,
00010000
00100000
00110000
00000000
,
10000000
00100000
00010000
00100000
,
20000000
00000000
00000000
00000000
,
00000000
00000000
30000000
00000000
,
00020000
00000000
00000000
00000000
,
00000000
00000000
00030000
00000000
,
00002000
00000000
00000000
00000000
,
00000000
00000000
00003000
00000000
,
00000001
00000001
00000001
00000001
,
00001001
00000000
00000000
00000000
,
00000010
00000001
00000100
00000000
,
00000010
00001000
00000100
00000000
,
00000010
00000001
00000100
00001000
,
00010000
01000000
10000000
00000000
,
00100000
10000000
01000000
00000000
,
00100000
00010000
01000000
00000000
,
00100000
10000000
01000000
00010000
,
00002000
00000000
00003000
00000000
,
00010000
01000000
10000000
00100000
,
00010000
00000000
00001000
00000000
00000010
00001000
00010000
00000000
,
00001000
00000100
00000001
00000010
,
00001000
00000000
00010000
00000000
00100000
00010000
00001000
00000000
,
00010000
00000010
00010000
00100000
,
10000000
00000000
01000000
00000000
00010000
00001000
00000100
00000000
,
00001000
00100000
00001000
00000010
,
00000100
00000100
00000010
00001001
;

//---------------dance-double - NewbStepper-DDP----------------
#NOTES:
     dance-double:
     NewbStepper:
     Medium:
     13:
     :
00000000
00000000
00000000
00000000
,
00100000
00000000
00000000
00100000
00000000
00000000
00100000
00000000
00000000
10000000
00000000
00000000
01000000
00000000
00010000
00000000
,
00001000
00010000
00000000
00000000
00000100
00000000
00001000
00000000
00000001
00000000
00000000
00000100
00000000
00000000
00000001
00000000
,
00000010
00000000
00000000
00000010
00000000
00000000
00000010
00000000
00000000
00000001
00000000
00000000
00000100
00000000
00001000
00000000
,
00010000
00100000
00010000
00000010
00002000
00000000
00003000
00000000
,
00000001
00000100
00000001
00001000
00000100
00000010
00000100
00001000
,
00000001
00000100
00001000
00010000
00100000
10000000
00010000
00000000
,
10000000
01000000
10000000
00010000
01000000
00100000
01000000
00010000
,
10000000
01000000
00010000
00001000
00000010
00000001
00001000
00000000
,
00000010
00001000
00000001
00000100
00000001
00001000
00000100
00010000
,
00001000
00000010
00001000
00010000
00001000
00100000
00001000
00000000
,
00100000
00010000
10000000
00100000
00010000
00001000
00000010
00001000
,
00010000
00100000
00010000
00001000
00000100
00000000
00000000
00000000
,
00000001
00000100
00001000
00010000
00000100
00000010
00000100
00010000
,
00001000
01000000
00100000
01000000
10000000
01000000
00010000
00000000
,
10000000
00100000
00010000
00001000
00100000
00010000
01000000
00100000
,
00010000
00001000
00000010
00001000
00022000
00000000
00033000
00000000
,
10000000
01000000
00010000
00001000
01000000
00100000
01000000
00001000
,
00010000
00000100
00000010
00000100
00000001
00000100
00001000
00000000
,
00000001
00000010
00001000
00010000
00000010
00001000
00000100
00000010
,
00000220
00000000
00000000
00000330
,
00000001
00000000
00000000
00000001
00000000
00000000
00000001
00000000
00000000
00000100
00000000
00000000
00001000
00000000
00010000
00000000
,
00001000
00000010
00000000
00000000
00000010
00000000
00001000
00000000
00010000
00000000
00100000
00000000
10000000
00000000
00010000
00000000
,
10000000
00000000
00000000
10000000
00000000
00000000
10000000
00000000
00000000
01000000
00000000
00000000
00010000
00000000
00001000
00000000
,
00010000
00100000
00000000
00000000
00100000
00000000
00010000
00000000
00001000
00000000
00000010
00000000
00000001
00000000
00001000
00000000
,
00000100
00000000
00000000
00000010
00000000
00000000
00001000
00000000
00000000
00010000
00001000
00000000
00000010
00000000
00001000
00000000
,
00010000
00100000
10000000
01000000
00100000
00010000
10000000
00100000
,
01000000
00000000
00000000
00100000
00000000
00000000
00010000
00000000
00000000
00001000
00010000
00000000
00100000
00000000
00010000
00000000
,
00011000
00001010
00011000
00110000
,
20000000
00000000
00000000
01000000
00000000
00000000
30020000
00000000
,
00230000
00000000
00000000
01000000
00000000
00000000
00302000
00000000
,
00023000
00000000
00000000
00000010
00000000
00000000
00032000
00000000
,
00003002
00000000
00000000
00000100
00000000
00000000
00002003
00000000
,
00013000
00001000
00000100
00000000
00000110
00000000
00000010
00000000
,
00001000
00010000
01000000
00000000
00100000
00000000
01100000
00000000
,
00010000
00001000
00000010
00000000
00000110
00000000
00001000
00010000
,
00100000
10000000
01000000
00100000
00000000
00010000
01000000
00000000
,
00001000
00010000
01000000
00000000
01100000
00000000
00100000
00000000
,
00010000
00001000
00000100
00000000
00000010
00000000
00000110
00000000
,
00001000
00010000
00100000
00000000
01100000
00000000
00010000
00001000
,
00000010
00000001
00000100
00000010
00000000
00001000
00000100
00000000
,
00000020
00000000
00000000
00000000
,
00002030
00000000
00000000
00000000
,
00023000
00000000
00000000
00000000
,
00230000
00000000
00000000
00000000
,
20300000
00000000
00000000
00000000
,
30020000
00000000
00000000
00000000
,
00031000
00010000
00001000
00010000
,
00011000
00000000
00000000
00000000
,
10000000
01000000
00010000
00001000
01000000
00100000
01000000
00001000
,
00010000
00000100
00000010
00000100
00000001
00000100
00001000
00000000
,
00000001
00000010
00001000
00010000
00000010
00001000
00000100
00000010
,
00001000
00010000
00100000
00010000
00022000
00000000
00033000
00000000
,
00000001
00000100
00001000
00010000
00000100
00000010
00000100
00010000
,
00001000
01000000
00100000
01000000
10000000
01000000
00010000
00000000
,
10000000
00100000
00010000
00001000
00100000
00010000
01000000
00100000
,
00010000
00001000
00000010
00001000
00022000
00000000
00033000
00000000
,
00010000
00000000
00000000
01000000
00000000
00000000
10000000
00000000
00000000
00000000
00100000
00000000
10000000
00000000
01000000
00000000
,
00100000
01000000
10000000
00000000
00100000
00000000
00010000
00000000
,
00001000
00000000
00000000
00000100
00000000
00000000
00000001
00000000
00000000
00000000
00000010
00000000
00000001
00000000
00000100
00000000
,
00001000
00010000
01000000
00010000
00001000
00000010
00001000
00000000
,
00010000
00000000
00000000
00100000
00000000
00000000
10000000
00000000
00000000
00000000
01000000
00000000
10000000
00000000
00100000
00000000
,
01000000
00100000
10000000
00000000
01000000
00000000
00010000
00000000
,
00001000
00000000
00000000
00000010
00000000
00000000
00000001
00000000
00000000
00000000
00000100
00000000
00001000
00000000
00010000
00000000
,
01000000
10000000
00010000
01000000
;

//---------------dance-double - NewbStepper-EDP----------------
#NOTES:
     dance-double:
     NewbStepper:
     Hard:
     15:
     :
00000000
00000000
00000000
00000000
,
10000000
00000000
01000000
00100000
01000000
00000000
10000000
00000000
00000000
01000000
00010000
00000000
00001000
00010000
00001000
00000000
,
00000010
00000100
00000000
00000100
00001000
00000000
00000010
00000000
00000001
00000010
00000000
00001000
00000000
00000100
00000010
00000000
,
00000001
00000000
00000100
00000010
00000100
00000000
00000001
00000000
00000000
00000100
00001000
00000000
00010000
00001000
00010000
00000000
,
00100000
10000000
00000000
00100000
01000000
00000000
00020000
00000000
00000000
00000000
00000000
00000000
00000000
00000000
00030000
00000000
,
10000000
00100000
10000000
01000000
00010000
00001000
00000010
00001000
,
00100000
00001000
00000100
00000001
00000100
00000010
00010000
00001000
,
00000010
00001000
00100000
10000000
00100000
00010000
10000000
00100000
,
00010000
00001000
00000010
00000100
00010000
00001000
00000100
00000000
,
00000001
00000010
00001000
00010000
00001000
00000100
00001000
01000000
,
00100000
00010000
00000010
00001000
00000010
00010000
00001000
01000000
,
10000000
01000000
00010000
00100000
01000000
00010000
00001000
00000100
,
00000001
00000100
00000001
00000100
00000001
00000100
00000001
00000100
00000002
00000000
00000000
00000000
00000003
00000000
00000000
00000000
,
00001000
00000000
00000100
00001000
00000100
00000000
00000010
00000000
00000001
00000100
00000001
00000000
00000100
00000000
00001000
00000000
,
00010000
00001000
00000000
00000000
00000010
00000000
00001000
00000000
00010000
00001000
00000000
01000000
00000000
00001000
00010000
00000000
,
00100000
00000000
10000000
00010000
10000000
00000000
00100000
00000000
00010000
00001000
00010000
00000000
00000010
00001000
00000010
00000000
,
00010000
00001000
00000000
00000000
00100000
00000000
00010000
00000000
20000000
00000000
00000000
00000000
30000000
00000000
00000000
00000000
,
00010000
00000000
01000000
00010000
01000000
00000000
00100000
00000000
10000000
01000000
10000000
00000000
01000000
00000000
00010000
00000000
,
00001000
00010000
00000000
00000000
00100000
00000000
00010000
00000000
00001000
00010000
00000000
00000100
00000000
00010000
00001000
00000000
,
00000010
00000000
00000001
00001000
00000001
00000000
00000010
00000000
00001000
00010000
00001000
00000000
00100000
00010000
00100000
00000000
,
00010000
10000000
00010000
10000000
00010000
10000000
00010000
10000000
00020000
00000000
00000000
00000000
00030000
00000000
00000000
00000000
,
10000000
00000000
01000000
00100000
01000000
00000000
10000000
00000000
00000000
00010000
01000000
00000000
00100000
10000000
00100000
00000000
,
01000000
00010000
00000000
01000000
00001000
00000000
00000010
00000000
00000001
00000100
00000000
00000100
00000000
00000010
00000100
00000000
,
00000001
00000000
00000100
00000010
00000100
00000000
00000001
00000000
00000000
00001000
00000100
00000000
00000010
00000001
00000010
00000000
,
00000100
00001000
00000000
00000100
00010000
00000000
00100000
00000000
10000000
01000000
00000000
01000000
00000000
00100000
01000000
00000000
,
10000000
00000000
00010000
00100000
00010000
00000000
10000000
00000000
00000000
00100000
00010000
00000000
00001000
00010000
00001000
00000000
,
00000010
00001000
00000000
00001000
00010000
00000000
00001000
00000000
00000100
00000001
00000000
00000001
00000000
00000010
00000001
00000000
,
00000100
00001000
00010000
01000000
00010000
00001000
00100000
00010000
,
20020000
00000000
00000000
30030000
,
20000000
00100000
00000000
00100000
00000000
00000000
31000000
00010000
,
00001000
00000100
00000000
00000002
00000000
00000000
00000013
00001000
,
00010000
00200000
00000000
10000000
00300000
00000000
10000000
01000000
,
00100000
00010000
00010000
01000000
00000000
00100000
00010000
00000000
,
00011000
00001000
00000100
00001000
00101000
00000000
01010000
00100000
,
10000000
01000000
00010000
01000000
00100000
00001000
00010000
00000000
,
00011000
00010000
01000000
00010000
00010010
00000000
00001100
00000010
,
00000001
00000100
00001000
00000100
00000010
00010000
00001000
00000000
,
00011000
00010000
00100000
10000000
00100000
00010000
00001000
00100000
,
10000000
10000000
00100000
00001000
00010000
00100000
00010000
00000000
,
00011000
00001000
00000010
00000001
00000010
00001000
00010000
00000010
,
00000001
00000001
00000010
00010000
00001000
00000010
00001000
00000000
,
00002100
00000000
00000000
00000000
,
00023000
00000000
00000000
00000000
,
00230000
00000000
00000000
00000000
,
02300000
00000000
00000000
00000000
,
23000000
00000000
00000000
00000000
,
30020000
00000000
00000000
00000000
,
10030000
01000000
00000000
00000000
01000000
00010000
00000000
00000000
00010000
00001000
00000000
00000000
00011000
00000000
00000000
00000000
,
00000110
00000000
00000000
00000000
,
00001000
00000000
00000100
00001000
00000100
00000000
00000010
00000000
00000001
00000100
00000001
00000000
00000100
00000000
00001000
00000000
,
00010000
00001000
00000000
00000000
00000010
00000000
00001000
00000000
00010000
00001000
00000000
01000000
00000000
00001000
00010000
00000000
,
00100000
00000000
10000000
00010000
10000000
00000000
00100000
00000000
00010000
00001000
00010000
00000000
00000010
00001000
00000010
00000000
,
00000100
00001000
00000000
00001000
00010000
00000000
00100000
00000000
10000000
01000000
00000000
00010000
00000000
01000000
00100000
00000000
,
00010000
00000000
00100000
00010000
00100000
00000000
01000000
00000000
10000000
00100000
10000000
00000000
00100000
00000000
00010000
00000000
,
00001000
00010000
00000000
00000000
01000000
00000000
00010000
00000000
00001000
00010000
00000000
00000010
00000000
00010000
00001000
00000000
,
00000100
00000000
00000001
00001000
00000001
00000000
00000100
00000000
00001000
00010000
00001000
00000000
01000000
00010000
01000000
00000000
,
00010000
10000000
00010000
10000000
00010000
10000000
00010000
10000000
00020000
00000000
00000000
00000000
00030000
00000000
00000000
00000000
,
10000000
00000000
00100000
01000000
00010000
00000000
00100000
00000000
00000000
00100000
01000000
00000000
00010000
00001000
00010000
00000000
,
00000010
00001000
00000010
00001000
00000001
00000000
00000100
00000000
00000010
00001000
00000000
00001000
00000000
00000010
00000100
00000000
,
00000001
00000000
00000010
00000100
00001000
00000000
00000010
00000000
00000000
00000010
00000100
00000000
00001000
00010000
00001000
00000000
,
00100000
00010000
00100000
00010000
10000000
00000000
01000000
00000000
00010000
00000000
00001000
00000000
00010000
00000000
00100000
00000000
,
10000000
00100000
10000000
00100000
10000000
00000000
00010000
00000000
00000000
00010000
00100000
00000000
01000000
00010000
01000000
00000000
,
00010000
00001000
00010000
00000000
00000010
00000000
00001000
00000000
00000010
00010000
00000000
00001000
00000000
00000010
00000001
00000000
,
00000100
00000000
00001000
00010000
01000000
00000000
00010000
00000000
00001000
00010000
00001000
00000000
00100000
01000000
00100000
00000000
,
00020000
10000000
01030000
01100000
;
