#TITLE:Rather Be;
#ARTIST:Clean Bandit feat. Jess Glynne;
#BANNER:Rather Be.png;
#BACKGROUND:Rather Be-bg.png;
#MUSIC:Rather Be.ogg;
#OFFSET:-6.465;
#SAMPLESTART:80.288;
#SAMPLELENGTH:15;
#DISPLAYBPM:121;
#BPMS:0=115,17=121.01;
#BGCHANGES:-12.5=Rather Be.avi=1=0=0=0=StretchNoLoop====,99999=-nosongbg-=1=0=0=0 // don't automatically add -songbackground-;

//---------------dance-single - Marten-bSP----------------
#NOTES:
     dance-single:
     Marten:
     Beginner:
     2:
     0.080777,0.116116,0.020194,0.060582,0,84,81,3,9,0,0,0.080777,0.116116,0.020194,0.060582,0,84,81,3,9,0,0:
0000
0000
0000
0000
,
0000
0000
0000
0000
,
0000
0000
0000
0000
,
0000
0000
0000
0000
,
0000
0000
0000
0000
,
0001
0000
0000
0000
,
0001
0000
0000
0000
,
1000
0000
0000
0000
,
1000
0000
0000
0000
,
0010
0000
0000
0000
,
0010
0000
0000
0000
,
0100
0000
0000
0000
,
0000
0000
0000
0000
,
0001
0000
0001
0000
,
0001
0000
0000
0000
,
1000
0000
1000
0000
,
1000
0000
0000
0000
,
0010
0000
0010
0000
,
0010
0000
0000
0000
,
0100
0000
0100
0000
,
0100
0000
0000
0000
,
0001
0000
0001
0000
,
1000
0000
1000
0000
,
0001
0000
0000
0000
,
1000
0000
0000
0000
,
0100
0000
0100
0000
,
0010
0000
0010
0000
,
0100
0000
0000
0000
,
0100
0000
1000
0000
,
1001
0000
0000
0000
,
0001
0000
0001
0000
,
1000
0000
0000
0000
,
1000
0000
1000
0000
,
0001
0000
0000
0000
,
0010
0000
0100
0000
,
1000
0000
1000
0000
,
0001
0000
0001
0000
,
0100
0000
0000
0000
,
0100
0000
0000
0000
,
0010
0000
0000
0000
,
0010
0000
0000
0000
,
0100
0000
0000
0000
,
0010
0000
0000
0000
,
2000
0000
3000
0000
,
0002
0000
0003
0000
,
1000
0000
0000
0000
,
1000
0000
0000
0000
,
0001
0000
0000
0000
,
0001
0000
0000
0000
,
1000
0000
0000
0000
,
1000
0000
0000
0000
,
0002
0003
2000
3000
,
0020
0030
0200
0300
,
0001
0000
0000
0000
,
0001
0000
0000
0000
,
1000
0000
0000
0000
,
1000
0000
0000
0000
,
0010
0000
0000
0000
,
0010
0000
0000
0000
,
0100
0000
0000
0000
,
0100
0000
0001
0000
,
1001
0000
0000
0000
,
1000
0000
0000
0000
,
0001
0000
0000
0000
,
1000
0000
0000
0000
,
0010
0000
0000
0000
,
0010
0000
0100
0000
,
0020
0000
0030
0000
,
2002
0000
0000
0000
,
3003
0000
0000
0000
;

//---------------dance-single - Marten-ESP----------------
#NOTES:
     dance-single:
     Marten:
     Hard:
     12:
     0.463503,0.487688,0.410614,0.175016,0.286084,482,421,61,26,0,0,0.463503,0.487688,0.410614,0.175016,0.286084,482,421,61,26,0,0:
// measure 0
0000
0000
0000
0000
,  // measure 1
1000
0100
1000
0100
0000
0000
0010
0000
0001
0000
0000
0000
1001
0000
0000
0000
,  // measure 2
0001
0100
0001
0100
0000
0000
0010
0000
1000
0000
0000
0000
0010
0000
0000
0000
,  // measure 3
1000
0010
1000
0100
0000
0010
0001
0100
0001
0000
0000
0000
0000
0000
0000
0000
,  // measure 4
0000
0000
0000
0000
0000
0000
1000
0100
,  // measure 5
0020
0000
0230
0000
2300
0000
3010
0100
,  // measure 6
0001
0000
0000
0001
0000
0000
0001
0000
0100
0000
0000
0000
0001
0000
0010
0000
,  // measure 7
0200
0000
0320
0000
0032
0000
0013
0100
,  // measure 8
1000
0000
0000
1000
0000
0000
1000
0000
0100
0000
0000
0000
0010
0000
0001
0000
,  // measure 9
2000
0000
3020
0000
0230
0000
0301
0010
,  // measure 10
0001
0000
0000
1000
0000
0000
0010
0000
0100
0000
0000
0000
0001
0000
1000
0000
,  // measure 11
0100
0000
0000
0010
0000
0000
0001
0000
0100
0000
0010
0000
1000
0000
0020
0000
,  // measure 12
0000
0000
0000
0030
,  // measure 13
1010
0000
0101
0000
0001
1000
0001
0000
,  // measure 14
1000
0100
0010
0100
1000
0000
1100
0000
,  // measure 15
0011
0000
0101
0000
0010
1000
0010
0000
,  // measure 16
0100
0001
0010
0001
1000
0000
1001
0001
,  // measure 17
0020
0000
0230
0000
2300
0000
3010
0100
,  // measure 18
0001
0100
0110
1010
,  // measure 19
1000
0000
0000
0100
0000
0000
0010
0000
0001
0000
0000
0100
0000
0000
0010
0000
,  // measure 20
1000
0000
0001
0000
1000
0100
0010
0001
,  // measure 21
0100
0000
0001
0000
1000
0000
0100
0000
1000
0000
0000
1000
0100
0000
0000
0000
,  // measure 22
0010
0000
0001
0000
1000
0000
0001
0000
0100
0000
0000
0100
0001
0000
0000
0000
,  // measure 23
0010
0000
0000
0010
0001
0000
0010
0000
0100
0000
0000
0100
1000
0000
0010
0000
,  // measure 24
1000
0100
0001
0100
1000
0000
1001
0000
,  // measure 25
0001
0000
0001
0000
0100
0000
0100
0000
0010
0000
0000
0010
1000
0000
0000
0000
,  // measure 26
1000
0000
1000
0000
0100
0000
0100
0000
0010
0000
0000
0010
0001
0000
0000
0000
,  // measure 27
1000
0000
0000
1000
0010
0000
0100
0000
0001
0000
0000
0001
0010
0000
0100
0000
,  // measure 28
1000
0100
0001
0100
1100
0000
0101
0000
,  // measure 29
1001
0000
0000
0001
0000
0000
0010
0000
1100
0000
0000
0000
1000
0000
0000
0000
,  // measure 30
1001
0000
0000
1000
0000
0000
0010
0000
0101
0000
0000
0000
1001
0000
0000
0000
,  // measure 31
2010
0000
0000
3020
0000
0000
0130
0000
0101
0000
0000
0000
0001
0000
0000
0000
,  // measure 32
0012
0000
0000
0023
0000
0000
0130
0000
1100
0000
0000
0000
1001
0000
0000
0000
,  // measure 33
1000
0000
0000
1000
0010
0000
0001
0000
0010
0000
1000
0000
0100
0000
1000
0000
,  // measure 34
0000
0000
0011
0000
0000
0110
0000
0000
1100
0000
0000
0000
1001
0000
0000
0000
,  // measure 35
1000
0000
0000
1000
0100
0000
0010
0000
0001
0000
0000
0001
0100
0000
0010
0000
,  // measure 36
1000
0000
1000
0000
0001
0000
0001
0000
1000
0100
0000
0010
0001
0000
1000
0000
,  // measure 37
0001
0100
0001
0100
0000
0000
0010
0000
1000
0000
0000
0000
0010
0000
0000
0000
,  // measure 38
1000
0100
1000
0100
0000
0000
0010
0000
0011
0000
0000
0110
0000
0000
1100
0000
,  // measure 39
1001
0000
0000
0000
0020
0000
0030
0000
0101
0000
0000
1001
0000
0000
1100
0000
,  // measure 40
0000
0110
0000
0000
0011
0000
0000
0000
1000
0000
0001
0000
0011
0000
0000
0000
,  // measure 41
0001
0010
0001
0010
0000
0000
0100
0000
1000
0000
0000
0000
1001
0000
0000
0000
,  // measure 42
1000
0010
1000
0010
0000
0000
0100
0000
0001
0000
0000
0000
0100
0000
0000
0000
,  // measure 43
0010
0000
0000
0010
0000
0000
0010
0000
1000
0000
0000
1000
0000
0000
1000
0000
,  // measure 44
0001
0000
0000
0001
0000
0000
0001
0000
0010
0000
0100
0000
1000
0000
0000
0000
,  // measure 45
0001
1000
0001
1000
0000
0000
0010
0000
0100
0000
0000
0000
0000
0000
0000
0000
,  // measure 46
0010
0100
0010
0100
0000
0000
0010
0000
1000
0000
0000
0000
0001
0000
0000
0000
,  // measure 47
1000
0001
1000
0001
0000
0000
0010
0000
0100
0000
0000
0000
0000
1000
0100
1000
,  // measure 48
0100
0010
0001
0010
0000
0000
0001
0000
0100
0000
0000
0000
0010
0000
0000
0000
,  // measure 49
1000
0010
1000
0010
0000
0000
0100
0000
0001
0000
0000
0000
0010
0000
0000
0000
,  // measure 50
0100
1000
0100
1000
0000
0000
0001
0000
0100
0000
0000
0000
0010
0000
0000
0000
,  // measure 51
2000
0000
0000
0000
0000
0000
0010
0000
3020
0000
0000
0000
0000
0000
0100
0030
,  // measure 52
0200
0000
0001
0000
0302
0000
0010
0000
0023
0000
0100
0030
1000
0000
0001
0000
,  // measure 53
1001
0000
0000
0001
0000
0000
0010
0000
0100
0000
1000
0000
0010
0000
0100
0000
,  // measure 54
0001
0000
0100
0000
0000
0010
0000
0000
1010
0000
0000
0000
0011
0000
0000
0000
,  // measure 55
1001
0000
0000
1000
0000
0000
0010
0000
0100
0000
0001
0000
0010
0000
0100
0000
,  // measure 56
1000
0000
0100
0000
0000
0010
0000
0000
0011
0000
0000
0000
1010
0000
0000
0000
,  // measure 57
1000
0000
0000
1000
0010
0000
0100
0000
0001
0000
0010
0000
0001
0000
1000
0000
,  // measure 58
0010
0000
0110
0000
0000
0101
0000
0000
1001
0000
0000
0000
1010
0000
0000
0000
,  // measure 59
0001
0000
0000
0001
0100
0000
0010
0000
1000
0000
0000
1000
0100
0000
0010
0000
,  // measure 60
0001
0000
0001
0000
1000
0000
1000
0000
0001
0100
0000
0010
1000
0000
0001
0000
,  // measure 61
1000
0010
1000
0010
0000
0000
0100
0000
0101
0000
0000
0000
0001
0000
0000
0000
,  // measure 62
0001
0010
0001
0010
0000
0000
0100
0000
1100
0000
0000
0110
0000
0000
0011
0000
,  // measure 63
1001
0000
0000
0000
0020
0000
0030
0000
1100
0000
0000
1001
0000
0000
0101
0000
,  // measure 64
0000
0110
0000
0000
1010
0000
0000
0000
0001
0000
1000
0000
1010
0000
0000
0000
,  // measure 65
1000
0100
0010
0001
0000
0000
1000
0000
0001
0000
0000
0000
1001
0000
0000
0000
,  // measure 66
0001
0100
0010
1000
0000
0000
0010
0000
0100
0000
0000
0000
0110
0000
0000
0000
,  // measure 67
0010
1000
0010
1000
0000
0001
0100
0001
0100
0000
0000
0000
0000
0000
0000
0000
,  // measure 68
2002
0000
0000
0000
,  // measure 69
3003
0000
0000
0000
;

//---------------dance-single - Marten-DSP----------------
#NOTES:
     dance-single:
     Marten:
     Medium:
     9:
     0.343300,0.394795,0.154822,0.087508,0.158187,357,334,23,13,0,0,0.343300,0.394795,0.154822,0.087508,0.158187,357,334,23,13,0,0:
0000
0000
0000
0000
,
1000
0000
0000
0010
0000
0000
0100
0000
0001
0000
0000
0000
1000
0000
0000
0000
,
0001
0000
0000
0010
0000
0000
0100
0000
1000
0000
0000
0000
0001
0000
0000
0000
,
0010
0000
0000
0010
0000
0000
0010
0000
0100
0000
0000
0000
0000
0000
0000
0000
,
0000
0000
0000
0000
0000
0000
1000
0100
,
1000
0000
0010
0000
0100
0000
0001
0010
,
0001
0000
0000
0100
0000
0000
0010
0000
1000
0000
0000
0000
0001
0000
0100
0000
,
0001
0000
0010
0000
0100
0000
1000
0010
,
1000
0000
0000
0100
0000
0000
0010
0000
0001
0000
0000
0000
1000
0000
0001
0000
,
1000
0010
0100
0001
,
0010
0000
0000
0010
0000
0000
0010
0000
0100
0000
0000
0000
0000
0000
1000
0000
,
0100
0000
0100
0010
0001
0000
0001
2000
,
0000
0000
0000
3000
,
0001
1000
1010
0101
,
0001
0010
0001
0000
0100
0000
0010
0000
,
1000
0001
0011
1100
,
1000
0010
1000
0000
0100
0000
0010
0001
,
0020
0000
0230
0000
2300
0000
3001
0100
,
0001
0000
0000
0001
0000
0000
0001
0000
1000
0000
0000
0000
0100
0000
0000
0000
,
0010
0000
0000
0001
0000
0000
1000
0000
0010
0000
0000
1000
0000
0000
0001
0000
,
0010
0100
1000
0001
,
0101
0000
0001
0100
0001
0000
1000
0000
,
0100
0000
1000
0010
1000
0000
0001
0000
,
0010
0000
0000
0010
0000
0000
0010
0000
0100
0000
0000
0100
0000
0000
0100
0000
,
1000
0000
0000
0000
0100
0000
0000
0000
0000
0000
0110
0000
0000
0110
0000
0000
,
0000
0010
0001
0000
1000
0000
1000
0000
,
0010
1000
0010
0000
0100
0000
0100
0000
,
0001
0000
0000
0001
0000
0000
0001
0000
1000
0000
0000
1000
0000
0000
1000
0000
,
0100
0010
0011
1100
,
1000
0000
0000
1000
0000
0000
1000
0000
0001
0000
0000
0000
0100
0000
0000
0000
,
0001
0000
0000
0001
0000
0000
0001
0000
1000
0000
0000
0000
1001
0000
0000
0000
,
0010
0000
0000
0010
0000
0000
0010
0000
1000
0000
0000
0000
0100
0000
0000
0000
,
0010
0000
0000
0010
0000
0000
0010
0000
0001
0000
0000
0000
1001
0000
0000
0000
,
1000
0000
0000
0100
0000
0000
0010
0000
0001
0000
0000
0000
1000
0000
0000
0000
,
0001
0000
0000
0100
0000
0000
0010
0000
1000
0000
0000
0000
1001
0000
0000
0000
,
1000
0000
0000
1000
0000
0000
1000
0000
0010
0000
0000
0010
0000
0000
0010
0000
,
0100
0000
0000
0100
0000
0000
0100
0000
0001
0000
0000
0001
0000
0000
0001
0000
,
0010
0001
0010
0001
1000
0000
0000
0000
,
0010
0000
1000
0000
0010
0000
1000
0000
0001
0000
0000
0001
0000
0000
0001
0000
,
1000
0000
0000
0000
0200
0000
0000
0000
0310
0000
0000
0010
0000
0000
0010
0000
,
0000
0001
0000
0000
0001
0000
0000
0000
1000
0000
0001
0000
1000
0000
0000
0000
,
1000
0100
1000
0100
0010
0000
0010
0000
,
0001
0100
0001
0100
0010
0000
0110
0000
,
2000
0000
3002
0000
,
0103
0000
0000
0100
0000
0000
0100
0000
0010
0000
0100
0000
0010
0000
0000
0000
,
1000
0000
0000
1000
0000
0000
1000
0000
0100
0000
0000
0000
0000
0000
0000
0000
,
1000
0000
0000
1000
0000
0000
1000
0000
0010
0000
0000
0000
0100
0000
0000
0000
,
0001
0000
0000
0001
0000
0000
0001
0000
0100
0000
0000
0000
0000
0000
0000
0000
,
0001
0000
0000
0001
0000
0000
0001
0000
0010
0000
0000
0000
0100
0000
0000
0000
,
1000
0000
0000
0100
0000
0000
0010
0000
0001
0000
0000
0000
1001
0000
0000
0000
,
0001
0000
0000
0100
0000
0000
0010
0000
1000
0000
0000
0000
0001
0000
0000
0000
,
2000
0000
0000
3100
0020
0000
0000
0031
,
1000
0010
1000
0010
0100
0000
0200
0000
,
0310
0000
0000
0010
0000
0000
1000
0000
0000
0000
0100
0000
1000
0000
0100
0000
,
0000
0010
0000
0001
0010
0000
0100
0000
,
0010
0000
0000
0010
0000
0000
0001
0000
0000
0000
0100
0000
0001
0000
0100
0000
,
0000
0000
0010
0000
0000
1000
0000
0000
0010
0000
0000
0000
0110
0000
0000
0000
,
1000
0000
0000
0100
0000
0000
0010
0000
0000
0000
0001
0000
0010
0000
0100
0000
,
0000
0000
1000
0000
0000
0001
0000
0000
0101
0000
0000
0000
1001
0000
0000
0000
,
0001
0000
0000
0001
0000
0000
0001
0000
0010
0000
0000
0010
0000
0000
0010
0000
,
0100
0000
0000
0100
0000
0000
0100
0000
1000
0000
0000
1000
0000
0000
1000
0000
,
0010
1000
0010
1000
0001
0000
0000
0000
,
0010
0000
0001
0000
0010
0000
0001
0000
1000
0000
0000
1000
0000
0000
1000
0000
,
0001
0000
0000
0000
0200
0000
0000
0000
0310
0000
0000
0110
0000
0000
1010
0000
,
0000
1001
0000
0000
1100
0000
0000
0000
0001
0000
1000
0000
0001
0000
0000
0000
,
0001
0100
0001
0100
0010
0000
0010
0000
,
1000
0100
1000
0100
0010
0000
0110
0000
,
0001
0000
0000
0001
0000
0000
0001
0000
1000
0000
0000
0000
0000
0000
0000
0000
,
2002
0000
0000
0000
,
3003
0000
0000
0000
;

//---------------dance-single - Marten-BSP----------------
#NOTES:
     dance-single:
     Marten:
     Easy:
     6:
     0.251946,0.325126,0.242330,0.141359,0,262,226,36,21,0,0,0.251946,0.325126,0.242330,0.141359,0,262,226,36,21,0,0:
0000
0000
0000
0000
,
0001
0000
0001
0000
,
1000
0000
1000
0000
,
0010
0000
0010
0000
,
0000
0000
0000
0001
,
1000
1000
0100
0010
,
0001
0000
0000
1000
,
0001
0001
0010
0100
,
1000
0000
0000
0001
,
0100
0100
0010
0010
,
0100
0000
0000
0000
,
0010
1000
0100
0010
,
0002
0000
0000
0003
,
1000
1100
0001
0101
,
0001
1000
0001
1000
,
0001
0011
1000
1010
,
0010
0100
0110
0110
,
0100
0001
0010
0100
,
1000
0010
0100
0001
,
1000
0100
0001
0100
,
2000
0000
0000
3001
,
0100
0110
0010
0010
,
1000
1001
1000
1000
,
0100
0010
0001
0010
,
0200
0000
0000
1300
,
0001
0100
0010
0010
,
1000
0100
0010
0010
,
0001
0010
0100
1000
,
0002
0003
1100
0101
,
1001
0001
1000
1000
,
0010
0100
0001
0101
,
0001
0010
0001
0001
,
0010
0100
1000
1100
,
1000
0010
0001
0010
,
1000
0100
1000
1001
,
0002
0000
2003
0000
,
3010
0100
0001
1000
,
0001
0010
0011
0000
,
0001
0100
0010
1000
,
0100
1000
1010
0000
,
1000
0010
0100
0001
,
1000
0100
0110
1001
,
0001
1000
1001
0110
,
0020
0000
0230
0000
,
0302
0000
2003
0000
,
3100
0100
1000
0000
,
0100
0100
0001
0001
,
0100
0100
1000
0000
,
0100
0100
0001
0001
,
0100
1000
0010
0000
,
0100
0001
0010
0010
,
0002
0000
2003
0000
,
3020
0230
0302
2003
,
3001
0011
0001
0100
,
0010
1010
1001
1001
,
1000
1100
0100
0010
,
0001
0101
1001
1001
,
0001
0010
1000
0010
,
0001
0100
0110
0110
,
2000
0000
3002
0000
,
0013
0100
1000
0001
,
1000
0010
1010
0000
,
1000
0100
0010
0001
,
0100
0001
0011
0000
,
0001
0010
0100
1000
,
0001
0100
0110
1001
,
1000
0001
1001
0110
,
2000
0000
3002
0000
,
0023
0000
0000
0000
,
0030
0000
0000
0000
;

//---------------dance-double - NewbStepper-EDP----------------
#NOTES:
     dance-double:
     NewbStepper:
     Hard:
     11:
     0.415422,0.441242,0.094239,0.040388,0.292815,432,418,14,6,0,0,0.415422,0.441242,0.094239,0.040388,0.292815,432,418,14,6,0,0:
00000000
00000000
00000000
00000000
,
10000000
00000000
00000000
01000000
00000000
00000000
00010000
00000000
00001000
00000000
00000000
00000000
00000010
00000000
00000000
00000000
,
00000001
00000000
00000000
00000100
00000000
00000000
00001000
00000000
00010000
00000000
00000000
00000000
00100000
00000000
00000000
00000000
,
10000000
01000000
10000000
01000000
00000000
00010000
00001000
00010000
00001000
00000000
00000000
00000000
00000000
00000000
00000000
00000000
,
00000000
00000000
00000000
00000000
,
00000010
00000001
00000100
00000000
00000010
00001000
00000100
00000000
,
00010000
00000000
00000000
00100000
00000000
00000000
10000000
00000000
00010000
00000000
00000000
00000000
01000000
00000000
00000000
00000000
,
00100000
10000000
01000000
00000000
00100000
00010000
01000000
00000000
,
00001000
00000000
00000000
00000010
00000000
00000000
00000001
00000000
00001000
00000000
00000000
00000000
00000100
00000000
00000000
00000000
,
00000010
00001000
00010000
00000000
00100000
00010000
00001000
00000000
,
00011000
00000000
00000000
00000000
00000000
00000000
00100000
00010000
,
10000000
00000000
00000000
01000000
00000000
00000000
00010000
00000000
00001000
00000000
00000000
00000000
00000100
00000000
00000001
00000000
,
00002000
00000000
00000000
00003000
,
00000001
00000100
00001000
00000000
00010000
01000000
10000000
00000000
,
00100000
10000000
01000000
00100000
00010000
00000000
10010000
00000000
,
10000000
01000000
00010000
00000000
00001000
00000100
00000001
00000000
,
00000010
00000000
00000000
00000001
00000000
00000000
00001000
00000000
00000010
00000000
00000000
00000000
00000100
00000000
00000000
00000000
,
00000001
00000010
00001000
00000000
00010000
00100000
10000000
00000000
,
01000000
00010000
00001000
00010000
00000100
00000000
00000010
00000000
,
00000001
00000000
00000000
00000100
00000000
00000000
00001000
00000000
00010000
00000000
00000000
01000000
00000000
10000000
00100000
00000000
,
10000000
00010000
00001000
00000001
,
00001000
00000001
00000100
00001000
00010000
01000000
10000000
00000000
,
00010000
10000000
01000000
00010000
00001000
00000100
00000001
00000000
,
00000010
00000000
00000000
00000001
00000000
00000000
00000100
00000000
00000010
00000000
00000000
00001000
00000000
00000000
00000100
00000000
,
00010000
00001000
00000010
00001000
00010000
00100000
10000000
00000000
,
00010000
10000000
01000000
00010000
00001000
00000100
00000001
00000000
,
00001000
00000001
00000100
00001000
00010000
01000000
10000000
00000000
,
00100000
00000000
00000000
10000000
00000000
00000000
01000000
00000000
00100000
00000000
00000000
00010000
00000000
00000000
01000000
00000000
,
00001000
00010000
00100000
00010000
00011000
00000000
00000110
00000000
,
00001001
00000000
00000000
00000001
00000100
00000000
00000000
00000100
00001000
00000000
00000000
00001000
00010000
00000000
00000000
00010000
,
00001000
00000000
00000000
00001000
01000000
00000000
00000000
01000000
00100000
00000000
00000000
00100000
10000000
00000000
00000000
00000000
,
10010000
00000000
00000000
10000000
01000000
00000000
00000000
01000000
00010000
00000000
00000000
00010000
00001000
00000000
00000000
00001000
,
00010000
00000000
00000000
00010000
00000100
00000000
00000000
00000100
00000010
00000000
00000000
00000010
00000001
00000000
00000000
00000000
,
00001000
00000000
00000000
00001000
00000001
00000000
00000000
00000001
00000100
00000000
00000000
00000100
00001000
00000000
00000000
00001000
,
00100000
00000000
00000000
00100000
00010000
00000000
00000000
00010000
01000000
00000000
00000000
01000000
00100000
00000000
00000000
00000000
,
10000000
01000000
00010000
00001000
00100000
00010000
01000000
00100000
,
00010000
00001000
00000010
00000001
00000100
00001000
00000100
00000010
,
00000100
00000000
00000001
00000010
00000001
00000000
00000100
00000000
00001000
00000000
00011000
00000000
00000000
00000000
00000000
00000000
,
00010000
00000000
01000000
00000000
10000000
00000000
00000000
10000000
00010000
00000000
00000000
00010000
00100000
00000000
00000000
00000000
,
01000000
00000000
10000000
00100000
10000000
00000000
01000000
00000000
00010000
00000000
00011000
00000000
00000000
00000000
00000000
00000000
,
00001000
00000000
00000100
00000000
00000001
00000000
00000000
00000001
00001000
00000000
00000000
00001000
00000010
00000000
00000000
00000000
,
00000100
00000000
00000001
00000010
00000001
00000000
00000100
00000000
00001000
00000000
00011000
00000000
00000000
00000000
00000000
00000000
,
00010000
00000000
01000000
00000000
10000000
00000000
00000000
10000000
00010000
00000000
00000000
00010000
00100000
00000000
00000000
00000000
,
01000000
00000000
00010000
00000000
,
00001000
00000000
00000100
00000000
,
00000001
00000000
00000000
00000100
00000000
00000000
00001000
00000000
00010000
00000000
00000000
00000000
00100000
00000000
00000000
00000000
,
10000000
00000000
00000000
01000000
00000000
00000000
00010000
00000000
00001000
00000000
00000000
00000000
00000010
00000000
00000000
00000000
,
00000001
00000010
00000001
00000010
00000000
00000000
00001000
00000000
00010000
00000000
00000000
00000000
01000000
00000000
00000000
00000000
,
10000000
00100000
10000000
00100000
00000000
00000000
00010000
00000000
00001000
00000000
00000000
00000000
00000100
00000000
00000000
00000000
,
00000002
00000100
00002003
00000010
,
00023000
01000000
20030000
00100000
,
30010000
00000000
00000000
10000000
01000000
00000000
00000000
00100000
,
00010000
01000000
00100000
00010000
00001000
00000010
00000001
00001000
,
00001001
00000000
00000000
00000001
00000100
00000000
00000000
00000100
00001000
00000000
00000000
00001000
00010000
00000000
00000000
00010000
,
00001000
00000000
00000000
00001000
01000000
00000000
00000000
01000000
00100000
00000000
00000000
00100000
10000000
00000000
00000000
00000000
,
10010000
00000000
00000000
10000000
01000000
00000000
00000000
01000000
00010000
00000000
00000000
00010000
00001000
00000000
00000000
00001000
,
00010000
00000000
00000000
00010000
00000100
00000000
00000000
00000100
00000010
00000000
00000000
00000010
00000001
00000000
00000000
00000000
,
00001000
00000000
00000000
00001000
00000001
00000000
00000000
00000001
00000100
00000000
00000000
00000100
00001000
00000000
00000000
00001000
,
00100000
00000000
00000000
00100000
00010000
00000000
00000000
00010000
01000000
00000000
00000000
01000000
00100000
00000000
00000000
00000000
,
10000000
01000000
00010000
00001000
00100000
00010000
01000000
00100000
,
00010000
00001000
00000010
00000001
00000100
00001000
00000100
00000010
,
00000100
00000000
00000001
00000010
00000001
00000000
00000100
00000000
00001000
00000000
00011000
00000000
00000000
00000000
00000000
00000000
,
00010000
00000000
01000000
00000000
10000000
00000000
00000000
10000000
00010000
00000000
00000000
00010000
00100000
00000000
00000000
00000000
,
01000000
00000000
10000000
00100000
10000000
00000000
01000000
00000000
00010000
00000000
00011000
00000000
00000000
00000000
00000000
00000000
,
00001000
00000000
00000100
00000000
00000001
00000000
00000000
00000001
00001000
00000000
00000000
00001000
00000010
00000000
00000000
00000000
,
00000100
00000000
00000001
00000100
00000001
00000000
00000100
00000000
00001000
00000000
00011000
00000000
00000000
00000000
00000000
00000000
,
00010000
00000000
01000000
00000000
10000000
00000000
00000000
10000000
00010000
00000000
00000000
00010000
00100000
00000000
00000000
00000000
,
01000000
10000000
01000000
10000000
00000000
00010000
01000000
00010000
01000000
00000000
00000000
00000000
00000000
00000000
00000000
00000000
,
00200000
00000000
00000000
00000000
,
00300000
00000000
00000000
00000000
;

//---------------dance-double - NewbStepper-DDP----------------
#NOTES:
     dance-double:
     NewbStepper:
     Medium:
     9:
     0.297142,0.301902,0.060582,0.053851,0.077411,309,300,9,8,0,0,0.297142,0.301902,0.060582,0.053851,0.077411,309,300,9,8,0,0:
00000000
00000000
00000000
00000000
,
10000000
00000000
00000000
01000000
00000000
00000000
00100000
00000000
00010000
00000000
00000000
00000000
01000000
00000000
00000000
00000000
,
00001000
00000000
00000000
00010000
00000000
00000000
00001000
00000000
00000010
00000000
00000000
00000000
00000001
00000000
00000000
00000000
,
00001000
00000100
00000010
00000000
,
00000000
00000000
00000000
00000000
,
00000001
00000000
00000100
00000000
00001000
00000000
00010000
00100000
,
00000000
10000000
00000000
01000000
00100000
00000000
00010000
00000000
,
10000000
00000000
01000000
00000000
00010000
00000000
00001000
00000010
,
00000000
00000001
00000000
00000100
00000010
00000000
00001000
00000000
,
00000001
00000100
00000001
00000000
00001000
00000000
00000100
00010000
,
00000000
00001000
00000000
00000000
00100000
00000000
00010000
10000000
,
00010000
10000000
00100000
00010000
,
00001000
00000000
00000000
00000000
,
00000010
00000000
00000001
00000100
00000001
00000000
00001000
00000100
,
00000000
00010000
00001000
00000000
00100000
00000000
00010000
00000000
,
10000000
01000000
10000000
00000000
00010000
00000000
10000000
01000000
,
00010000
00001000
00000100
00000001
,
00000010
00000000
00000001
00000100
00000001
00000000
00001000
00000100
,
00000000
00010000
00001000
00000000
00100000
00000000
00010000
00000000
,
10000000
00000000
00000000
10000000
00000000
00000000
10000000
00000000
01000000
00000000
00000000
00000000
00010000
00000000
00000000
00000000
,
00001000
00000010
00000001
00000000
00000100
00000000
00000010
00000000
,
00000000
00001000
00001000
00000000
00000001
00000010
00001000
00000000
,
00000000
00100000
00100000
00000000
00010000
01000000
00100000
00000000
,
10000000
00000000
00000000
10000000
00000000
00000000
10000000
00000000
00010000
00000000
00000000
00010000
00000000
00000000
00010000
00000000
,
01000000
00000000
00100000
00000000
00000000
10000000
10000000
00000000
,
00000000
00010000
00010000
00000000
10000000
00100000
00010000
00000000
,
00000000
00000010
00000010
00000000
00001000
00000100
00000010
00000000
,
00000001
00000000
00000000
00000001
00000000
00000000
00000001
00000000
00001000
00000000
00000000
00001000
00000000
00000000
00001000
00000000
,
00000100
00000010
00000110
00001001
,
00000010
00000000
00000000
00000010
00000000
00000000
00000010
00000000
00000000
00000000
00000001
00000000
00000100
00000000
00001000
00000000
,
00000000
00001000
00000000
00010000
01000000
00000000
10000000
00000000
,
00100000
00000000
00000000
00100000
00000000
00000000
00100000
00000000
00000000
00000000
10000000
00000000
01000000
00000000
00010000
00000000
,
00000000
00010000
00000000
00001000
00000100
00000000
00000001
00000000
,
00000010
00000001
00000010
00000000
00000100
00001000
00000100
00000000
,
00000010
00001000
00010000
00100000
,
10000000
00000000
00000000
01000000
00000000
00000000
00100000
00000000
00010000
00000000
00000000
00000000
01000000
00000000
00000000
00000000
,
00100000
00000000
00000000
10000000
00000000
00000000
01000000
00000000
00010000
00000000
00000000
00001000
00000000
00000000
00000010
00000000
,
00000001
00000100
00000010
00001000
00000000
00001001
00000000
00000000
,
00000000
00000000
00010000
00000000
00001000
00000000
00000000
00000000
00100000
00000000
00000000
00100000
00000000
00000000
00100000
00000000
,
00010000
01000000
00100000
10000000
00000000
10010000
00000000
00000000
,
00000000
00001000
00010000
00000000
00000010
00001000
00000001
00000000
,
00000100
00001000
00010000
00001000
00000000
00011000
00000000
00000000
,
00000000
00100000
01000000
00000000
10000000
00000000
00010000
00000000
,
20000000
00000000
00000000
00000000
,
30020000
00000000
00000000
00000000
,
10030000
00000000
00000000
01000000
00000000
00000000
00100000
00000000
00010000
00000000
00000000
00000000
00000000
00000000
00000000
00000000
,
00001000
00000000
00000000
00000100
00000000
00000000
00000010
00000000
00000001
00000000
00000000
00000000
00000100
00000000
00000000
00000000
,
00000001
00000000
00000000
00000100
00000000
00000000
00000010
00000000
00001000
00000000
00000000
00000000
00000100
00000000
00000000
00000000
,
00010000
00000000
00000000
00001000
00000000
00000000
00010000
00000000
00100000
00000000
00000000
00000000
10000000
00000000
00000000
00000000
,
00020000
00000000
01030000
00000000
,
00200000
00000000
00310000
00000000
,
00002000
00000000
00023000
00000000
,
00030100
00000010
00000001
00001001
,
00000010
00000000
00000000
00000010
00000000
00000000
00000010
00000000
00000000
00000000
00000001
00000000
00000100
00000000
00001000
00000000
,
00000000
00001000
00000000
00010000
01000000
00000000
10000000
00000000
,
00100000
00000000
00000000
00100000
00000000
00000000
00100000
00000000
00000000
00000000
10000000
00000000
01000000
00000000
00010000
00000000
,
00000000
00010000
00000000
00001000
00000100
00000000
00000001
00000000
,
00000010
00000001
00000010
00000000
00000100
00001000
00000100
00000000
,
00000010
00001000
00010000
00100000
,
10000000
00000000
00000000
01000000
00000000
00000000
00100000
00000000
00010000
00000000
00000000
00000000
01000000
00000000
00000000
00000000
,
00100000
00000000
00000000
10000000
00000000
00000000
01000000
00000000
00010000
00000000
00000000
00001000
00000000
00000000
00000010
00000000
,
00000001
00000100
00000010
00001000
00000000
00001001
00000000
00000000
,
00000000
00000000
00010000
00000000
00001000
00000000
00000000
00000000
00100000
00000000
00000000
00100000
00000000
00000000
00100000
00000000
,
00010000
01000000
00100000
10000000
00000000
10010000
00000000
00000000
,
00000000
00001000
00010000
00000000
00000010
00001000
00000001
00000000
,
00000100
00001000
00010000
00001000
00000000
00011000
00000000
00000000
,
00000000
00100000
01000000
00000000
10000000
00000000
00010000
00000000
,
20000000
00000000
30010000
00000000
,
02000000
00000000
00000000
00000000
,
03000000
00000000
00000000
00000000
;

//---------------dance-double - NewbStepper-BDP----------------
#NOTES:
     dance-double:
     NewbStepper:
     Easy:
     6:
     0.217327,0.278679,0.181747,0.053851,0,226,199,27,8,0,0,0.217327,0.278679,0.181747,0.053851,0,226,199,27,8,0,0:
00000000
00000000
00000000
00000000
,
10000000
00000000
10000000
00000000
,
00010000
00000000
00010000
00000000
,
01000000
00000000
01000000
00000000
,
00000000
00000000
00000000
00000000
,
00001000
00010000
01000000
00010000
,
00001000
00000000
00000000
00000000
,
00010000
00001000
00000100
00001000
,
00010000
00000000
00000000
01000000
,
10000000
00100000
01000000
00010000
,
00100000
00000000
00001000
00000000
,
00000010
00000000
00000100
00000000
,
00002002
00000000
00000000
00003003
,
00000010
00000010
00000001
00000100
,
00000001
00000100
00001000
00010000
,
00001000
00100000
00010000
10000000
,
00010000
00100000
00001000
00010000
,
00100000
10000000
00100000
00010000
,
00001000
00000010
00000001
00000010
,
00001000
00010000
01000000
00010000
,
00001000
00000000
00011000
00000000
,
00000000
01000000
00100000
01100000
,
00000000
00010000
00001000
00011000
,
00000100
00000010
00000100
00000010
,
00000100
00000000
00001001
00000000
,
00000000
00000100
00000010
00000110
,
00000000
00010000
00001000
00011000
,
01000000
00100000
01000000
00100000
,
01000000
00000000
01100000
10010000
,
10010000
10000000
01000000
00010000
,
00001000
00000010
00000001
00001000
,
00001001
00000001
00000100
00001000
,
00010000
00100000
10000000
00010000
,
10010000
10000000
01000000
00010000
,
00001000
00000100
00000001
00000010
,
00002000
00000000
00023000
00000000
,
00031000
00001000
00010000
00010000
,
00011000
00000000
01100000
00000000
,
10000000
00010000
00001000
00000001
,
00001001
00000000
00000110
00000000
,
00000001
00001000
00010000
10000000
,
10010000
00000000
01100000
00000000
,
10000000
00010000
00001000
00000001
,
00000010
00000000
00000000
00000000
,
00000000
00000000
00000000
00000000
,
00000001
00000000
00000001
00000000
,
00001000
00000000
00001000
00000000
,
00010000
00000000
00010000
00000000
,
10000000
00000000
10000000
00000000
,
00010000
00010000
01000000
01000000
,
00100000
00010000
00001000
00000000
,
00000010
00000000
00001000
00000000
,
00010000
00000000
00100000
00000000
,
10010000
10000000
01000000
00010000
,
00001000
00000010
00000001
00001000
,
00001001
00000001
00000100
00001000
,
00010000
00100000
10000000
00010000
,
10010000
10000000
01000000
00010000
,
00001000
00000100
00000001
00000010
,
00002000
00000000
00023000
00000000
,
00031000
00001000
00010000
00010000
,
00011000
00000000
01100000
00000000
,
10000000
00010000
00001000
00000001
,
00001001
00000000
00000110
00000000
,
00000001
00001000
00010000
10000000
,
10010000
00000000
01100000
00000000
,
10000000
00010000
00001000
00000001
,
00000020
00000000
00000030
00000000
,
00000200
00000000
00000000
00000000
,
00000300
00000000
00000000
00000000
;
