#VERSION:0.83;
#TITLE:Rainbow Dream;
#ARTIST:PSYQUI feat. Mo∀;
#ARTISTTRANSLIT:PSYQUI feat. MoA;
#BANNER:Rainbow Dream.png;
#BACKGROUND:Rainbow Dream-bg.png;
#JACKET:Rainbow Dream-jacket.png;
#MUSIC:Rainbow Dream.ogg;
#OFFSET:-10.402;
#SAMPLESTART:33.584;
#SAMPLELENGTH:15;
#BPMS:0=176;

//---------------dance-single - Marten-ESP----------------
#NOTEDATA:;
#CHARTNAME:Marten-ESP;
#STEPSTYPE:dance-single;
#DESCRIPTION:Marten-ESP;
#DIFFICULTY:Hard;
#METER:15;
#RADARVALUES:0.666017,0.884724,0.298641,0.365006,0.294493,562,526,36,44,0,0,0,0,0,0.666017,0.884724,0.298641,0.365006,0.294493,562,526,36,44,0,0,0,0,0;
#CREDIT:Marten;
#NOTES:
// measure 0
0000
0000
0000
0000
,  // measure 1
1010
0000
0010
0000
2000
0000
3100
0010
,  // measure 2
0002
0203
2300
3200
,  // measure 3
0320
0000
1000
0000
0230
0000
0301
0010
,  // measure 4
0020
0230
2300
3002
,  // measure 5
1003
0000
0010
0000
0001
0010
0100
0001
,  // measure 6
1000
0000
0100
0001
0000
0100
1000
0000
,  // measure 7
0002
0203
0320
2030
,  // measure 8
3001
0000
0010
0000
,  // measure 9
1001
0000
0000
0001
0100
0000
0001
0000
,  // measure 10
0000
0000
1000
0100
1000
0000
0000
0000
0100
0000
0000
0000
0010
0000
0100
0000
,  // measure 11
0100
0000
1000
0001
0100
0000
0001
0000
,  // measure 12
0010
0000
0100
0010
0100
0000
0000
0000
2000
0000
0000
0000
3001
0000
0000
0000
,  // measure 13
1000
0010
1000
0010
0001
0010
0001
0010
,  // measure 14
1000
0100
1000
0000
0001
0000
0100
0000
0001
0010
0001
0000
1000
0000
0010
0000
,  // measure 15
1000
0100
1000
0100
1000
0100
1000
0100
0010
0001
0010
0001
0010
0001
0010
0001
,  // measure 16
1000
0010
0001
0100
,  // measure 17
1001
0000
0000
0000
0010
0000
0000
0000
0101
0000
0000
1001
0000
0000
1100
0000
,  // measure 18
0000
0000
0100
0000
0110
0000
0000
0000
0011
0000
0000
1010
0000
0000
0000
0000
,  // measure 19
0101
0000
0000
0000
1000
0000
0000
0000
1100
0000
0000
0100
0000
0000
0010
0000
,  // measure 20
0001
0000
0000
0001
0000
0000
1000
0000
0010
0000
0100
0010
0100
0000
0001
0000
,  // measure 21
1001
0000
0000
0000
1000
0000
0000
0000
1010
0000
0000
0010
0000
0000
0100
0000
,  // measure 22
0001
0000
0010
0000
0010
0000
0000
0000
0110
0000
0000
0010
0000
0000
0001
0000
,  // measure 23
1000
0000
0000
0000
0010
0000
0000
0000
0110
0000
0000
0010
0000
0000
1000
0000
,  // measure 24
0002
0203
2300
3010
,  // measure 25
0001
0000
0000
0000
1200
0000
0000
0000
1300
0000
0000
0010
0100
0000
0001
0000
,  // measure 26
1000
0000
0100
0000
0001
0000
0100
0000
1000
0000
0001
0100
0001
0000
0010
0000
,  // measure 27
0100
0000
0000
0000
0210
0000
0000
0000
0310
0000
0000
0001
1000
0000
0010
0000
,  // measure 28
1000
0000
0000
0100
0000
0000
1000
0000
0010
1000
0001
1000
0001
0000
0010
0000
,  // measure 29
0100
0000
0000
0000
1002
0000
0000
0000
1003
0000
0000
0001
0010
0000
1000
0000
,  // measure 30
0010
0000
0001
0000
0200
0000
0000
0310
1000
0000
0001
0010
0001
0000
1000
0000
,  // measure 31
1100
0000
0000
0101
0000
0000
1100
0000
1000
0000
1000
0000
0200
0000
0300
0000
,  // measure 32
0022
0033
2002
3003
2020
3030
0220
0330
,  // measure 33
0001
0010
1000
0100
,  // measure 34
0001
0000
0000
0000
0010
0000
0000
0000
0100
0000
0000
0000
1000
0010
1000
0001
,  // measure 35
1000
0000
0100
0000
1000
0000
0010
0100
0010
0000
1000
0000
0001
0000
0010
0000
,  // measure 36
0100
0000
0010
0000
0001
0000
0100
0001
0100
0000
0010
0000
1000
0000
0001
0000
,  // measure 37
1000
0000
0010
0000
0100
0000
0001
0010
0001
0000
1000
0000
0100
0000
0001
0000
,  // measure 38
0100
0000
1000
0000
0010
0000
1000
0001
1000
0000
0010
0000
0100
0000
1000
0000
,  // measure 39
0100
0000
0010
0000
1000
0000
0001
0010
0001
0000
0100
0000
0010
0000
0001
0000
,  // measure 40
0010
0000
0100
0000
0001
0000
0010
0001
0010
0000
0100
0000
0001
0000
0100
0000
,  // measure 41
1000
0000
0010
0000
1000
0000
0001
0100
0001
0000
1000
0000
0010
0000
0001
0000
,  // measure 42
0010
0000
0100
0000
0001
0000
1000
0100
1000
0000
0001
0000
0010
0000
0100
0000
,  // measure 43
1000
0000
0000
0000
1000
0000
0010
0100
0001
0000
1000
0000
0100
0000
1000
0000
,  // measure 44
0001
0000
0010
0000
0100
0000
1000
0001
0100
0000
0010
0000
0001
0000
0010
0000
,  // measure 45
0100
0000
0001
0000
1000
0000
0100
1000
0001
0000
0010
0000
0100
0000
0010
0000
,  // measure 46
0001
0000
1000
0000
0010
0000
0100
0010
1000
0000
0100
0000
0001
0000
1000
0000
,  // measure 47
0010
0000
0001
0000
1000
0000
0010
1000
0001
0000
0100
0000
0001
0000
0010
0000
,  // measure 48
0100
0000
0010
0000
0001
0000
1000
0010
0100
0000
0001
0000
1000
0000
0001
0000
,  // measure 49
0010
0000
0100
0000
1000
0000
0010
1000
0100
0000
0010
0000
0001
0000
1000
0000
,  // measure 50
0001
0000
0000
0000
1000
0000
0000
0010
,  // measure 51
0220
0000
0000
0000
,  // measure 52
0000
0000
0000
0000
,  // measure 53
0000
0000
0000
0000
,  // measure 54
0330
0000
2000
3001
,  // measure 55
1000
0100
1000
0100
0001
0100
0001
0100
,  // measure 56
1000
0010
1000
0000
0001
0000
0100
0000
0001
0010
0001
0000
1000
0000
0100
0000
,  // measure 57
1000
0001
1000
0001
1000
0001
1000
0001
0100
0010
0100
0010
0100
0010
0100
0010
,  // measure 58
0100
0001
1000
0100
,  // measure 59
0011
0000
0000
0000
0100
0000
0000
0000
1001
0000
0000
1000
0000
0000
0010
0000
,  // measure 60
0100
0000
0001
0000
0001
0000
0000
0000
1001
0000
0000
0001
0000
0000
0010
0000
,  // measure 61
0100
0000
0000
0000
0010
0000
0000
0000
0110
0000
0000
0100
0000
0000
1000
0000
,  // measure 62
0010
0000
0000
0100
0000
0000
0001
0000
1001
0000
0000
0000
1000
0000
0000
0000
,  // measure 63
0001
0000
0000
0000
0100
0000
0000
0000
1010
0000
0000
1000
0000
0000
0001
0000
,  // measure 64
1000
0000
0100
0000
0100
0000
0000
0000
0011
0000
0000
0001
0000
0000
1000
0000
,  // measure 65
0010
0000
0000
0000
0100
0000
0000
0000
0101
0000
0000
0001
0000
0000
1000
0000
,  // measure 66
0100
1000
1000
0001
1000
0100
0010
0001
,  // measure 67
2000
0000
0000
0000
3010
0000
0000
0000
2010
0000
3010
0000
0100
0000
0001
0100
,  // measure 68
0001
1000
0100
1000
0001
0010
0100
1000
,  // measure 69
0002
0000
0010
0000
0010
0000
0013
0000
0200
0000
0010
0000
0310
0000
0001
1000
,  // measure 70
0001
0000
0100
0000
0010
0000
1000
0010
1000
0000
0100
0000
0001
0000
0100
0000
,  // measure 71
2000
0000
0010
0000
0010
0000
3010
0000
0200
0000
0010
0000
0310
0000
1000
0001
,  // measure 72
1000
0100
0010
0001
1000
0100
0001
0100
,  // measure 73
1000
0000
0010
0000
0100
0000
0001
0000
1000
0000
0001
0010
0001
0000
0100
0000
,  // measure 74
0010
0001
0010
0100
0001
0010
0100
1000
,  // measure 75
0002
0000
0100
0000
0100
0000
0103
0000
0020
0000
0100
0000
0130
0000
0001
1000
,  // measure 76
0100
0010
1000
0010
0001
1000
0010
0001
,  // measure 77
0010
0000
1000
0000
0001
0000
1000
0000
0100
0000
0001
0100
1000
0000
0001
0000
,  // measure 78
1001
1000
0010
0010
0100
0100
0002
0000
,  // measure 79
1003
0000
0000
0000
;

//---------------dance-single - Marten-DSP----------------
#NOTEDATA:;
#CHARTNAME:Marten-DSP;
#STEPSTYPE:dance-single;
#DESCRIPTION:Marten-DSP;
#DIFFICULTY:Medium;
#METER:12;
#RADARVALUES:0.553434,0.557049,0.257163,0.315232,0.091251,467,436,31,38,0,0,0,0,0,0.553434,0.557049,0.257163,0.315232,0.091251,467,436,31,38,0,0,0,0,0;
#CREDIT:Marten;
#NOTES:
0000
0000
0000
0000
,
1001
0000
0001
0000
0200
0000
0301
0010
,
0002
2003
3002
0203
,
0320
0000
0100
0000
2030
0000
3001
0100
,
0200
0302
2003
3200
,
1300
0000
0001
0000
1000
0010
0100
0001
,
1000
0000
0100
1000
0000
0001
1000
0000
,
0020
2030
3002
0023
,
0130
0000
0010
0000
,
1001
0000
0000
0001
1000
0000
1000
0000
,
0000
0010
0100
0000
0100
0000
0001
0010
,
0001
0000
1000
0100
0001
0000
0100
0000
,
1000
0010
0100
0000
0002
0000
1003
0000
,
0001
0010
0001
0010
0100
1000
0100
1000
,
0001
0100
0010
0100
0001
1000
0100
0010
,
0001
1000
0010
0100
0001
1000
0100
0010
,
0001
0100
0010
1000
,
1001
0000
0000
0000
0100
0000
0000
0000
1010
0000
0000
1010
0000
0000
1010
0000
,
0000
0000
0100
0000
0001
0000
0000
0000
0101
0000
0000
0101
0000
0000
0000
0000
,
1001
0000
0000
0000
0100
0000
0000
0000
0011
0000
0000
0010
0000
0000
0100
0000
,
1000
0000
0000
1000
0000
0000
1000
0000
0002
0000
0000
0000
0103
0000
0000
0000
,
0010
0000
0000
0000
0100
0000
0000
0000
1001
0000
0000
0001
0000
0000
0010
0000
,
0100
0000
0010
0000
0010
0000
0000
0000
0001
0000
0000
1000
0000
0000
0010
0000
,
0100
0000
0000
0000
0010
0000
0000
0000
1010
0000
0000
1000
0000
0000
0001
0000
,
2000
3020
0230
0301
,
0010
0000
0000
0000
1001
0000
0000
0000
0001
0000
0000
0100
0000
0000
0001
0000
,
0010
0000
0100
0000
0100
0000
0000
0000
1000
0000
0000
0010
0000
0000
0100
0000
,
0010
0000
0000
0000
0110
0000
0000
0000
0100
0000
0000
0001
0000
0000
1000
0000
,
0001
0000
0000
0010
0000
0000
0100
0000
1000
0000
0001
0000
1000
0000
0000
0000
,
0001
0000
0000
0000
0011
0000
0000
0000
0100
0000
0000
1000
0000
0000
0001
0000
,
0100
0000
0010
0000
0010
0000
0000
0000
1000
0000
0000
0010
0000
0000
0100
0000
,
0101
0000
0000
0101
0000
0000
0101
0000
0000
0000
0001
0000
2000
0000
3000
0000
,
2020
3030
2002
3003
0022
0033
0220
0330
,
1000
0010
0100
0001
,
1000
0000
0100
0000
0001
0000
0100
1000
,
0001
0000
0100
0001
0010
0001
0100
0000
,
0010
1000
0001
1000
0100
1000
0001
0000
,
0100
0000
0001
0010
0100
0010
0001
0000
,
1000
0010
0100
0010
1000
0001
0010
0100
,
1000
0000
0001
0000
1000
0100
0001
0100
,
1000
0000
0001
0100
0001
0010
0100
0000
,
1000
0010
0100
0000
0001
0010
0100
0000
,
1000
0010
0001
0010
1000
0100
0001
0100
,
1000
0000
0001
0100
0001
0010
0100
0010
,
0001
1000
0010
1000
0100
1000
0001
0000
,
1000
0010
0001
0000
0001
0010
1000
0000
,
0001
0010
0100
1000
0001
0100
0010
1000
,
0001
0000
1001
0000
1000
0010
0001
0010
,
1000
0000
0001
0010
0100
0001
0100
0000
,
1000
0010
0100
0010
1000
0100
0010
0100
,
1000
0000
0000
0000
0001
0000
0000
0200
,
0020
0000
0000
0000
,
0000
0000
0000
0000
,
0000
0000
0000
0000
,
0330
0000
2000
3001
,
1000
0010
1000
0010
0100
0001
0100
0001
,
1000
0100
0010
0001
0100
0010
0100
0001
,
1000
0100
0010
1000
0010
0001
1000
0010
,
1000
0010
0100
0001
,
0011
0000
0000
0000
0100
0000
0000
0000
1100
0000
0000
1000
0000
0000
0010
0000
,
0100
0000
0001
0000
0001
0000
0000
0000
1001
0000
0000
0001
0000
0000
0010
0000
,
0100
0000
0000
0000
1000
0000
0000
0000
1010
0000
0000
0010
0000
0000
0100
0000
,
0001
0000
0000
1000
0000
0000
0100
0000
1000
0000
0001
0000
0100
0000
0000
0000
,
0010
0000
0000
0000
0100
0000
0000
0000
1001
0000
0000
0001
0000
0000
0010
0000
,
0001
0000
0100
0000
0100
0000
0000
0000
0110
0000
0000
0010
0000
0000
1000
0000
,
0001
0000
0000
0000
0010
0000
0000
0000
0110
0000
0000
0100
0000
0000
1000
0000
,
0001
0000
0000
0100
0000
0000
0001
0000
1000
0000
0010
0000
0100
0000
0001
0000
,
2000
0000
3100
0000
2100
0000
3100
1000
,
0010
1000
0001
0100
0010
0100
0001
1000
,
0200
0000
0010
0000
1000
0000
0310
0001
,
0100
0001
0010
0100
0010
0001
1000
0010
,
0200
0000
0001
0000
0010
0000
0301
1000
,
0001
0100
0001
0010
0100
0010
0001
1000
,
0001
0100
0010
1000
0010
1000
0100
0010
,
0001
1000
0100
0001
0100
1000
0001
0100
,
0020
0000
0100
0000
0001
0000
0130
0001
,
1000
0100
1000
0001
0100
0001
0010
0100
,
1000
0010
0001
0010
1000
0100
0010
0001
,
1000
0100
1000
0001
0100
0100
0200
0000
,
0310
0000
0000
0000
;

//---------------dance-single - Marten-BSP----------------
#NOTEDATA:;
#CHARTNAME:Marten-BSP;
#STEPSTYPE:dance-single;
#DESCRIPTION:Marten-BSP;
#DIFFICULTY:Easy;
#METER:7;
#RADARVALUES:0.368561,0.425978,0.315232,0.265459,0,311,273,38,32,0,0,0,0,0,0.368561,0.425978,0.315232,0.265459,0,311,273,38,32,0,0,0,0,0;
#CREDIT:Marten;
#NOTES:
0000
0000
0000
0000
,
1000
0100
2000
0000
,
3020
0230
0302
2003
,
3002
0000
0000
0000
0023
0000
0000
0130
,
0200
2300
3002
0203
,
0300
0001
1000
0010
,
0200
0000
0000
0320
0000
0000
2030
0000
,
3002
0023
0230
2300
,
3001
0000
1000
0000
,
1001
0000
0001
0100
,
0000
0010
0100
0001
,
1000
0000
0100
0010
,
0000
0100
0100
0000
,
1000
0010
0100
0001
,
1000
0100
0001
0100
,
1000
0010
0001
0010
,
1000
1000
1000
1000
,
1001
0000
0001
0000
0201
0000
0000
0310
,
0000
1000
1001
0000
,
0001
0010
0011
0010
,
0100
1000
1001
1000
,
0010
0100
0110
0100
,
0001
1000
1001
1000
,
0100
0010
0011
0010
,
0100
0000
0100
0000
0100
0000
0020
0030
,
0001
1001
0001
0100
,
0010
1010
0010
1000
,
0100
1100
0100
0010
,
0001
1001
0001
1000
,
0010
1010
1000
0100
,
0010
0011
0001
1000
,
2002
0000
0000
0003
0000
0000
3000
0000
0020
0000
0030
0000
0000
0000
0000
0000
,
1010
1001
0101
0110
,
2000
0100
0001
0001
,
0010
0010
3001
0000
,
1000
0100
1000
0100
,
0010
0001
0010
0001
,
0100
0001
0100
0001
,
1000
0010
1000
0010
,
1000
0001
1000
0001
,
0100
0010
0100
0010
,
1000
0100
0010
0001
,
0010
0100
2000
3000
,
0001
0100
0010
0100
,
0001
1000
0100
0010
,
0100
1000
0001
0100
,
1000
0100
0001
0010
,
1000
0010
0001
1000
,
0010
0001
0010
1000
,
0001
0010
0100
1000
,
0001
0000
1000
0000
,
2002
0000
0000
0000
,
0000
0000
0000
0000
,
0000
0000
0000
0000
,
3003
0000
0100
0100
,
0001
0010
0100
1000
,
0001
0100
1000
0100
,
0001
0010
1000
0010
,
0001
0001
0001
0001
,
1001
0100
1010
0000
,
1001
0100
0011
0000
,
1001
0010
1100
0000
,
1001
0010
0101
0000
,
0101
0010
1001
0000
,
1100
0010
1001
0000
,
1010
0100
1001
0000
,
0011
0100
1001
0002
,
0000
1003
1001
0001
,
0100
0001
1000
1000
,
0200
0310
0100
0100
,
1000
0010
0100
0001
,
2000
3001
0100
0100
,
0001
0010
0100
0100
,
1000
0010
0001
0010
,
1000
0100
0001
0100
,
2000
3010
0100
0100
,
0001
0010
0100
0100
,
1000
0100
0001
0100
,
1000
1000
0001
0002
,
1003
0000
0000
0000
;

//---------------dance-single - Marten-bSP----------------
#NOTEDATA:;
#CHARTNAME:Marten-bSP;
#STEPSTYPE:dance-single;
#DESCRIPTION:Marten-bSP;
#DIFFICULTY:Beginner;
#METER:4;
#RADARVALUES:0.197909,0.262141,0.099547,0.082956,0,167,155,12,10,0,0,0,0,0,0.197909,0.262141,0.099547,0.082956,0,167,155,12,10,0,0,0,0,0;
#CREDIT:Marten;
#NOTES:
0000
0000
0000
0000
,
0000
0000
0002
0003
,
1000
1000
1000
0000
,
0020
0030
0200
0300
,
0001
0000
1000
1000
,
0000
0000
0001
0000
,
0010
0000
0100
0000
,
1000
1000
0001
0001
,
1000
0000
0010
0000
,
0220
0000
0000
0000
,
0000
0000
0000
0000
,
0000
0000
0000
0000
,
0330
0000
0010
0010
,
0020
0000
0000
0000
,
0000
0000
0000
0000
,
0000
0000
0030
0000
,
0100
0100
0100
0100
,
0100
0000
0001
0000
,
0000
1000
1000
0000
,
0001
0000
0010
0000
,
0100
0000
1000
1000
,
1000
0000
0001
0000
,
1000
0000
0010
0000
,
0100
0000
0010
0000
,
1000
1000
1000
0000
,
0001
0000
0100
0000
,
0001
0000
0010
0010
,
0010
0000
0100
0000
,
1000
0000
0001
0001
,
0001
0000
1000
0000
,
0010
0000
0100
0000
,
0010
0010
0010
0000
,
0001
0001
1000
2000
,
0000
0000
0000
0000
,
0000
0000
3000
0000
,
0001
0000
0100
0000
,
0001
0001
0001
0001
,
0000
0000
1000
0000
,
0100
0100
0100
0100
,
0000
0000
0010
0000
,
0001
0000
1000
0000
,
0001
0000
1000
0000
,
0010
0010
0010
0000
,
0100
0000
0010
0000
,
1000
1000
1000
0000
,
0001
0000
1000
0000
,
0100
0100
0100
0000
,
0000
0000
0010
0000
,
0001
0000
1000
0000
,
0001
0001
1000
1000
,
0001
0000
0100
0000
,
0220
0000
0000
0000
,
0000
0000
0000
0000
,
0000
0000
0000
0000
,
0330
0000
0001
0001
,
0002
0000
0000
0000
,
0000
0000
0000
0000
,
0000
0000
0003
0000
,
1000
1000
1000
1000
,
1000
0000
1001
0000
,
0001
0000
1001
0000
,
1000
0000
1001
0000
,
0001
0000
1001
0000
,
0100
0000
0110
0000
,
0010
0000
0110
0000
,
0100
0000
0110
0000
,
0010
0000
0110
0000
,
0000
0000
1001
0000
,
0001
0000
1000
0000
,
0100
0000
0100
0000
,
0010
0010
0010
0000
,
0001
0000
1000
0000
,
0010
0010
0010
0000
,
0100
0000
0010
0000
,
1000
0000
0001
0001
,
0001
0000
1000
0000
,
0100
0000
1000
0000
,
0001
0000
1000
0000
,
0010
0010
0010
0000
,
0110
0000
0000
0000
;

//---------------dance-double - NewbStepper-EDP----------------
#NOTEDATA:;
#CHARTNAME:NewbStepper-EDP;
#STEPSTYPE:dance-double;
#DESCRIPTION:NewbStepper-EDP;
#DIFFICULTY:Hard;
#METER:14;
#RADARVALUES:0.687349,0.720887,0.464553,0.240572,0.282050,580,524,56,29,0,0,0,0,0,0.687349,0.720887,0.464553,0.240572,0.282050,580,524,56,29,0,0,0,0,0;
#CREDIT:NewbStepper;
#NOTES:
00000000
00000000
00000000
00000000
,
10100000
00100000
20000000
31000000
,
00010000
00001000
00000100
00000001
00001000
00000100
00000010
00000001
,
00002000
00000000
00000100
00000000
00003002
00000000
00000013
00001000
,
00020000
02030000
03200000
00320000
,
10030000
00000000
00100000
00000000
00010000
00100000
01000000
00100000
,
00010000
00000000
00001000
00000100
00000001
00000010
00000100
00000000
,
00020000
02030000
23000000
30200000
,
00310000
00000000
00001000
00000000
,
00011000
00000000
00000000
00000000
00010000
00000000
01000000
00000000
10000000
00000000
00000000
00100000
00000000
00000000
10000000
00000000
,
01000000
00010000
00000000
00001000
00000100
00000001
00000100
00001000
,
00010000
00000000
00000000
00000000
00001000
00000000
00000000
00000000
00000010
00000000
00000000
00000001
00000000
00000000
00000100
00000000
,
00001000
00010000
00100000
10000000
00000000
00000000
00000000
00000000
,
00010000
00000000
00000000
00000000
00010000
00000000
00000000
00000000
00010000
00000000
00000000
10000000
01000000
00000000
00010000
00000000
,
00001000
00010000
00001000
00000000
00100000
00000000
01000000
00000000
10000000
00100000
10000000
00000000
01000000
00000000
00010000
00000000
,
00001000
00001000
00010000
00010000
00000010
00000010
00000100
00000100
,
00000110
00001010
00000101
00001001
,
00000011
00000000
00000000
00000000
00000100
00000000
00000000
00000000
00001010
00000000
00000000
00010010
00000000
00000000
00011000
00000000
,
00000000
00000000
00100000
00000000
01000000
00000000
00000000
00000000
01100000
00000000
00000000
10010000
00000000
00000000
00000000
00000000
,
11000000
00000000
00000000
00000000
00100000
00000000
00000000
00000000
00110000
00000000
00000000
00101000
00000000
00000000
00011000
00000000
,
00001000
00000000
00000000
00000100
00000000
00000000
00000001
00000000
00000010
00000000
00001000
00000000
00010000
00000000
00100000
00000000
,
10100000
00000000
00000000
00000000
01000000
00000000
00000000
00000000
00110000
00000000
00000000
00101000
00000000
00000000
00011000
00000000
,
00010000
00000000
00000010
00000000
00000100
00000000
00000000
00000000
00000110
00000000
00000000
00000101
00000000
00000000
00000110
00000000
,
00000001
00000000
00000000
00000000
00000100
00000000
00000000
00000000
00001010
00000000
00000000
00010010
00000000
00000000
00011000
00000000
,
00002000
00023000
02030000
03100000
,
00001000
00000000
00010000
00000000
00200000
00000000
00000000
00000000
10300000
00000000
00000000
01000000
00100000
00000000
00010000
00000000
,
10000000
00000000
01000000
00000000
00010000
00000000
00001000
00000000
00000100
00000000
00000000
00000001
00001000
00000000
00000100
00000000
,
00010000
00000000
00001000
00000000
00000020
00000000
00000000
00000000
00000031
00000000
00000000
00000100
00000010
00000000
00001000
00000000
,
00000001
00000000
00000100
00000000
00001000
00000000
00010000
00000000
00100000
10000000
00000000
10000000
01000000
00000000
00100000
00000000
,
00001000
00000000
00010000
00000000
00200000
00000000
00000000
00000000
10300000
00000000
00000000
00010000
01000000
00000000
00100000
00000000
,
00010000
00000000
00001000
00000000
00000020
00000000
00000000
00000000
00000031
00000000
00000000
00001000
00000100
00000000
00000010
00000000
,
00000011
00000000
00000000
00000101
00000000
00000000
00000101
00000000
00000001
00000000
00000100
00000000
00001100
00000000
00000000
00000000
,
00021000
00030100
00012000
01003000
,
00100000
10000000
01000000
00010000
,
00001000
00000000
00000000
00000000
00000010
00000000
00000000
00000000
00000001
00000000
00000000
00000000
00000100
00000010
00001000
00000010
,
00001000
00000000
00000100
00000000
00000010
00000000
00000001
00001000
00000010
00000000
00010000
00000000
00001000
00000000
00000100
00000000
,
00000010
00000000
00001000
00000000
00010000
00000000
01000000
00100000
01000000
00000000
00010000
00000000
10000000
00000000
00010000
00000000
,
00100000
00000000
01000000
00000000
10000000
00000000
00010000
01000000
00100000
00000000
10000000
00000000
01000000
00000000
00010000
00000000
,
00001000
00000000
00000100
00000000
00000001
00000000
00000010
00000100
00000010
00000000
00001000
00000000
00010000
00000000
00001000
00000000
,
00000010
00000000
00000001
00000000
00000100
00000000
00001000
00010000
00001000
00000000
00000010
00000000
00001000
00000000
00010000
00000000
,
00100000
00000000
10000000
00000000
01000000
00000000
00010000
00001000
00010000
00000000
00100000
00000000
00010000
00000000
00001000
00000000
,
00000010
00000001
00000000
00000000
00000001
00000100
00000000
00000000
00000100
00000010
00000000
00000000
00000010
00001000
00000000
00000000
,
00001000
00010000
00000000
00000000
00010000
01000000
00000000
00000000
01000000
00100000
00000000
00000000
00100000
10000000
00000000
00000000
,
00010000
00000000
01000000
00000000
00100000
00000000
10000000
00010000
00100000
00000000
00001000
00000000
00010000
00000000
01000000
00000000
,
00100000
00000000
00010000
00000000
00001000
00000000
00000100
00000010
00000100
00000000
00001000
00000000
00000001
00000000
00001000
00000000
,
00000010
00000000
00000100
00000000
00000001
00000000
00001000
00000100
00000010
00000000
00000001
00000000
00000100
00000000
00001000
00000000
,
00010000
00000000
01000000
00000000
10000000
00000000
00100000
01000000
00100000
00000000
00010000
00000000
00001000
00000000
00010000
00000000
,
00100000
00000000
10000000
00000000
01000000
00000000
00010000
00001000
00010000
00000000
00100000
00000000
00010000
00000000
00001000
00000000
,
00000010
00000000
00000001
00000000
00000100
00000000
00001000
00010000
00001000
00000000
00000010
00000000
00001000
00000000
00010000
00000000
,
00100000
10000000
00000000
00000000
10000000
01000000
00000000
00000000
01000000
00100000
00000000
00000000
00100000
00010000
00000000
00000000
,
10010000
00000000
10000000
01000000
10000000
00000000
01000000
00000000
00010000
00000000
00001000
00010000
00001000
00000000
00000100
00000010
,
00002000
00000000
00000100
00000000
,
00000001
00000000
00000010
00000000
,
00023000
00000000
01000000
00000000
,
10000000
00000000
00100000
00000000
,
00031000
00000100
00001000
00000100
00000010
00000001
00000010
00000001
,
00000100
00001000
00000100
00001000
00010000
01000000
00010000
01000000
,
10000000
00100000
10000000
00000000
00010000
00100000
00010000
00000000
00100000
00001000
00100000
00000000
00001000
00010000
00001000
00010000
,
00000100
00001000
00000001
00001001
,
00000011
00000000
00000000
00000000
00000100
00000000
00000000
00000000
00001010
00000000
00000000
00010010
00000000
00000000
00011000
00000000
,
00000000
00000000
00100000
00000000
01000000
00000000
00000000
00000000
01100000
00000000
00000000
10010000
00000000
00000000
00000000
00000000
,
11000000
00000000
00000000
00000000
00100000
00000000
00000000
00000000
00110000
00000000
00000000
00101000
00000000
00000000
00011000
00000000
,
00001000
00000000
00000000
00000100
00000000
00000000
00000001
00000000
00000010
00000000
00001000
00000000
00010000
00000000
00100000
00000000
,
10100000
00000000
00000000
00000000
01000000
00000000
00000000
00000000
00110000
00000000
00000000
00101000
00000000
00000000
00011000
00000000
,
00010000
00000000
00000010
00000000
00000100
00000000
00000000
00000000
00000110
00000000
00000000
00000101
00000000
00000000
00000110
00000000
,
00000001
00000000
00000000
00000000
00000100
00000000
00000000
00000000
00001010
00000000
00000000
00010010
00000000
00000000
00011000
00000000
,
00001000
00010000
01000000
00000000
00010000
00001000
00000100
00000001
,
00000020
00000000
00000000
00000000
00000130
00000000
00000000
00000000
00001001
00000000
00000000
00000000
00000010
00000000
00000001
00000100
,
00000001
00000010
00001000
00010000
00001000
01000000
00100000
00010000
,
00002000
00000000
01000000
00000000
01000000
00000000
01003000
00000000
00200000
00000000
10000000
00000000
10300000
00000000
01000000
00100000
,
01000000
00000000
00010000
00000000
00001000
00000000
00100000
00010000
00100000
00000000
01000000
00000000
10000000
00000000
01000000
00000000
,
00020000
00000000
00000100
00000000
00000100
00000000
00030100
00000000
00000020
00000000
00000001
00000000
00000031
00000000
00000100
00000010
,
00000100
00001000
00010000
00000100
00001000
00000100
00010000
01000000
,
00100000
00000000
01000000
00000000
10000000
00000000
00100000
00000000
10000000
00000000
01000000
00100000
00010000
00000000
00100000
00000000
,
00001000
00010000
01000000
00010000
00001000
00000100
00000001
00000010
,
00002000
00000000
01000000
00000000
01000000
00000000
01003000
00000000
00200000
00000000
10000000
00000000
10300000
00000000
01000000
00100000
,
01000000
00010000
00001000
01000000
00010000
01000000
00001000
00000100
,
00000010
00000000
00000100
00000000
00000001
00000000
00000010
00000000
00000001
00000000
00000100
00000010
00001000
00000000
00000010
00000000
,
00010000
00001000
00000100
00001000
00010000
01000000
10000000
00000000
,
10010000
00000000
00000000
00000000
;

//---------------dance-double - NewbStepper-DDP----------------
#NOTEDATA:;
#CHARTNAME:NewbStepper-DDP;
#STEPSTYPE:dance-double;
#DESCRIPTION:NewbStepper-DDP;
#DIFFICULTY:Medium;
#METER:12;
#RADARVALUES:0.538028,0.557049,0.223981,0.331824,0.091251,454,427,27,40,0,0,0,0,0,0.538028,0.557049,0.223981,0.331824,0.091251,454,427,27,40,0,0,0,0,0;
#CREDIT:NewbStepper;
#NOTES:
00000000
00000000
00000000
00000000
,
00001001
00000000
00000001
00000000
00000200
00000000
00000301
00000010
,
00000002
00002003
00003200
00020300
,
00032000
00000000
01000000
00000000
00023000
00000000
00031000
01000000
,
02000000
23000000
32000000
03020000
,
00130000
00000000
00001000
00000000
00100000
00010000
00001000
00000100
,
00001000
00000000
00000001
00000100
00000000
00000001
00001000
00000000
,
00000020
00020030
00032000
00003020
,
00000130
00000000
00001000
00000000
,
00001001
00000000
00000000
00000001
00000100
00000000
00000100
00000000
,
00000000
00001000
00010000
00000000
00010000
00000000
00100000
10000000
,
00100000
00000000
10000000
01000000
00010000
00000000
00001000
00000000
,
00100000
00001000
00010000
00000000
00000020
00000000
00000130
00000000
,
00000001
00000010
00000001
00000010
00000100
00001000
00000100
00001000
,
00000010
00010000
00001000
00010000
00000100
00010000
00001000
00100000
,
00010000
10000000
00100000
01000000
00010000
00100000
00001000
00010000
,
00000010
00001000
00000100
00000010
,
00001001
00000000
00000000
00000000
00000100
00000000
00000000
00000000
00000010
00000000
00000000
00001000
00000000
00000000
00011000
00000000
,
00000000
00000000
00010000
00000000
00100000
00000000
00000000
00000000
01100000
00000000
00000000
01100000
00000000
00000000
00000000
00000000
,
10010000
00000000
00000000
00000000
01000000
00000000
00000000
00000000
00100000
00000000
00000000
00010000
00000000
00000000
00011000
00000000
,
00001000
00000000
00000000
00000010
00000000
00000000
00000100
00000000
00000110
00000000
00000000
00000000
00001000
00000000
00000000
00000000
,
00000001
00000000
00000000
00000000
00000100
00000000
00000000
00000000
00001000
00000000
00000000
00010000
00000000
00000000
00100000
00000000
,
10000000
00000000
00010000
00000000
00100000
00000000
00000000
00000000
10000000
00000000
00000000
00100000
00000000
00000000
00010000
00000000
,
10000000
00000000
00000000
00000000
01000000
00000000
00000000
00000000
00010000
00000000
00000000
00001000
00000000
00000000
00000010
00000000
,
00000002
00000203
00000320
00001030
,
00000010
00000000
00000000
00000000
00001001
00000000
00000000
00000000
00000001
00000000
00000000
00000100
00000000
00000000
00001000
00000000
,
00010000
00000000
00100000
00000000
00100000
00000000
00000000
00000000
10000000
00000000
00000000
00010000
00000000
00000000
01000000
00000000
,
00100000
00000000
00000000
00000000
10010000
00000000
00000000
00000000
10000000
00000000
00000000
01000000
00000000
00000000
00010000
00000000
,
00001000
00000000
00000000
00000100
00000000
00000000
00000001
00000000
00001000
00000000
00000010
00000000
00000100
00000000
00000000
00000000
,
00000001
00000000
00000000
00000000
00000011
00000000
00000000
00000000
00000100
00000000
00000000
00001000
00000000
00000000
00000010
00000000
,
00000100
00000000
00001000
00000000
00010000
00000000
00000000
00000000
00100000
00000000
00000000
01000000
00000000
00000000
00010000
00000000
,
10000000
00000000
00000000
00100000
00000000
00000000
01100000
00000000
10000000
00000000
10000000
00000000
00020000
00000000
00030000
00000000
,
00220000
00330000
20020000
30030000
20200000
30300000
02200000
03300000
,
10000000
01000000
00100000
00010000
,
00001000
00000100
00000010
00000001
,
00001000
00000000
00000001
00000100
00001000
00000000
00010000
00000100
,
00001000
00000100
00000010
00000100
00010000
01000000
10000000
00000000
,
00010000
00000000
10000000
00000000
00100000
10000000
00010000
00000000
,
00100000
00001000
00010000
00100000
00010000
00001000
00100000
00010000
,
10000000
00000000
00010000
00000000
10000000
01000000
00010000
00001000
,
00000100
00000000
00000001
00000100
00000000
00000001
00000010
00000000
,
00001000
00000010
00000100
00000000
00010000
00001000
00000100
00000000
,
00001000
00010000
01000000
10000000
00100000
00010000
00100000
10000000
,
00010000
00000000
10000000
01000000
00010000
00000000
00001000
01000000
,
00010000
01000000
00100000
01000000
00001000
00000100
00000001
00000000
,
00000020
00000032
00000203
00002300
,
00013000
01000000
00100000
00010000
01000000
00100000
10000000
00010000
,
01000000
00000000
10010000
00000000
00100000
10000000
01000000
00010000
,
00001000
00000000
00000010
00000100
00000000
00000010
00001000
00000000
,
00010000
00001000
00000100
00000001
00000010
00001000
00000010
00000001
,
00001000
00000000
00000000
00000000
00000001
00000000
00000000
00000200
,
00000020
00000000
00000000
00000000
,
00000000
00000000
00000000
00000000
,
00000000
00000000
00000000
00000000
,
00000330
00000000
00020000
00031000
,
00010000
00000100
00010000
00000100
00001000
00000010
00001000
00000010
,
00000100
00000001
00001000
00000100
00000010
00000001
00000100
00000010
,
00001000
00000100
00010000
00001000
00010000
00100000
10000000
00010000
,
00100000
00010000
01000000
00100000
,
10010000
00000000
00000000
00000000
01000000
00000000
00000000
00000000
00100000
00000000
00000000
00010000
00000000
00000000
00011000
00000000
,
00000000
00000000
00001000
00000000
00000010
00000000
00000000
00000000
00000110
00000000
00000000
00000110
00000000
00000000
00000000
00000000
,
00001001
00000000
00000000
00000000
00000100
00000000
00000000
00000000
00000010
00000000
00000000
00001000
00000000
00000000
00011000
00000000
,
00010000
00000000
00000000
00100000
00000000
00000000
01000000
00000000
01100000
00000000
00000000
00000000
00010000
00000000
00000000
00000000
,
10000000
00000000
00000000
00000000
01000000
00000000
00000000
00000000
00010000
00000000
00000000
00001000
00000000
00000000
00000010
00000000
,
00000001
00000000
00001000
00000000
00000010
00000000
00000000
00000000
00000001
00000000
00000000
00000010
00000000
00000000
00001000
00000000
,
00000001
00000000
00000000
00000000
00000100
00000000
00000000
00000000
00001000
00000000
00000000
00010000
00000000
00000000
00100000
00000000
,
10000000
00000000
00000000
01000000
00000000
00000000
10000000
00000000
00010000
00000000
01000000
00000000
00100000
00000000
10000000
00000000
,
02000000
00000000
03010000
00000000
00012000
00000000
00013000
01000000
,
00010000
00001000
00000100
00000001
00001000
00000001
00000010
00000100
,
00002000
00000000
00000100
00000000
00000001
00000000
00003100
00000010
,
00000001
00000100
00000001
00001000
00000100
00010000
00001000
01000000
,
00020000
00000000
10000000
00000000
00100000
00000000
10030000
01000000
,
00010000
00001000
00100000
00010000
01000000
00100000
10000000
00010000
,
00100000
00001000
00010000
00000100
00000010
00000100
00001000
00000100
,
00000010
00000001
00000100
00001000
00010000
00000100
00000010
00000001
,
00002000
00000000
00000001
00000000
00000010
00000000
00003001
00000100
,
00001000
00010000
00000010
00001000
00000100
00000010
00000001
00001000
,
00000010
00010000
00001000
01000000
00100000
01000000
00010000
01000000
,
00100000
10000000
01000000
00010000
00001000
00000100
00000001
00000000
,
00001001
00000000
00000000
00000000
;

//---------------dance-double - NewbStepper-BDP----------------
#NOTEDATA:;
#CHARTNAME:NewbStepper-BDP;
#STEPSTYPE:dance-double;
#DESCRIPTION:NewbStepper-BDP;
#DIFFICULTY:Easy;
#METER:7;
#RADARVALUES:0.356710,0.393211,0.215685,0.290346,0,301,275,26,35,0,0,0,0,0,0.356710,0.393211,0.215685,0.290346,0,301,275,26,35,0,0,0,0,0;
#CREDIT:NewbStepper;
#NOTES:
00000000
00000000
00000000
00000000
,
10000000
01000000
20000000
00000000
,
30200000
02300000
03020000
00230000
,
00302000
00000000
00000000
00000000
00023000
00000000
00000000
00000100
,
00030200
00000320
00000032
00002003
,
00003000
00000001
00001000
00000010
,
00000200
00000000
00000000
00002300
00000000
00000000
00023000
00000000
,
00230000
20300000
32000000
03200000
,
00310000
00000000
10000000
00000000
,
10010000
00000000
10000000
01000000
,
00000000
10000000
00100000
01000000
,
00010000
00000000
01000000
00001000
,
00000000
00000100
00000100
00000000
,
00000001
00000100
00000010
00001000
,
00000001
00000100
00001000
00010000
,
00100000
10000000
00100000
01000000
,
00010000
00010000
00010000
00010000
,
10010000
00000000
10000000
00000000
12000000
00000000
00000000
03010000
,
00000000
00001000
00011000
00000000
,
00010000
00000010
00001010
00001000
,
00000100
00000010
00000001
00001000
,
00001001
00000000
00000001
00000000
00000201
00000000
00000000
00001300
,
00000000
00010000
00011000
00001000
,
00010000
01000000
01100000
00100000
,
00010000
00010000
00010000
20000000
,
30000000
10010000
10000000
01000000
,
00010000
00011000
00001000
00000010
,
00000001
00001001
00000001
00000100
,
00001000
00011000
00010000
00100000
,
10000000
10010000
00010000
01000000
,
00100000
10100000
10000000
00010000
,
20020000
00000000
00000000
00030000
00000000
00000000
30000000
00000000
00200000
00000000
00300000
00000000
00000000
00000000
00000000
00000000
,
10000000
01000000
00100000
00010000
,
00002000
00000100
00000001
00000001
,
00000010
00000010
00003001
00000000
,
00001000
00000100
00001000
00000100
,
00000010
00000001
00000010
00000001
,
00000100
00001000
00000100
00001000
,
00010000
01000000
00010000
01000000
,
10000000
00100000
10000000
00100000
,
10000000
00010000
10000000
00010000
,
01000000
00001000
01000000
00001000
,
00010000
00000100
00001000
00000010
,
00000100
00000001
00002000
00003000
,
00000001
00000100
00000010
00000100
,
00001000
00010000
01000000
00100000
,
01000000
10000000
00010000
01000000
,
00100000
10000000
01000000
00010000
,
00001000
00000010
00000001
00001000
,
00000010
00000100
00000001
00000010
,
00001000
00000000
00010000
00000000
,
00022000
00000000
00000000
00000000
,
00000000
00000000
00000000
00000000
,
00000000
00000000
00000000
00000000
,
00033000
00000000
01000000
01000000
,
10000000
00100000
01000000
00010000
,
10000000
01000000
00010000
00001000
,
00000010
00000001
00000100
00000010
,
00001000
00001000
00001000
00001000
,
00001001
00000000
00000001
00000000
00000201
00000000
00000000
00001300
,
00000000
00010000
00011000
00000000
,
00001000
00100000
00110000
00010000
,
01000000
00100000
10000000
00010000
,
10010000
00000000
10000000
00000000
12000000
00000000
00000000
03010000
,
00000000
00001000
00011000
00010000
,
00001000
00000100
00000110
00000010
,
00001000
00001000
00001000
00000002
,
00000003
00001000
00001001
00000001
,
00000100
00000001
00001000
00001000
,
00000200
00000310
00000100
00000100
,
00010000
00001000
00100000
00010000
,
20000000
30010000
01000000
01000000
,
00001000
00010000
00100000
00100000
,
10000000
01000000
00010000
00001000
,
00000100
00000001
00000010
00000100
,
00002000
00003010
00010000
00010000
,
00001000
00010000
00100000
10000000
,
10000000
01000000
00010000
00001000
,
00000100
00000001
00001000
00002000
,
00003001
00000000
00000000
00000000
;
