#TITLE:REmorse;
#ARTIST:SIHanatsuka;
#BANNER:REmorse.png;
#BACKGROUND:REmorse-bg.png;
#MUSIC:REmorse.ogg;
#OFFSET:0.534;
#SAMPLESTART:77.104;
#SAMPLELENGTH:15;
#BPMS:0=102.01,36=204.02,164=102.01,180=204.02,196=102.01,204=204.02,412=102.01;

//---------------dance-single - Marten-bSP----------------
#NOTES:
     dance-single:
     Marten:
     Beginner:
     6:
     :
0000
0000
0000
0000
,
0000
0000
0000
0000
,
0000
0000
0000
0000
,
0000
0000
0000
0000
,
0000
0000
0000
0000
,
0001
1000
0010
0010
,
0100
0000
0000
0010
0000
0000
1000
0000
,
0001
0010
0001
0000
,
1000
0010
0100
0001
,
1000
1000
0100
0000
,
0010
0000
0010
0000
,
0001
0001
0100
0000
,
0010
0000
0110
0000
,
1000
1000
0010
0000
,
0100
0000
0001
0000
,
0001
0001
0010
0000
,
0100
0000
0110
0000
,
2000
3000
0020
0030
,
0200
0300
0002
0003
,
0010
0010
0100
0000
,
0010
0001
1000
0000
,
0010
0000
0010
0000
,
0100
0000
0100
0000
,
0001
0001
1000
1000
,
2002
0000
3003
0000
,
0002
0003
0020
0030
,
0100
0100
1000
0000
,
1000
1000
0010
0020
,
0030
0000
0110
0000
,
0010
0000
0100
0000
,
0001
0000
1000
0000
,
0100
0100
0010
0000
,
0001
0000
1001
0000
,
0002
0003
0000
2000
,
3000
0000
0200
0300
,
2000
3000
0010
0010
,
0000
0100
0100
0000
,
0001
0000
0010
0000
,
0100
0000
1000
0000
,
0010
0010
0100
0000
,
0010
1000
0001
0000
,
2002
0000
0000
0000
,
0000
0000
3003
0000
,
0001
0001
1000
1000
,
0110
0000
0110
0110
,
0010
0000
1000
0000
,
0100
0000
0001
0000
,
0010
0000
1000
0000
,
0001
0000
1000
0000
,
0020
0000
0000
0030
,
0200
0000
0300
0000
0100
0100
0100
0000
,
0001
0000
0010
0000
,
1000
0000
0010
0000
,
0001
0000
1000
0000
,
0001
0000
1000
1000
,
1000
0000
0010
0000
,
0001
0000
0010
0000
,
1000
0000
1001
0000
,
0110
0000
1001
0000
,
0001
0000
0100
0000
,
1000
0000
0100
0000
,
0001
0000
1000
0000
,
0100
0000
0010
0000
,
0002
0003
1000
0001
,
2000
3000
0001
1000
,
0002
0003
2000
3000
,
0020
0030
0100
0100
,
0100
0000
0001
0000
,
0010
0010
0100
0100
,
0010
0000
0001
0000
,
2000
0000
0000
3000
,
0100
0000
1000
0000
,
0010
0010
0100
0100
,
0010
0000
1000
0000
,
0002
0000
0000
0003
,
0010
0000
0001
0000
,
0100
0100
0010
0010
,
0100
0000
0010
0000
,
0200
0000
0000
0300
,
0001
0000
0001
0000
,
1000
0000
1000
0000
,
0010
0010
0100
0100
,
0010
0000
0110
0000
,
1001
0000
0001
0000
,
1000
0000
1000
0000
,
0020
0000
0030
0000
,
0200
0300
0020
0030
,
1000
1000
0001
0001
,
1000
0000
0001
0000
,
0100
0100
0010
0000
,
0110
0000
1001
0000
,
1001
0000
1000
0000
,
0001
0000
0001
0000
,
0020
0000
0030
0000
,
0200
0300
0020
0030
,
0001
0001
1000
1000
,
0001
0000
1000
0000
,
0100
0100
0010
0000
,
0110
0000
1001
0000
,
1000
0000
0010
0010
,
0000
0000
0100
0100
,
0000
0000
0001
0001
,
0000
0000
0010
0010
,
0020
0000
0000
0030
,
0200
0000
0000
0300
;

//---------------dance-single - Marten-BSP----------------
#NOTES:
     dance-single:
     Marten:
     Easy:
     9:
     :
0000
0000
0000
0000
,
0000
0000
0000
0000
,
0000
0000
0000
0000
,
0000
0000
0000
0000
,
0000
0000
0000
0000
,
2000
0000
0000
3002
0000
0000
0013
0000
0010
0100
0000
0100
,
1000
0000
0000
0001
0000
0000
0200
0000
0000
0000
0000
0000
0310
0000
0000
0000
,
1000
0000
0001
0000
1000
0000
0000
0000
0100
0000
0000
0100
0000
0000
0000
0000
,
0010
0000
0100
0000
0010
0000
0000
0001
0000
0000
1000
0000
0001
0000
0000
0000
,
1000
0000
0100
0000
0011
0000
0000
0001
,
0000
0100
0000
0001
,
0001
0000
0100
0000
1010
0000
0000
1000
,
0000
0100
0110
0000
,
0001
0000
0010
0000
1100
0000
0000
1000
,
0000
0001
0000
1000
,
1000
0000
0010
0000
0101
0000
0000
0001
,
0000
0010
0110
0000
,
0100
1000
0001
0000
,
0100
0001
0010
0100
,
0010
0001
1000
0000
,
0010
0100
0110
0000
,
0010
1000
0010
1000
,
0001
0100
0001
0100
,
0001
0010
1000
0010
,
0002
0000
1003
0000
,
1010
0000
0000
0110
0000
0000
0101
0000
,
0000
0001
1000
0001
,
0010
0010
0110
0110
,
0000
0010
0000
0000
2002
0000
3003
0000
,
0001
0100
0010
1000
,
0001
0010
0100
1000
,
0001
0000
0100
0000
0110
0000
0000
1010
,
0000
0101
0000
0000
0011
0000
0010
0000
,
0200
0000
1300
0020
,
0000
0130
0002
1003
,
0001
0010
1100
1100
,
0000
0110
0000
0000
0011
0000
0001
0000
,
1000
0010
0100
0001
,
1000
0100
0010
0001
,
0100
0000
0100
0000
0110
0000
0000
1010
,
0000
0101
0000
0000
0001
0000
1000
0000
,
1002
0010
0000
0100
,
0000
1000
0000
0010
,
2003
0100
0000
0001
,
3010
0000
0000
0000
0100
0000
0010
0000
0100
0000
0000
0001
0000
0001
0000
0000
,
1000
0100
0001
0100
,
1000
0100
0001
0100
,
1000
0010
0001
0010
,
1000
0100
0010
0001
,
2000
3020
0230
0302
,
1003
0100
0010
0001
0100
0010
0110
0000
,
0100
0101
0001
0011
,
0010
0100
1000
0001
,
1000
1100
1000
1010
,
0010
0100
0010
0010
,
0100
0101
0001
0011
,
0010
0100
1000
0001
,
1000
1100
1000
1010
,
0010
0100
0010
0110
,
0200
0000
0000
0302
0000
0000
0023
0000
,
0100
0100
0032
1000
,
2003
0010
0010
3020
,
0100
0100
1030
0000
,
2000
3100
0010
0010
,
0002
0103
0010
0010
,
2000
3020
0230
0302
,
0023
0000
0230
0000
1300
0001
1000
0001
,
0200
0000
0000
0302
0000
0000
0023
0000
,
0031
0100
0001
1000
,
0200
0000
0000
2300
0000
0000
3020
0000
,
0000
0230
0000
0000
0000
0000
0301
0000
,
2000
0000
3000
0200
0000
0000
0320
0000
,
0130
1000
0010
0100
,
0020
0000
0030
2000
0000
0000
3002
0000
,
0000
0023
0000
0000
0000
0000
0130
0000
,
1000
0010
0001
0010
,
1000
0100
0001
0100
,
2000
0000
0000
3002
0000
0000
0023
0000
,
0000
0230
0000
0000
0000
0000
1300
0000
,
1010
0000
0000
1001
0000
0000
0001
0000
,
0011
0000
0000
1001
0000
0000
1000
0000
,
0010
0010
0100
0100
,
0001
1000
1001
0000
,
1020
0000
0000
0230
0000
0000
0302
0000
,
0000
0013
0021
0000
,
0230
0000
1300
2000
,
0000
0000
3020
0000
,
1030
0100
0010
0001
,
0100
0010
1000
0001
,
0100
0000
0100
0000
0110
0000
0000
1010
,
0000
0101
0000
0000
0001
0000
0010
0000
,
0021
0000
0000
0230
0000
0000
2300
0000
,
0000
3010
1020
0000
,
0230
0000
0301
0002
,
0000
0000
0023
0000
,
0031
0100
0010
1000
,
0100
0010
0001
1000
,
0100
0000
0100
0000
0110
0000
0000
0011
,
0000
1100
0000
0000
1000
0000
0010
0000
,
1010
0000
1000
0100
,
0010
0000
0001
0100
,
0010
0000
1000
0010
,
0100
0000
0001
0010
,
0200
1000
0000
0010
,
0000
0001
0000
0010
,
0310
0000
0000
0000
;

//---------------dance-single - Marten-DSP----------------
#NOTES:
     dance-single:
     Marten:
     Medium:
     12:
     :
0000
0000
0000
0000
,
0000
0000
0000
0000
,
0000
0000
0000
0000
,
0000
0000
0000
0000
,
0000
0000
0000
0000
,
2000
0000
0000
0000
0000
0000
0000
0000
0000
0000
0000
0000
3020
0000
0000
0000
0000
0000
0000
0000
0000
0000
0000
0000
0130
0000
0000
0000
0001
0000
0000
0000
0100
0000
0000
0000
0001
0000
0000
0010
0000
0000
0000
0000
0001
0000
0000
0000
,
2000
0000
0000
3002
0000
0000
0203
0000
0000
0000
0000
0000
0310
0000
0000
0000
,
1000
0100
1000
0100
0010
0000
0000
0001
0000
0000
1000
0000
0000
0000
0000
0000
,
0001
0100
0001
0100
0010
0000
0000
1000
0000
0000
0001
0000
1001
0000
0000
0000
,
0001
0100
0001
0100
0010
0000
0000
1000
,
0000
0100
1000
0000
0000
0000
0100
0000
,
0010
0001
0010
0001
1000
0000
0000
0010
,
0000
0100
0010
0000
2020
0000
3030
0000
,
1000
0100
1000
0100
0010
0000
0000
0001
,
0000
0100
0001
0000
0000
0000
0100
0000
,
0010
1000
0010
1000
0001
0000
0000
0010
,
0000
0100
0010
0000
0022
0000
0033
0000
,
0001
1000
0001
1000
0100
0000
0010
0001
,
0100
0010
0100
0010
1000
0000
0100
0000
,
1000
0010
1000
0001
1000
0000
0000
0100
,
0010
0001
1000
0000
1001
0000
0001
1000
,
0002
0203
0320
2030
,
3100
1000
0100
1000
0001
0010
0001
0010
,
0100
0010
0100
0010
0001
1000
0001
1000
,
0200
0000
0310
0000
,
0210
0000
0000
0310
0001
0000
0000
1001
,
0000
2000
3020
0230
,
0301
0100
0001
0100
0010
0000
0020
0000
,
0000
1030
0000
1000
0002
0000
1000
0000
,
1003
0100
1000
0100
0010
0001
1000
0000
,
0001
0100
0001
0100
0010
1000
0001
0000
,
1000
0000
0001
0000
0011
0000
0010
0100
,
0000
1000
0100
0000
0010
0000
0011
0000
,
1020
0000
0000
1030
0001
0000
0021
0000
,
0000
0130
2100
0100
,
3002
0000
0103
0010
1000
0000
2000
0000
,
0000
3100
0000
0100
0010
0000
0001
0010
,
0001
0000
0100
0001
1000
0001
0100
0000
,
0010
0000
1000
0100
0010
0100
1000
0000
,
0001
0000
0100
0000
0110
0000
0010
1000
,
0000
0001
0000
1000
0100
0010
0100
0010
,
0002
0000
0000
0000
0010
0000
0000
0010
0000
0000
0000
0000
0010
0000
0000
0010
,
0000
0000
0000
0000
1000
0000
0000
1000
0000
0000
0000
0000
0010
0000
0000
2000
,
0003
0000
0000
0000
0010
0000
0000
0010
0000
0000
0000
0000
0010
0000
0000
3010
,
1000
0000
0000
0100
0000
0000
0010
0000
0001
0000
0000
0100
0000
0110
0000
0000
,
0010
1010
0100
0101
,
0001
0011
0100
1100
,
1000
0001
0100
0000
0001
1000
0100
0000
,
0010
0001
0010
0001
1000
0010
1000
0010
,
0200
0302
2003
3200
,
0310
0000
0010
0000
0001
0000
0001
0000
1000
0001
1000
0001
0100
0000
0000
0000
,
0002
0000
0013
0200
0000
1300
0002
0000
,
0103
0001
0100
0000
0020
0000
0130
0000
,
0010
1000
0001
1000
0100
0000
0010
0001
,
1000
0001
0100
0000
0010
0100
0010
0000
,
2000
0000
3100
0020
0000
0031
0100
0000
,
0010
1000
0010
0000
0100
0001
0100
0000
,
0001
0000
0010
0100
2000
0000
3010
0100
,
0002
0000
1003
0000
1000
0001
0010
0001
,
2000
0000
3010
0200
0000
0301
2000
0000
,
3100
1000
0100
0000
0020
0000
0130
0000
,
0010
0001
1000
0001
0100
0000
0010
1000
,
0001
1000
0100
0000
0010
0100
0010
0000
,
0002
0000
0013
0000
0100
1000
0001
0000
,
2000
0000
3010
0000
0100
0010
0100
0010
,
2000
3002
0023
0230
,
2300
0000
3020
0000
0130
0010
0100
0010
,
2000
0000
0000
3002
0000
0000
0023
0000
,
0000
0130
1000
0100
0020
0000
0032
0000
,
2003
0000
0000
3020
0000
0000
0230
0000
,
0000
0302
0000
0000
0100
0003
0100
0001
,
2000
0000
3100
0020
0000
0031
0200
0000
,
0310
1000
0001
1000
0002
0000
0023
0000
,
0230
0000
0000
2300
0000
0000
3002
0000
,
0000
0023
0000
0000
0000
0001
0000
0031
,
2000
0000
3010
0100
0020
0000
2030
0000
,
3001
0100
0002
0000
0023
0000
0230
0000
,
2300
0000
0000
3002
0000
0000
0203
0000
,
0000
0320
0000
0000
1000
0000
1030
0001
,
1000
0000
0000
1100
0000
0000
0110
0000
,
0011
0000
0000
1001
0000
0000
0101
0000
,
0100
0001
0100
0001
1000
0010
1000
0010
,
0100
0000
0010
0000
0100
0000
0010
0000
0100
0000
0000
0001
0000
0000
1000
0000
,
0200
0000
0000
2300
0000
0000
3020
0000
,
0000
0130
0002
1003
,
1200
0000
0310
0012
,
0000
0103
0020
0000
,
1030
0100
1000
0001
1000
0010
0100
0000
,
0001
0100
0001
1000
0001
0010
0100
0000
,
1000
0000
0001
0000
0011
0000
0100
1000
,
0000
1100
0000
0100
1000
0010
1000
0010
,
0200
0000
0000
0302
0000
0000
0023
0000
,
0000
0130
2000
3001
,
0201
0000
0310
2010
,
0000
3100
0020
0000
,
0031
0010
0001
1000
0001
0100
0010
0000
,
1000
0010
1000
0001
1000
0100
0010
0000
,
0001
0000
1000
0000
1010
0000
0100
0001
,
0000
0101
0000
0100
0001
0010
0001
0010
,
0200
0000
0000
1300
0001
0000
0100
0000
,
0000
0010
0110
0100
,
0100
0000
0001
0010
0100
0000
0100
0000
,
0000
1000
0000
1000
0010
0000
0100
0001
,
2000
0000
0000
0000
0100
0000
0000
0100
0000
0000
0000
0000
0001
0000
0000
0001
,
0000
0000
0000
0000
0010
0000
0000
0010
0000
0000
0000
0000
0001
0000
0000
3010
;

//---------------dance-single - Marten-ESP----------------
#NOTES:
     dance-single:
     Marten:
     Hard:
     15:
     :
0000
0000
0000
0000
,
0000
0000
0000
0000
,
0000
0000
0000
0000
,
0000
0000
0000
0000
,
0000
0000
0000
0000
,
1020
0000
0000
0000
0000
0000
0000
0000
0000
0000
0000
0000
0230
0000
0000
0000
0000
0000
0000
0000
0000
0000
0000
0000
0301
0000
0000
0000
0010
0000
0000
0000
1000
0000
0000
0000
0001
0000
0000
0100
0000
0000
0000
0000
1000
0000
0000
0000
,
0002
0000
0000
0000
0000
0000
0000
0000
0003
0020
0000
0000
0000
0000
0000
0000
0000
0000
0230
0000
0000
0000
0000
0000
0000
0000
0000
0000
0000
0000
0000
0000
0000
0000
0000
0000
1300
0000
0000
0000
0000
0000
0000
0000
0000
0000
0000
0000
,
1000
0100
0010
0100
1000
0000
0000
0001
0000
0000
0100
0000
0000
0000
0000
0000
,
0001
0100
0010
0100
0001
0000
0000
0010
0000
0000
0100
0000
1001
0000
0000
0000
,
1000
0100
0001
0100
1100
0000
0000
1000
,
0000
0010
0100
0000
0001
0000
1000
0000
,
0001
0100
1000
0100
0101
0000
0000
0001
,
0000
0010
0100
0000
2002
0000
3003
0000
,
1000
0010
0001
0010
1010
0000
0000
1000
,
0000
0001
0100
0000
0001
0000
0010
0000
,
0001
0010
1000
0010
0011
0000
0000
1000
,
0000
0100
0010
0000
2002
0000
3003
0000
,
0001
0010
0100
0001
0200
0000
1300
0010
,
0100
0010
1000
0001
1000
0000
0010
0000
,
1000
0100
0010
0001
1000
0000
0000
0010
,
1000
0100
1000
0000
0010
0000
0100
0100
,
0001
0010
0001
0010
1000
0010
1000
0010
,
0001
0000
0000
1000
0000
0000
0001
0000
0000
1000
0000
0000
0010
0000
0100
0000
0010
0000
0100
0000
0010
0000
0100
0000
,
0001
0010
0100
1000
0010
0100
0001
0010
0100
1000
0010
0100
,
0002
0000
0013
0000
,
0210
0000
0000
1300
1001
0001
0100
0102
,
0000
0023
0032
2003
,
3100
0001
0100
1000
1010
0000
1020
0000
,
0000
0130
0000
0100
0020
0000
0100
0000
,
1030
0100
1000
0010
0001
0010
1000
0001
,
0100
0001
0010
1000
0010
0001
1000
0100
,
0020
0000
0031
0000
1001
0000
1000
0100
,
0001
1000
0010
0000
0001
0000
0011
0000
,
2100
0000
0000
3010
1010
0000
0210
0000
,
0000
0301
1002
0013
,
0001
0010
0100
1000
1010
0000
0120
0000
,
0000
1030
0000
1000
1001
0000
0010
0001
,
0100
0001
0010
0001
0100
1000
0100
0001
,
0010
0100
1000
0100
0001
0100
1000
0010
,
0200
0000
0301
0000
1001
0000
0001
0100
,
1000
0001
0010
1000
0001
0001
0010
0100
,
2100
0000
0000
0000
0010
0000
0000
0010
0000
0000
0000
0000
0100
0000
0000
0100
,
0000
0000
0000
0000
0001
0000
0000
0001
0000
0000
0000
0000
0010
0000
0000
0002
,
3000
0000
0000
0000
0010
0000
0000
0010
0000
0000
0000
0000
0100
0000
0000
0103
,
0101
0000
0000
0110
0000
0000
1010
0000
1100
0000
0000
0110
0000
0011
0000
0000
,
0001
0100
1010
0000
1000
0100
0011
0000
,
0001
0010
1100
0000
1000
0010
0101
0000
,
0001
0100
0010
0100
1000
0100
0010
1000
,
0100
0010
0001
1000
0010
1000
0100
0100
,
0020
0032
2003
3020
,
0130
0000
0001
0000
1000
0000
0100
0000
1000
0000
0001
0000
0010
0000
0100
0000
1000
0000
0001
0000
0100
0000
1000
0000
0200
0300
0000
0000
0001
0000
1000
0000
,
0001
0010
0100
1000
0010
1000
0100
1000
,
0010
0100
0001
0010
1000
0010
0001
0100
,
0010
0100
0001
0010
0100
1000
0001
0100
,
0010
0001
0010
0100
0001
1000
0100
0100
,
1000
0010
0100
0010
1000
0100
0010
0001
,
0100
0010
0100
0001
0010
1000
0010
0001
,
0100
0010
0100
0001
1000
0100
0001
0100
,
1000
0001
0100
1000
0100
0101
0000
1100
,
1000
0010
0100
1000
0100
0010
1000
0100
,
0010
1000
0010
0100
1000
0001
0100
0010
,
0100
0001
0010
0100
0001
0100
0010
0001
,
0100
0010
0001
0010
0100
0001
1000
1000
,
0002
0000
0013
0000
0100
1000
0001
0000
,
2000
0000
3010
0000
0100
0100
0010
0010
,
2000
3020
0032
0203
,
2300
0000
0000
0000
3002
0000
0000
0000
0103
0010
0100
0010
0100
0010
0100
0010
,
2000
0000
3100
0002
0000
0103
0020
0000
,
0031
0100
1000
0100
0002
0000
2003
0000
,
3020
0000
0130
0200
0000
0301
0002
0000
,
0013
0020
0000
0130
0001
0100
1000
1000
,
0002
0000
0103
2000
0000
3100
0020
0000
,
1030
0100
0001
0100
2000
0000
3002
0000
,
0023
0000
0130
0200
0000
1300
2000
0000
,
3010
0020
0000
0130
0001
0101
0100
1100
,
0200
0000
0301
0010
2000
0000
3002
0000
,
0103
1000
0001
0100
2000
0000
3200
0000
,
0320
0000
1030
2000
0000
3001
0002
0000
,
0013
0020
0000
1030
0010
0001
1000
0010
,
1010
1000
0100
0110
0010
0001
1001
0000
,
0011
0001
0100
0110
0010
1000
1001
0000
,
0001
0001
1000
1000
0010
0010
0100
0100
,
0001
0000
0010
0000
1000
0000
0010
0000
0011
0000
0000
0110
0000
0000
1100
0000
,
1002
0000
0000
0103
0101
0000
0120
0000
,
0000
1030
1002
0013
,
0210
0000
0000
1300
1100
0000
1001
0000
,
0000
0101
0000
0100
0120
0000
0130
0110
,
0010
1000
0100
0010
1000
0010
0100
1000
,
0001
0010
0100
0001
0100
0010
0001
1000
,
0010
0100
0001
1000
1010
0000
0100
0110
,
0000
0101
0000
0001
0011
0010
0100
1000
,
2001
0000
0000
3100
1100
0000
0120
0000
,
0000
0031
2001
3010
,
0210
0000
0000
0301
0101
0000
1001
0000
,
0000
1100
0000
0100
0120
0000
0130
0110
,
0010
0001
0100
0010
0001
0010
0100
0001
,
1000
0010
0100
1000
0100
0010
1000
0001
,
0010
0100
1000
0001
0011
0000
0100
0110
,
0000
1100
0000
1000
1010
0010
0100
0001
,
1001
0000
0001
0100
0120
0000
1030
0001
,
1000
0000
0100
0000
0120
0000
0031
1000
,
0001
0000
0100
0001
0101
0000
1100
0000
,
1000
0010
0000
0100
0110
0000
0010
1000
,
0002
0000
0000
0000
0010
0000
0000
0010
0000
0000
0000
0000
0100
0000
0000
0100
,
0000
0000
0000
0000
1000
0000
0000
1000
0000
0000
0000
0000
0010
0000
0000
1003
,
1001
0000
0000
0000
;

//---------------dance-double - RGTM-BDP----------------
#NOTES:
     dance-double:
     RGTM:
     Easy:
     9:
     :
00000000
00000000
00000000
00000000
,
00000000
00000000
00000000
00000000
,
00000000
00000000
00000000
00000000
,
00000000
00000000
00000000
00000000
,
00000000
00000000
00000000
00000000
,
20000000
00000000
00000000
30020000
00000000
00000000
00130000
00000000
00100000
01000000
00000000
01000000
,
10000000
00000000
00000000
00010000
00000000
00000000
02000000
00000000
00000000
00000000
00000000
00000000
03100000
00000000
00000000
00000000
,
00010000
00000000
00001000
00000000
00010000
00000000
00000000
00000000
00000100
00000000
00000000
00000100
00000000
00000000
00000000
00000000
,
00000010
00000000
00000100
00000000
00000010
00000000
00000000
00000001
00000000
00000000
00001000
00000000
00000001
00000000
00000000
00000000
,
00000001
00000000
00000100
00000000
00000110
00000000
00000000
00000010
,
00000000
00010000
00000000
00001000
,
00001000
00000000
01000000
00000000
01100000
00000000
00000000
10000000
,
00000000
00010000
10010000
00000000
,
10000000
00000000
01000000
00000000
01100000
00000000
00000000
00100000
,
00000000
00001000
00000000
00010000
,
00010000
00000000
00000100
00000000
00000110
00000000
00000000
00000001
,
00000000
00001000
00001001
00000000
,
00000001
00000100
00000010
00000000
,
00000010
00000100
00001000
00010000
,
00001000
00100000
01000000
00000000
,
10000000
00010000
10010000
00000000
,
10000000
01000000
10000000
01000000
,
10000000
01000000
00100000
00100000
,
00001000
00001000
00010000
00010000
,
00000020
00000000
00000130
00000000
,
00000101
00000000
00000000
00000110
00000000
00000000
00010010
00000000
,
00000000
00001000
00010000
00001000
,
00100000
01000000
01100000
01100000
,
00000000
01000000
00000000
00000000
20020000
00000000
30030000
00000000
,
00010000
01000000
00100000
10000000
,
00010000
00100000
00001000
00010000
,
00001000
00000000
00010000
00000000
00010100
00000000
00000000
00000110
,
00000000
00000110
00000000
00000000
00000011
00000000
00001000
00000000
,
00000002
00000000
00000103
00000020
,
00000000
00000130
00002000
00013000
,
00010000
00001000
00011000
00011000
,
00000000
00110000
00000000
00000000
01100000
00000000
00010000
00000000
,
10000000
00100000
01000000
00010000
,
10000000
01000000
00010000
00001000
,
00010000
00000000
01000000
00000000
01100000
00000000
00000000
00011000
,
00000000
00011000
00000000
00000000
00000010
00000000
00000010
00000000
,
00001002
00000010
00000000
00000010
,
00000000
00000100
00000000
00002003
,
00000000
00000010
00000000
00000010
,
00003100
00000000
00000010
00000000
00000100
00000000
00001000
00000000
00000001
00000000
00000000
00001000
00000000
00001000
00000000
00000000
,
00000001
00000100
00001000
00000000
,
00010000
01000000
10000000
00000000
,
10000000
00100000
00010000
00000000
,
00001000
00000010
00000001
00001000
,
00000002
00000023
00000230
00020300
,
00031000
00100000
01000000
10000000
00100000
01000000
01100000
00000000
,
10000000
01000000
00010000
00001000
,
00010000
01000000
10000000
00010000
,
10000000
00100000
00010000
00001000
,
00010000
00000100
00000010
00000010
,
00000001
00000100
00001000
00010000
,
00001000
00000100
00000001
00001000
,
00000001
00000010
00001000
00010000
,
00100000
10000000
01100000
10010000
,
10000000
00100000
00010000
00001000
,
00010000
00100000
10000000
00010000
,
10000000
01000000
00010000
00001000
,
00010000
00000010
00000100
00000001
,
00002002
00003003
00000220
00000330
,
00022000
00033000
02200000
03300000
,
10010000
10010000
01100000
01100000
,
00011000
00000000
00010000
00000000
00000100
00000010
00000100
00000010
,
00000001
00000010
00001000
00010000
,
00001000
00000010
00000001
00001000
,
00000001
00000100
00001000
00010000
,
00001000
00100000
01000000
01000000
,
10000000
00100000
00010000
00001000
,
00010000
00100000
10000000
00010000
,
10000000
01000000
00010000
00001000
,
00000100
00000001
00000110
00001001
,
00000001
00000100
00001000
00010000
,
00001000
00000100
00000001
00001000
,
00000001
00000010
00001000
00010000
,
00001000
01000000
00100000
10000000
,
10010000
00000000
00000000
11000000
00000000
00000000
01000000
00000000
,
01100000
00000000
00000000
00101000
00000000
00000000
00001000
00000000
,
00010000
00010000
00000100
00000100
,
00000010
00000001
00001000
00000000
,
00000002
00000000
00000000
00000203
00000000
00000000
00002300
00000000
,
00000000
00013000
00200000
10000000
,
02300000
00000000
00100000
03020000
,
00000000
00100000
00000000
00000000
20030000
00000000
30010000
10000000
,
00010000
10000000
00100000
00010000
,
00001000
00000010
00000001
00001000
,
00000001
00000000
00000100
00000000
00001100
00000000
00000000
00011000
,
00000000
00011000
00000000
00000000
01010000
00000000
00100000
00000000
,
20000000
00000000
00000000
32000000
00000000
00000000
03020000
00000000
,
00000000
00031000
00000020
00000001
,
00000230
00000000
00000010
00002300
,
00000000
00000010
00000000
00000000
00003002
00000000
00001003
00000001
,
00001000
00000001
00000010
00001000
,
00010000
00100000
10000000
00010000
,
10000000
00000000
01000000
00000000
01010000
00000000
00000000
00011000
,
00000000
00011000
00000000
00000000
00001100
00000000
00000010
00000000
,
00000001
00000000
00000000
00000100
00000010
00000000
00000010
00000000
,
00000000
00010000
00011000
00001000
,
00001000
00000000
00000000
01000000
00100000
00000000
01100000
00000000
,
00000000
10000000
00000000
10000000
00010000
00000000
10000000
00010000
,
20000000
00100000
00000000
00100000
,
00000000
00010000
00000000
01000000
,
30010000
00000000
00000000
00000000
;

//---------------dance-double - RGTM-DDP----------------
#NOTES:
     dance-double:
     RGTM:
     Medium:
     12:
     :
00000000
00000000
00000000
00000000
,
00000000
00000000
00000000
00000000
,
00000000
00000000
00000000
00000000
,
00000000
00000000
00000000
00000000
,
00000000
00000000
00000000
00000000
,
20000000
00000000
00000000
00000000
00000000
00000000
00000000
00000000
00000000
00000000
00000000
00000000
30020000
00000000
00000000
00000000
00000000
00000000
00000000
00000000
00000000
00000000
00000000
00000000
00130000
00000000
00000000
00000000
00010000
00000000
00000000
00000000
10000000
00000000
00000000
00000000
00010000
00000000
00000000
00100000
00000000
00000000
00000000
00000000
01000000
00000000
00000000
00000000
,
00100000
00000000
00000000
00001000
00000000
00000000
00010000
00000000
00000000
00000000
00000000
00000000
00000010
00000000
00000000
00000100
,
00000000
00000000
00000010
00000000
00000000
00000000
00000000
00000000
00000000
00000000
00001000
00000000
00000001
00000000
00000000
00000010
,
00000000
00000100
00000000
00000000
00000000
00000100
00001000
00000000
,
00000001
00000100
00000001
00000100
00000010
00000000
00000000
00001000
,
00000000
00001000
00000100
00000000
00000000
00000000
00010000
00000000
,
00010000
00001000
00010000
00001000
01000000
00000000
00000000
00100000
,
00000000
00100000
10000000
00000000
10020000
00000000
00000000
00000000
,
10030000
01000000
10000000
01000000
00100000
00000000
00000000
00010000
,
00000000
00010000
01000000
00000000
00000000
00000000
00001000
00000000
,
00001000
00010000
00001000
00010000
00000100
00000000
00000000
00000010
,
00000000
00000010
00000001
00000000
00002001
00000000
00000000
00000000
,
00003001
00001000
00000001
00001000
00000010
00000000
00000100
00000010
,
00000100
00000010
00000100
00000010
00010000
00000000
00001000
00000000
,
00001000
00100000
00010000
00100000
00001000
00000000
00000000
00001000
,
01000000
00100000
01000000
00000000
00100000
00000000
10000000
00010000
,
10000000
01000000
10000000
01000000
00100000
01000000
00100000
01000000
,
00100000
00001000
00100000
00001000
00020000
00000000
00030200
00000000
,
00000320
00000032
00002003
00003020
,
00000230
00000000
00000310
00000000
,
00001002
00000000
00000000
00000013
00000001
00000000
00000100
00000001
,
00000000
00000001
00000100
00000000
00000110
00000000
00000010
00000000
,
00010000
00000010
00010000
00001000
00010000
00000000
00011000
00000000
,
00001000
00100000
00000000
01000000
00100000
00000000
01000000
00000000
,
10000000
01000000
10000000
00000000
00100000
10000000
00100000
00000000
,
01000000
00001000
01000000
00000000
00001000
00010000
00001000
00000000
,
00010000
00000100
00010000
00000000
00000110
00000000
00000001
00001000
,
00000001
00001000
00000100
00000000
00010000
00000000
00100000
00000000
,
20010000
00000000
00000000
30100000
10000000
00000000
12000000
00000000
,
00000000
03100000
00101000
00001000
,
00020000
00000000
00000000
00030010
00000100
00000000
00000110
00000000
,
00000000
00001000
00000000
00001000
00000001
00000000
00000001
00001000
,
00000001
00000010
00000001
00000000
00000100
00000001
00000100
00000000
,
00000010
00001000
00000010
00000000
00010000
00001000
00010000
00000000
,
00001000
00100000
01000000
00100000
00010000
00000000
10000000
00100000
,
01000000
00100000
10000000
01000000
00100000
00001000
00100000
01000000
,
20000000
00000000
00000000
00000000
01000000
00000000
00000000
01000000
00000000
00000000
00000000
00000000
01000000
00000000
00000000
01000000
,
00000000
00000000
00000000
00000000
00010000
00000000
00000000
00010000
00000000
00000000
00000000
00000000
00100000
00000000
00000000
30020000
,
00000000
00000000
00000000
00000000
01000000
00000000
00000000
01000000
00000000
00000000
00000000
00000000
01000000
00000000
00000000
01030000
,
00010000
00000000
00000000
00100000
00000000
00000000
10000000
00000000
01000000
00000000
00000000
00001000
00010000
00001000
00000000
00000000
,
00010000
00001000
00010000
00000000
00100000
10000000
00100000
00000000
,
10000000
01000000
10000000
00000000
01000000
00010000
01000000
00000000
,
00010000
00001000
00010000
00000000
00001000
00000010
00001000
00000000
,
00000010
00000001
00000010
00000000
00000001
00000100
00000001
00000100
,
00002000
00023000
00032000
00023000
,
00130000
00000000
00100000
00000000
01000000
00000000
01000000
00000000
00010000
10000000
00010000
10000000
00200000
00300000
10000000
00010000
,
20000000
00000000
31000000
00200000
00000000
00301000
00020000
00000000
,
00031000
00010000
00001000
00000010
00000200
00000000
00001300
00000001
,
00000200
00000000
00000310
00001000
00000100
00000010
00000002
00000000
,
00000013
00000100
00010000
00001000
00020000
00000000
00031000
01000000
,
00200000
00000000
01300000
00020000
00000000
00130000
02000000
00000000
,
13000000
00010000
01000000
00000000
00100000
10000000
01000000
00100000
,
00001000
00000000
00010000
00001000
00020000
00000000
00030010
00001000
,
00000200
00000000
00000310
00000001
00001000
00000001
00000000
00001000
,
00000002
00000000
00000103
00000020
00000000
00010030
00002000
00000000
,
00013000
00001000
00010000
00100000
02000000
00000000
03010000
10000000
,
02000000
00000000
03100000
00010000
01000000
00100000
20000000
00000000
,
30100000
01000000
00001000
00010000
00002000
00000000
00013000
00000100
,
00000120
00000031
00001002
00000103
,
00000120
00010030
00021000
00130000
,
01100000
10100000
01100000
01010000
,
00011000
00000000
00001000
00000000
00001000
00000010
00000100
00001000
,
00000002
00000000
00000103
00000020
00000000
00001030
00000200
00000000
,
00000310
00000002
00000000
00000103
00002000
00000000
00023000
00000000
,
00032000
00000000
00013000
00200000
00000000
01300000
00020000
00000000
,
00130000
02000000
00000000
03100000
00010000
00000000
10000000
00010000
,
20000000
00000000
31000000
00200000
00000000
00310000
02000000
00000000
,
03100000
20000000
00000000
31000000
00020000
00000000
00032000
00000000
,
00023000
00000000
00030100
00000020
00000000
00000031
00002000
00000000
,
00003010
00000100
00000020
00000000
00001030
00000001
00000000
00001000
,
00000002
00000000
00000013
00000001
00000200
00000000
00000320
00000000
,
00001030
00000010
00001000
00000001
00002000
00000000
00003200
00000000
,
00020300
00000000
00031000
00200000
00000000
00310000
20000000
00000000
,
30100000
02000000
00000000
03100000
10000000
00000000
10000000
00010000
,
10000000
00000000
10000000
01000000
00000000
01000000
00010000
00000000
,
00010000
00000000
00001000
00000100
00000000
00000100
00000001
00000000
,
00000010
00000100
00000010
00000100
00001000
00000001
00001000
00000001
,
00000100
00000000
00000010
00000000
00000100
00000000
00000010
00000000
00010000
00000000
00000000
00001000
00000000
00000000
00010000
00000000
,
00002000
00000000
00000000
00013000
00011000
00000000
00201000
00000000
,
00000000
01300000
02100000
13000000
,
20010000
00000000
00000000
30100000
10100000
00000000
02100000
00000000
,
00000000
03001000
00000000
00010000
00011000
00000000
00001000
00010000
,
00001000
00000000
00000010
00000100
00000010
00000000
00000001
00000000
,
00000100
00000010
00000100
00000000
00001000
00000000
00010000
00000000
,
00100000
01000000
00100000
00000000
10010000
00000000
10000000
01000000
,
00100000
01000000
00100000
00001000
00100000
00001000
00010000
00001000
,
00020000
00000000
00000000
00031000
00011000
00000000
00010200
00000000
,
00000000
00000310
00000120
00000031
,
00001002
00000000
00000000
00000103
00000101
00000000
00000120
00000000
,
00000000
00010030
00000000
00001000
00011000
00000000
00010000
00001000
,
00010000
00000000
01000000
00100000
01000000
00000000
10000000
00000000
,
00100000
01000000
00100000
00000000
00010000
00000000
00001000
00000000
,
00000100
00000010
00000100
00000000
00001001
00000000
00000001
00000010
,
00000100
00000010
00000100
00010000
00000100
00010000
00001000
00010000
,
00001000
00000000
00000000
01000000
00100000
00000000
10010000
00000000
,
00000000
10000000
01100000
00010000
,
00001000
00000000
00000000
00001000
00010000
00000000
00011000
00000000
,
00000000
00000100
00000000
00000010
00001001
00000000
00000001
00001000
,
00000002
00000000
00000000
00000000
00000100
00000000
00000000
00000100
00000000
00000000
00000000
00000000
00000100
00000000
00000000
00000100
,
00000000
00000000
00000000
00000000
00001000
00000000
00000000
00001000
00000000
00000000
00000000
00000000
00000010
00000000
00000003
00001000
,
00000001
00000000
00000000
00000000
;

//--------------- dance-double - RGTM-EDP ----------------
#NOTES:
     dance-double:
     RGTM:
     Hard:
     15:
     :
00000000
00000000
00000000
00000000
,
00000000
00000000
00000000
00000000
,
00000000
00000000
00000000
00000000
,
00000000
00000000
00000000
00000000
,
00000000
00000000
00000000
00000000
,
20100000
00000000
00000000
00000000
00000000
00000000
00000000
00000000
00000000
00000000
00000000
00000000
30020000
00000000
00000000
00000000
00000000
00000000
00000000
00000000
00000000
00000000
00000000
00000000
00130000
00000000
00000000
00000000
00010000
00000000
00000000
00000000
01000000
00000000
00000000
00000000
00100000
00000000
00000000
00010000
00000000
00000000
00000000
00000000
00001000
00000000
00000000
00000000
,
00001000
00000000
00000000
00010000
00000000
00000000
00000200
00000000
00000000
00000000
00000300
00000000
00000010
00000000
00000000
00000001
,
00000000
00000000
00002000
00000000
00000000
00000000
00003000
00000000
00000000
00000000
00000010
00000000
00000100
00000000
00000000
00001000
,
00000000
00020000
00000000
00000000
00030000
00100000
10000000
00000000
,
10000000
01000000
00010000
00001000
00011000
00000000
00000000
00000110
,
00000000
00000001
00001000
00000000
00000000
00000000
00000001
00000000
,
00000001
00000100
00001000
00010000
00011000
00000000
00000000
01100000
,
00000000
10000000
00010000
00000000
20020000
00000000
30030000
00000000
,
10000000
00100000
00010000
00001000
00011000
00000000
00000000
00000110
,
00000000
00000001
00001000
00000000
00000000
00000000
00000001
00000000
,
00000001
00000010
00001000
00010000
00011000
00000000
00000000
01100000
,
00000000
10000000
00010000
00000000
20020000
00000000
30030000
00000000
,
10000000
01000000
00010000
00001000
00001100
00000000
00000100
00000010
,
00010000
00001000
00000010
00000001
00001001
00000000
00000001
00000000
,
00000101
00000100
00001000
00010000
01010000
00000000
00000000
01000000
,
11000000
10000000
00100000
00000000
10010000
00000000
00010000
10000000
,
00100000
01000000
00100000
00010000
00001000
00000100
00001000
00010000
,
00000100
00000000
00000000
00000100
00000000
00000000
00000010
00000000
00000000
00000010
00000000
00000000
00000001
00000000
00000010
00000000
00000100
00000000
00000010
00000000
00000100
00000000
00010000
00000000
,
00000100
00010000
00001000
00010000
00001000
01000000
00001000
01000000
00100000
01000000
00100000
10000000
,
02000000
00000000
03100000
00000000
,
20020000
00000000
30030000
10000000
10100000
00100000
01000000
01002000
,
00000000
00013000
00000100
00000000
00000110
00000000
00000010
00000000
,
00000001
00000100
00000100
00000100
00000110
00000000
00001010
00000000
,
00001000
00001000
00000000
00000100
00020100
00000000
00032000
00000000
,
00103000
00010000
00100000
01000000
10000000
00010000
01000000
00100000
,
01000000
00010000
00100000
00001000
00010000
00000100
00000010
00000001
,
00001000
00000010
00000100
00000001
00000021
00000000
00000130
00010100
,
00010000
00011000
00001000
00000000
01001000
00000000
00100000
00000000
,
20010000
00000000
30000000
01000000
01100000
00000000
00102000
00000000
,
00000000
00013000
00011000
00001000
,
00000100
00000010
00001000
00000100
00000110
00000000
00000011
00000000
,
00000001
00000100
00000000
00000010
00000110
00000000
00010000
00011000
,
00001000
00100000
01000000
10000000
00010000
01000000
00100000
01000000
,
00010000
00100000
00001000
00010000
00000010
00001000
00000200
00000000
,
00000320
00000000
00000031
00000000
00000101
00000000
00000100
00000110
,
00000010
00010010
00010000
00001000
00011000
00010000
00100000
01100000
,
02000000
00000000
00000000
00000000
00010000
00000000
00000000
00010000
00000000
00000000
00000000
00000000
00010000
00000000
00000000
00010000
,
00000000
00000000
00000000
00000000
00100000
00000000
00000000
00100000
00000000
00000000
00000000
00000000
10000000
00000000
00000000
03020000
,
00000000
00000000
00000000
00000000
10000000
00000000
00000000
10000000
00000000
00000000
00000000
00000000
10000000
00000000
00000000
10030000
,
10010000
00000000
00000000
10000000
00000000
00000000
01000000
00000000
00100000
00000000
00000000
01000000
00010000
00011000
00000000
00000000
,
00001000
00000100
00000001
00000000
00000001
00000010
00001000
00000000
,
00010000
01000000
10000000
00000000
10000000
00100000
00010000
00000000
,
00001000
00000100
00000001
00000010
00001000
00010000
00001000
00000000
,
00010000
01000000
10000000
00100000
00010000
00001000
00010000
00010000
,
00002000
00003020
00000032
00000203
,
00000310
00000100
00000001
00001000
00000100
00000010
00000100
00010000
00001000
00010000
00100000
01000000
00020000
00030000
00100000
01000000
,
10000000
00100000
00010000
00100000
10000000
01000000
00010000
00001000
,
01000000
00100000
00010000
00001000
00000100
00000010
00010000
00001000
,
00000010
00000001
00000100
00001000
00010000
00000100
00000010
00001000
,
00010000
00100000
01000000
00001000
00010000
00000100
00000010
00000010
,
00000001
00000010
00001000
00000010
00000001
00000100
00001000
00010000
,
00000100
00000010
00001000
00010000
01000000
00100000
00001000
00010000
,
00100000
10000000
01000000
00010000
00001000
01000000
00100000
00010000
,
00001000
00000010
00000100
00010000
00001000
01001000
00000000
10010000
,
10000000
01000000
00010000
01000000
10000000
00100000
00010000
00001000
,
00100000
01000000
00010000
00001000
00000010
00000100
00010000
00001000
,
00000100
00000001
00000010
00001000
00010000
00000010
00000100
00001000
,
00010000
01000000
00100000
00001000
00010000
00000010
00000100
00000100
,
00000102
00000000
00000013
00000000
00000001
00000010
00001000
00000000
,
00021000
00000000
00130000
00000000
00010000
00100000
10000000
00010000
,
00200000
02300000
03020000
00032000
,
00003020
00000000
00000000
00000000
00000230
00000000
00000000
00000000
00010300
00001000
00010000
00001000
00010000
00001000
00010000
00001000
,
00020000
00000000
00130000
20000000
00000000
31000000
00020000
00000000
,
00031000
00000100
00000000
00000100
00000002
00000000
00000023
00000000
,
00002030
00000000
00003010
00000002
00000000
00000103
00002000
00000000
,
00013000
00200000
00000000
00000000
10300000
01000000
00010000
00010000
,
00002000
00000000
00003100
00000002
00000000
00000013
00002000
00000000
,
00013000
00100000
00001000
00100000
20000000
00000000
32000000
00000000
,
03020000
00000000
01030000
00200000
00000000
00310000
20000000
00000000
,
30100000
00010000
00002000
00000000
00013000
00011000
00001000
00011000
,
00020000
00000000
00030010
00001000
00000200
00000000
00000310
00000000
,
00000010
00001000
00000010
00000001
00002000
00000000
00003020
00000000
,
00000230
00000000
00001300
00020000
00000000
00130000
02000000
00000000
,
03010000
00200000
01000000
00000000
10000000
00000000
00310000
00010000
,
10010000
00000000
10000000
10100000
00100000
00010000
00011000
00000000
,
00011000
00001000
00000010
00000011
00000001
00000000
00001001
00000000
,
00000001
00000001
00000010
00000010
00000100
00000100
00010000
00010000
,
00001000
00000000
00001000
00000000
01000000
00000000
01000000
00000000
01010000
00000000
00000000
01100000
00000000
00000000
10100000
00000000
,
20010000
00000000
00000000
30100000
10100000
00000000
02100000
00000000
,
00100000
00000000
03001000
00000000
00011000
00000000
00010000
00001000
,
00010000
00000000
00000100
00000010
00000110
00000000
00000012
00000000
,
00000000
00001003
00000000
00000001
00000110
00000000
00001000
00000110
,
00000001
00000010
00001000
00000001
00000100
00001000
00000010
00010000
,
00001000
01000000
00100000
00010000
00001000
00010000
00100000
10000000
,
01000000
00010000
10000000
00100000
00110000
00000000
00010000
10010000
,
10000000
10100000
00100000
00000000
01100000
01000000
00001000
00011000
,
00020000
00000000
00030100
00000010
00000011
00000000
00002010
00000000
,
00000000
00003100
00000210
00010300
,
00010000
00000000
00001000
01000000
01001000
00000000
20100000
00000000
,
00000000
30010000
00000000
10000000
01100000
00000000
00010000
01100000
,
10000000
01000000
00010000
10000000
00100000
00010000
01000000
00001000
,
00010000
00000010
00000100
00001000
00010000
00001000
00000100
00000001
,
00000010
00001000
00000001
00000100
00001100
00000000
00001000
00001001
,
00000001
00000101
00000100
00000000
00000110
00000010
00010000
00001000
,
00011000
00000000
00010000
01000000
11000000
00000000
01020000
00000000
,
00000000
10030000
10010000
00010000
,
00100000
00000000
01000000
00010000
00011000
00000000
00010100
00000000
,
00000100
00000010
00000000
00000010
00000011
00000000
00000001
00001001
,
00002000
00000000
00000000
00000000
00000100
00000000
00000000
00000100
00000000
00000000
00000000
00000000
00000100
00000000
00000000
00000100
,
00000000
00000000
00000000
00000000
00000001
00000000
00000000
00000001
00000000
00000000
00000000
00000000
00000010
00000000
00003000
00000001
,
00001000
00000000
00000000
00000000
;
