#VERSION:0.83;
#TITLE:REDRAVE;
#ARTIST:Tatsh & NAOKI feat. Kent Alexander;
#BANNER:REDRAVE.png;
#BACKGROUND:REDRAVE-bg.png;
#JACKET:REDRAVE-jacket.png;
#MUSIC:REDRAVE.ogg;
#OFFSET:1.244;
#SAMPLESTART:83.11;
#SAMPLELENGTH:15;
#BPMS:0=165.015;
#STOPS:230=0.364;
#TIMESIGNATURES:0=4=4,228=3=4,231=4=4;

//---------------dance-single - NewbStepper-bSP----------------
#NOTEDATA:;
#CHARTNAME:NewbStepper-bSP;
#STEPSTYPE:dance-single;
#DESCRIPTION:NewbStepper-bSP;
#DIFFICULTY:Beginner;
#METER:3;
#RADARVALUES:0.110612,0.204893,0.058436,0.043827,0,106,98,8,6,0,0,0,0,0,0.110612,0.204893,0.058436,0.043827,0,106,98,8,6,0,0,0,0,0;
#CREDIT:NewbStepper;
#NOTES:
0000
0000
0000
0000
,
0000
0000
0000
0000
,
0000
0000
0000
0000
,
0000
0000
0000
0000
,
1000
0000
0000
0000
,
0001
0000
0000
0000
,
1000
0000
0000
0000
,
1000
0000
0000
0000
,
1000
0000
0000
0000
,
0000
0000
0000
0000
,
0001
0000
0000
0000
,
0001
0000
0000
0000
,
0001
0000
0000
0000
,
0000
0000
0000
0000
,
0100
0000
0000
0000
,
0100
0000
0000
0000
,
0100
0000
0000
0000
,
0100
0000
0000
0000
,
0010
0000
0000
0000
,
0010
0000
0000
0000
,
0010
0000
0000
0000
,
0010
0000
0000
0000
,
2000
0000
0000
0000
,
0000
0000
3000
0000
,
0100
0000
0000
0000
,
0100
0000
0000
0000
,
0002
0000
0000
0000
,
0000
0000
0003
0000
,
0100
0000
0000
0000
,
0100
0000
0000
0000
,
0000
0000
1000
0000
,
1000
0000
1000
0000
,
0001
0000
0001
0000
,
0100
0000
0100
0000
,
0010
0000
0010
0000
,
1000
0000
1000
0000
,
0001
0000
0000
0000
,
1000
0000
0000
0000
,
0001
0000
0001
0000
,
0010
0000
0010
0000
,
0100
0000
0100
0000
,
1000
0000
1000
0000
,
0001
0000
0000
0000
,
1000
0000
0000
0000
,
0001
0000
1000
0000
,
2002
0000
3003
0000
,
0110
0000
0000
0000
,
0000
0000
0000
0000
,
1001
0000
0000
0000
,
0000
0000
0000
0000
,
0110
0000
0000
0000
,
0000
0000
0000
0000
,
1001
0000
0000
0000
,
0000
0000
0000
0000
,
0110
0000
0000
0000
,
0000
0000
0000
0000
,
1001
0000
0000
0000
,
0010
0000
0000
0000
,
0000
0000
0000
1000
,
0000
0000
0000
1000
,
0000
0000
0000
0000
,
0000
0000
0000
0001
,
0000
0000
0000
0001
,
0000
0000
0000
0001
,
0000
0000
0000
0000
,
0000
0000
0000
1000
,
0000
0000
0000
1000
,
0000
0000
0000
1000
,
0000
0000
0000
0000
,
0000
0000
0000
0001
,
0000
0000
0000
0001
,
0000
0000
0000
0001
,
0000
0000
0000
0000
,
0000
0000
0000
0100
,
0000
0100
0000
0010
,
0000
0010
0000
1000
,
0000
0001
0000
1000
,
0000
0000
0000
0100
,
0000
0100
0000
0010
,
0000
0010
0000
0001
,
0000
1000
0000
0001
,
0000
0000
0000
0010
,
0000
0010
0000
0100
,
0000
0100
0000
1000
,
0000
0001
0000
1000
,
0000
0000
0000
0010
,
0000
0010
0000
0100
,
0000
0100
0000
0001
,
0000
1000
0000
0100
,
0000
0010
0000
0001
,
0000
0000
0000
0001
,
0000
0000
0000
0000
,
0000
0000
0000
2002
,
0000
0000
3003
0000
;

//---------------dance-single - NewbStepper-BSP----------------
#NOTEDATA:;
#CHARTNAME:NewbStepper-BSP;
#STEPSTYPE:dance-single;
#DESCRIPTION:NewbStepper-BSP;
#DIFFICULTY:Easy;
#METER:7;
#RADARVALUES:0.322444,0.546380,0.175309,0.197223,0,309,285,24,27,0,0,0,0,0,0.322444,0.546380,0.175309,0.197223,0,309,285,24,27,0,0,0,0,0;
#CREDIT:NewbStepper;
#NOTES:
0000
0000
0000
0000
,
0000
0000
0000
0000
,
1001
0000
0000
0000
,
0000
0000
0000
0000
,
1001
0000
0000
0000
,
0001
0000
1000
1000
,
0001
0100
1000
0100
,
0001
0100
1000
0100
,
0002
0000
2003
0000
,
3010
0010
0110
0000
,
1000
0100
0001
0100
,
1000
0100
0001
0100
,
1000
1000
0001
0001
,
0100
0010
0110
0000
,
0001
0001
1000
0100
,
0010
0010
0001
0100
,
1000
1000
0100
0010
,
1000
1000
0100
0000
,
1000
1000
0001
0100
,
0010
0010
1000
0100
,
0001
0001
0100
0010
,
0002
0003
2000
3000
,
0001
0000
0001
0000
,
0001
0000
0001
1000
,
0010
1000
0001
0000
,
0200
0300
0020
0030
,
1000
0100
1000
0100
,
0010
0001
0010
0001
,
1001
0000
0110
0000
,
2002
0000
3003
0000
,
0000
0001
1000
0100
,
0010
0001
0100
0010
,
1000
1000
0001
0010
,
0100
1000
0010
0100
,
0001
0001
1000
0010
,
0100
0001
0010
0100
,
1000
1000
0001
0000
,
0010
0010
0100
0000
,
1000
0001
1000
0100
,
0001
0010
1000
0000
,
0001
1000
0001
0100
,
1000
0010
0001
0000
,
1001
1000
0100
0010
,
0001
0100
0010
1000
,
1001
0001
1001
1000
,
1001
1001
1001
1001
,
1001
0000
0000
0000
,
0000
0000
0001
1000
,
1001
0000
0000
0000
,
0000
0000
0000
0100
0000
0100
0010
0010
,
0100
0000
0000
0000
,
0000
0000
1000
0001
,
1001
0000
0000
0000
,
0000
0000
0000
0010
0000
0010
0100
0100
,
0010
0000
0000
0000
,
0000
0000
0001
1000
,
1001
0000
0000
0000
,
0110
0000
0000
1000
,
0100
0001
0100
1000
,
0100
0001
0100
2000
,
0000
3002
0000
0013
,
0010
0110
0000
0001
,
0100
1000
0100
0001
,
0100
1000
0100
0001
,
0001
1000
1000
0100
,
0010
0110
0000
1000
,
0010
0001
0010
1000
,
0010
0001
0010
2000
,
0000
3002
0000
0103
,
0100
0110
0000
0001
,
0010
1000
0010
0001
,
0010
1000
0010
0001
,
0001
1000
1000
0010
,
0100
0110
0000
0001
,
0001
0000
0100
0000
0000
1000
0000
1000
,
0000
0100
0000
0001
1000
0000
0002
0000
,
0103
2000
3010
0001
,
0100
0010
0010
1000
,
1000
0000
0010
0000
0000
0001
0000
0001
,
0000
0010
0000
1000
0001
0000
2000
0000
,
3000
0002
0003
0200
,
0300
0020
0030
1000
,
1000
0000
0100
0000
0000
0001
0000
0001
,
0000
0100
0000
1000
0001
0000
2000
0000
,
3100
0002
0013
1000
,
0100
0010
0010
0001
,
0001
0000
0010
0000
0000
1000
0000
1000
,
0000
0010
0000
0001
1000
0000
0002
0000
,
0003
0200
0300
2000
,
3000
0020
0030
0001
,
0100
1000
0100
0001
,
0010
1000
0010
0002
,
0000
0000
0003
2002
,
0000
0000
3003
0000
;

//---------------dance-single - NewbStepper-DSP----------------
#NOTEDATA:;
#CHARTNAME:NewbStepper-DSP;
#STEPSTYPE:dance-single;
#DESCRIPTION:NewbStepper-DSP;
#DIFFICULTY:Medium;
#METER:12;
#RADARVALUES:0.511318,0.614678,0.270268,0.314096,0.087655,490,453,37,43,0,0,0,0,0,0.511318,0.614678,0.270268,0.314096,0.087655,490,453,37,43,0,0,0,0,0;
#CREDIT:NewbStepper;
#NOTES:
0000
0000
0000
0000
,
0000
0000
0000
0000
,
1001
0001
0000
0001
,
0000
0001
0000
0001
,
1000
0000
0001
0000
,
1001
0000
0000
0000
1000
0001
1001
0000
,
1000
0000
0100
0000
0010
0000
0000
0100
0000
0000
2000
0000
0000
0000
3001
0000
,
1000
0000
0100
0000
0010
0000
0000
0100
0000
0000
2000
0000
0000
0000
3001
0000
,
0010
0001
0100
1000
,
0010
0000
0001
0000
0100
0100
0110
0000
,
0001
0000
0100
0000
0010
0000
0000
0100
0000
0000
0002
0000
0000
0000
1003
0000
,
0001
0000
0100
0000
0010
0000
0000
0100
0000
0000
0002
0000
0000
0000
1003
0000
,
0010
1000
0100
0010
0001
0100
0010
1000
,
0100
0001
0100
1000
0002
0000
0003
0000
,
0100
0000
0110
0000
1000
0100
0001
0000
,
0100
0000
0110
0000
0001
0100
1000
0000
,
0100
0000
0110
0000
1000
0100
0001
0000
,
0100
0010
0100
0010
0100
0010
1001
0000
,
0010
0000
0110
0000
0001
0010
1000
0000
,
0010
0000
0110
0000
1000
0010
0001
0000
,
0010
0000
0110
0000
0001
0010
1000
0000
,
0020
0000
0200
0330
,
1000
0100
0000
1000
0000
0001
0000
0100
,
0000
0001
0000
1000
0010
0000
0110
0000
,
0001
0100
0001
0000
1000
0100
1000
0000
,
0001
0100
1000
0100
0001
0100
0110
0000
,
0001
0100
0000
0001
0000
1000
0000
0100
,
0000
1000
0000
0001
0010
0000
0110
0000
,
0001
0000
0000
0001
0000
0000
0001
0000
1000
0000
0000
1000
0000
0000
1000
0000
,
0020
0000
0230
0000
,
0300
1001
0001
0010
,
0100
1000
0010
0000
0100
0001
0010
0000
,
1001
1000
1000
0010
,
0100
0001
0010
0000
0100
1000
0010
0000
,
1001
0000
1000
0000
0001
0100
1000
0000
,
1000
0100
0001
0000
0010
0100
0010
0000
,
0001
0100
0010
0100
0001
0100
0000
0010
,
1000
0100
0010
0100
1000
0100
0000
0000
,
1000
0001
1000
0010
1000
0001
1000
0100
,
0001
0000
0100
0000
1000
0000
0100
0000
0010
0000
0000
0001
0000
0000
0000
0000
,
0001
0100
1000
0100
0001
0100
0000
0010
,
1000
0100
0000
0010
0001
0100
0110
0000
,
1001
0000
0110
0000
1000
0100
0001
0000
,
0100
1000
0010
0000
0100
0001
1000
0000
,
1001
1010
0011
1001
,
1100
0101
0110
1001
,
1001
0000
0001
0000
,
0001
0000
1000
0001
,
1001
0000
0100
0000
,
0100
0000
0000
0010
0000
0010
0100
0100
,
1001
0000
1000
0000
,
1000
0000
0001
1000
,
1001
0000
0010
0000
,
0010
0000
0000
0100
0000
0100
0010
0010
,
1001
1000
0100
0100
,
0010
0010
0001
0001
,
1000
1000
0010
0010
,
0100
0100
0000
0000
0000
0000
0001
0100
,
0010
0000
0000
0100
0000
0000
0002
0000
0000
0000
1003
0000
0001
0000
0100
0000
,
0010
0000
0000
0100
0000
0000
0002
0000
0000
0000
1003
0000
0010
0000
0000
0000
,
1000
0100
0001
0010
,
1000
0000
0100
0100
0110
0000
1000
0100
,
0010
0000
0000
0100
0000
0000
2000
0000
0000
0000
3001
0000
1000
0000
0100
0000
,
0010
0000
0000
0100
0000
0000
2000
0000
0000
0000
3001
0000
0010
0000
0001
0000
,
1000
0010
0100
0001
0010
1000
0010
0001
,
1000
0010
0001
0010
1000
0000
0001
0010
,
0100
0000
0000
0010
0000
0000
0002
0000
0000
0000
1003
0000
0001
0000
0010
0000
,
0100
0000
0000
0010
0000
0000
0002
0000
0000
0000
1003
0000
1010
0000
0000
0000
,
1001
0000
0000
0000
0001
0000
0000
0100
0000
0000
0010
0000
0000
1000
0000
0000
,
0001
0000
0000
0001
0010
0000
0100
0000
1000
0000
0001
0000
1000
0000
0010
0000
,
0100
0000
0000
0010
0000
0000
2000
0000
0000
0000
3001
0000
1000
0000
0010
0000
,
0100
0000
0000
0010
0000
0000
2000
0000
0000
0000
3001
0000
0010
0000
0001
0000
,
0100
0010
1000
0100
0010
0001
0100
1000
,
0100
0001
2000
0000
3000
0000
0002
0000
,
2003
0000
3100
0000
0000
0020
0000
0032
,
0000
0000
0203
0000
0000
0000
0310
0000
1000
0000
0000
0000
0001
0000
0000
0001
,
0000
0000
0100
0000
0010
0000
0010
0000
0010
0000
0000
0000
1000
0000
0000
1000
,
0000
0100
0010
0010
0010
0000
0002
0000
,
2003
0000
3010
0000
0000
0200
0000
0320
,
0000
2030
0000
0001
3001
0000
0100
0100
,
0000
0000
0010
0010
0000
0000
1000
1000
,
0000
0000
0001
0001
0000
0000
2000
0000
,
3002
0000
0103
0000
0000
0020
0000
2030
,
0000
0000
3200
0000
0000
0000
0310
0000
0001
0000
0000
0000
1000
0000
0000
1000
,
0000
0000
0100
0000
0010
0000
0010
0000
0010
0000
0000
0000
0001
0000
0000
0001
,
0000
0100
0010
0010
0010
0000
2000
0000
,
3002
0000
0013
0000
0000
0200
0000
0320
,
0000
0032
0000
1000
1003
0000
0001
0100
,
1000
0100
0001
0010
1000
0010
0001
0100
,
1000
0100
0001
0010
1000
0010
0001
0100
,
1000
0000
0000
0100
0000
0000
0002
0000
0000
0000
1003
0000
0001
0000
0100
0000
,
1000
0000
0000
0100
0000
0000
0002
0000
0000
0000
1003
0000
0020
0000
0000
0000
,
0000
0000
0030
2002
,
0000
0000
3003
0000
;

//---------------dance-single - NewbStepper-ESP----------------
#NOTEDATA:;
#CHARTNAME:NewbStepper-ESP;
#STEPSTYPE:dance-single;
#DESCRIPTION:NewbStepper-ESP;
#DIFFICULTY:Hard;
#METER:15;
#RADARVALUES:0.737759,0.887868,0.430968,0.226441,0.566103,707,648,59,31,0,0,0,0,0,0.737759,0.887868,0.430968,0.226441,0.566103,707,648,59,31,0,0,0,0,0;
#CREDIT:NewbStepper;
#NOTES:
0000
0000
0000
0000
,
0000
0000
0000
0000
,
1001
0000
0000
0000
,
0000
0000
0100
0010
,
1001
0000
0000
0000
,
0010
0010
0000
0000
0100
0110
1001
0000
,
0001
0000
0100
0000
1000
0000
0000
0100
0000
0000
0002
0000
0000
0000
1003
0000
,
0001
0000
0100
0000
1000
0000
0000
0100
0000
0000
0002
0000
0000
0000
1003
0000
,
0010
1000
0001
0000
0010
0000
0000
0001
0000
0000
1000
0000
0010
0100
0001
0000
,
0010
0001
1000
0000
0010
0000
0000
1000
0000
0000
0100
1000
0001
0000
0001
0000
,
1000
0000
0100
0000
0001
0000
0000
0100
0000
0000
2000
0000
0000
0000
3001
0000
,
1000
0000
0100
0000
0001
0000
0000
0100
1000
0010
0100
0000
0001
0000
0100
0000
,
0010
0000
1000
0100
0010
0000
0001
0000
1000
0010
1000
0000
0001
0010
0001
0000
,
1000
0100
0010
0001
0010
0100
1000
0001
0200
0000
0000
0000
0310
0000
0000
0000
,
1000
0100
1000
0000
0001
0100
0001
0000
1000
0000
0010
0100
0000
0010
0100
0000
,
0001
0100
0001
0000
1000
0100
1000
0000
0001
0000
0010
0100
0000
0010
0100
0000
,
1000
0010
0100
0000
0001
0010
0100
0000
1000
0000
0010
0100
0000
0100
0010
0000
,
1000
0100
1000
0000
1100
0000
0000
0000
0001
0100
0001
0000
0101
0000
0000
0000
,
0001
0100
0001
0000
1000
0100
1000
0000
0001
0000
0010
0100
0000
0010
0100
0000
,
1000
0100
1000
0000
0001
0100
0001
0000
1000
0000
0010
0100
0000
0010
0100
0000
,
0001
0010
0100
0000
1000
0010
0100
0000
0001
0000
0010
0100
0000
0100
0010
0000
,
0001
0000
1000
0000
0010
0100
0000
0000
0110
0000
0000
0110
0000
0000
0110
0000
,
2000
0100
0000
0100
0000
0100
0000
3100
,
0020
0001
0000
0031
1000
0000
1001
0000
,
0001
0100
0010
1000
0100
0010
0001
1000
,
0001
0000
0000
0100
0000
0000
0010
0000
1000
0001
1000
0001
1000
0000
0000
0000
,
0002
0100
0000
0100
0000
0100
0000
0103
,
0020
1000
0000
1030
0001
0000
1001
0000
,
1000
0010
0000
0100
0000
0000
0001
0000
1000
0010
0000
0100
0000
0000
0001
0000
,
1000
0010
1000
0010
1000
0000
0000
0000
0001
0010
0001
0010
0001
0000
0000
0000
,
0000
0000
1001
0000
1000
0100
0001
0100
,
1000
0001
0100
1000
0100
0001
0010
0000
,
1001
0001
0100
0010
1000
0100
0001
1000
,
0010
0001
0100
0001
0010
0100
1000
0000
,
1001
0000
0001
0010
0001
0100
1000
0100
,
0001
1000
0100
0001
0100
1000
0010
0000
,
1001
0000
1000
0000
1000
0000
0100
0010
0100
0000
1000
0000
0000
0000
1000
0100
,
0010
0000
0001
0000
0001
0000
0100
0010
0100
0000
0001
0000
0010
0000
0000
0000
,
0110
0000
0100
1000
0001
0000
1000
0100
0000
0100
0000
0100
0010
0000
0100
1000
,
0010
0000
0100
0000
1000
0000
0100
0000
0001
0000
1000
0010
1000
0000
0000
0000
,
0001
0100
0010
0100
0001
0000
1000
0100
0010
0000
0001
0100
0000
0000
0000
0000
,
0100
0000
1000
0100
1000
0000
0000
0000
0100
0000
0001
0100
0001
0000
0000
0000
,
1001
0000
1000
0100
0000
0000
0001
0000
0100
0000
1000
0010
0000
0000
1000
0000
,
0100
0000
0010
0001
0000
0000
0100
0010
1000
0001
0000
0100
0000
0000
0010
0000
,
1000
0010
1000
0000
0001
0000
0100
0000
0001
0010
0001
0000
0100
0000
0010
0000
,
1000
0001
1000
0000
0001
0000
0100
0001
0100
0010
1000
0100
0010
0001
0100
0010
,
1000
0010
0000
0010
,
0000
0010
0101
1100
,
0001
0010
0000
0010
,
0000
0000
0010
0001
0000
1000
0010
0010
,
1000
1000
0001
0001
,
0010
0100
1100
0101
,
0001
0001
1000
1000
,
0010
0000
0100
0101
0000
1001
1000
1000
,
0010
0000
0000
1000
0000
0000
0100
0000
0000
0001
0000
0000
0100
0000
0000
0010
,
0000
0001
1000
0000
1010
0000
0011
0000
,
0001
0000
0000
0010
0000
0000
0100
0000
0000
1000
0000
0000
0010
0000
0000
0000
,
0110
0110
0000
0000
0000
0000
1000
0100
,
0001
0000
0000
0100
0000
0000
2000
0000
0000
0000
3001
0000
1000
0000
0100
0000
,
0001
0000
0000
0100
0000
0000
2000
0000
0000
0000
3001
0000
0010
0001
1000
0000
,
0010
0000
0000
1000
0000
0000
0001
0000
0010
0100
1000
0000
0010
1000
0001
0000
,
0010
0000
0000
0001
0000
0000
0100
0001
1000
0000
1000
0000
0001
0000
0100
0000
,
1000
0000
0000
0100
0000
0000
0002
0000
0000
0000
1003
0000
0001
0000
0100
0000
,
1000
0000
0000
0100
0000
0000
0002
0000
0000
0000
1003
0000
0010
0000
1000
0010
,
1000
0010
0100
0010
1000
0100
0000
1000
0001
0010
0100
0000
1000
0010
1000
0000
,
0001
0010
0001
0000
1000
0100
0010
0001
1000
0000
0001
0000
1000
0000
0010
0000
,
0001
0000
0000
0010
0000
0000
2000
0000
0000
0000
3001
0000
1000
0000
0010
0000
,
0001
0000
0000
0010
0000
0000
2000
0000
0000
0000
3001
0000
0010
0001
0000
0000
,
0100
0000
0000
0000
0110
0000
0000
1010
0000
0000
0110
0000
0000
0001
1000
0000
,
0010
0000
0000
1000
0001
0100
0010
1000
0001
0100
0010
1000
0001
0000
0010
0000
,
1000
0000
0000
0010
0000
0000
0002
0000
0000
0000
1003
0000
0001
0000
0010
0000
,
1000
0000
0000
0010
0001
0100
0010
0000
1000
0000
0100
0000
0010
0000
0001
0100
,
0010
0000
1000
0000
0001
0010
0001
0000
1000
0010
1000
0000
0001
0100
0010
1000
,
0010
0100
0001
1000
0200
0000
0000
0000
0310
0000
0000
0000
0011
0000
0000
0000
,
0011
0000
2002
3003
0000
1100
0000
0101
,
0000
0000
0110
0000
0000
0000
1000
0001
1000
0000
0000
0000
0100
0000
0010
0001
,
0000
0000
0100
0000
0010
0000
1000
0010
0000
0000
0000
0000
0100
0000
0010
1000
,
0000
0000
0100
0010
0001
0000
1000
0000
1000
0000
0000
0000
1010
0000
0000
0000
,
1010
0000
2002
3003
0000
0101
0000
1100
,
0000
0000
0110
0000
0000
0000
0001
1000
0001
0000
0000
0000
1000
0000
2000
0000
,
3000
0000
0000
0000
0001
0000
0002
0000
0003
0000
0010
0100
0010
0000
0110
0000
,
0000
2002
0000
0000
3003
0000
1100
0000
,
1100
0000
2002
3003
0000
1010
0000
0011
,
0000
0000
0110
0000
0000
0000
1000
0000
0001
0000
0000
0000
0100
0000
0010
1000
,
0000
0000
0100
0000
0010
0000
0001
0010
0000
0000
0000
0000
0100
0000
1000
0000
,
0000
1100
0000
1001
0000
0011
0101
0000
,
0101
0000
2002
3003
0000
0011
0000
1010
,
0000
0000
0110
0000
0000
0000
0001
1000
0001
0000
0000
0000
1000
0000
0100
0000
,
0010
0001
1000
0010
0100
0001
0100
1000
,
0100
0000
0001
0000
1000
0100
1000
0100
0010
0001
0010
0001
1000
0000
0100
0000
,
0001
0000
0000
0100
0000
0000
2000
0000
0000
0000
3001
0000
1000
0000
0100
0000
,
0001
0000
0000
0100
0000
0000
2000
0000
0000
0000
3001
0000
0100
0010
0100
0010
,
1000
0001
1000
0001
0010
0100
0010
0100
1000
0001
1000
0001
0200
0000
0000
0000
,
0000
0000
0300
0000
;

//---------------dance-double - NewbStepper-EDP----------------
#NOTEDATA:;
#CHARTNAME:NewbStepper-EDP;
#STEPSTYPE:dance-double;
#DESCRIPTION:NewbStepper-EDP;
#DIFFICULTY:Hard;
#METER:15;
#RADARVALUES:0.705411,0.819570,0.387141,0.211832,0.493057,676,623,53,29,0,0,0,0,0,0.705411,0.819570,0.387141,0.211832,0.493057,676,623,53,29,0,0,0,0,0;
#CREDIT:NewbStepper;
#NOTES:
// measure 0
00000000
00000000
00000000
00000000
,  // measure 1
00000000
00000000
00000000
00000000
,  // measure 2
00011000
00000000
00000000
00000000
,  // measure 3
00000000
00000000
00000100
00000010
,  // measure 4
00001001
00000000
00000000
00000000
,  // measure 5
00010000
00001000
00000000
00000000
00001000
00010000
00011000
00000000
,  // measure 6
00001000
00000000
00010000
00000000
01000000
00000000
00000000
00010000
00000000
00000000
00002000
00000000
00000000
00000000
00103000
00000000
,  // measure 7
00001000
00000000
00010000
00000000
01000000
00000000
00000000
00010000
00000000
00000000
00002000
00000000
00000000
00000000
00013000
00000000
,  // measure 8
00000100
00001000
00000001
00000000
00000010
00000000
00000000
00000001
00000000
00000000
00000100
00000000
00001000
00010000
00001000
00000000
,  // measure 9
01000000
00010000
10000000
00000000
00100000
00000000
00000000
10000000
00000000
00000000
01000000
00010000
00001000
00000000
00001000
00000000
,  // measure 10
00010000
00000000
00001000
00000000
00000100
00000000
00000000
00001000
00000000
00000000
00020000
00000000
00000000
00000000
00030010
00000000
,  // measure 11
00010000
00000000
00001000
00000000
00000100
00000000
00000000
00000010
00001000
00000100
00000010
00000000
00000001
00000000
00000100
00000000
,  // measure 12
00001000
00000000
00010000
00001000
00010000
00000000
00100000
00000000
10000000
00000000
00010000
01000000
00100000
01000000
00010000
00000000
,  // measure 13
10000000
01000000
00100000
00000000
00010000
01000000
00010000
01000000
00200000
00000000
00000000
00000000
00310000
00000000
00000000
00000000
,  // measure 14
00001000
00010000
00001000
00000000
00010000
00000000
00000100
00000000
00000010
00000000
00000000
00000001
00000000
00000100
00001000
00000000
,  // measure 15
00010000
00001000
00010000
00000000
00001000
00000000
01000000
00000000
00100000
00000000
00000000
10000000
00000000
01000000
00010000
00000000
,  // measure 16
00001000
00010000
00000100
00000000
00001000
00000010
00010000
00000000
00001000
00000000
00000100
00000001
00000000
00001000
00000100
00000000
,  // measure 17
00010000
00000100
00010000
00000000
00011000
00000000
00000000
00000000
00001000
01000000
00001000
00000000
00011000
00000000
00000000
00000000
,  // measure 18
00010000
00001000
00010000
00000000
00001000
00000000
00100000
00000000
01000000
00000000
00000000
10000000
00000000
00100000
00010000
00000000
,  // measure 19
00001000
00010000
00001000
00000000
00010000
00000000
00000010
00000000
00000100
00000000
00000000
00000001
00000000
00000010
00001000
00000000
,  // measure 20
00010000
00001000
00100000
00000000
00010000
01000000
00001000
00000000
00010000
00000000
00100000
10000000
00000000
00010000
00100000
00000000
,  // measure 21
00001000
00000000
00010000
00000000
00000100
00010000
00000000
00000000
00001000
00010000
00001000
00010000
00001000
00100000
00001000
00100000
,  // measure 22
00020000
01000000
00000000
10000000
00000000
00100000
00000000
00001000
,  // measure 23
00000000
00100000
00000000
10030000
01000000
00000000
00010000
00000000
,  // measure 24
00001000
00000000
00000000
00010000
00000000
00000000
00001000
00000000
00000010
00000000
00000100
00000000
00000010
00000001
00000010
00000000
,  // measure 25
00000001
00000000
00000000
00000100
00000000
00000000
00000010
00000000
00001000
00000001
00001000
00000001
00001000
00000000
00000000
00000000
,  // measure 26
00002000
00000100
00000000
00000001
00000000
00000010
00000000
00010000
,  // measure 27
00000000
00000010
00000000
00003001
00000100
00000000
00001000
00000000
,  // measure 28
00010000
00001000
00000000
00001000
00000000
00000000
00000010
00000000
00001000
00010000
00000000
00010000
00000000
00000000
00100000
00000000
,  // measure 29
00010000
00001000
00010000
01000000
10000000
00100000
01100000
00000000
,  // measure 30
00000000
00000000
10010000
00000000
10000000
01000000
00010000
00001000
,  // measure 31
00010000
00100000
00001000
00000010
00010000
00001000
00000100
00000000
,  // measure 32
00000010
00001000
00000001
00000010
00000001
00000100
00001000
00010000
,  // measure 33
00001000
00000010
00010000
00100000
00001000
00010000
01000000
00000000
,  // measure 34
10000000
00100000
00010000
00001000
00100000
00010000
01000000
10000000
,  // measure 35
01000000
00010000
00100000
00001000
00010000
00000100
00000010
00000000
,  // measure 36
00000001
00000000
00000100
00001000
00000100
00000000
00001000
00010000
00001000
00000000
00100000
00000000
00000000
00000000
00010000
00000000
,  // measure 37
10000000
00000000
01000000
00010000
01000000
00000000
00010000
00001000
00010000
00000000
00000010
00000000
00000000
00000000
00000000
00000000
,  // measure 38
00001001
00001000
00000100
00000001
00001000
00000010
00000100
00010000
,  // measure 39
00001000
00000100
00000010
00010000
00100000
10000000
00010000
00000000
,  // measure 40
10000000
01000000
10000000
01000000
00100000
00000000
00010000
00000000
01000000
00000000
10000000
01000000
00000000
00000000
00010000
00000000
,  // measure 41
00100000
00001000
00011000
00000000
00000010
00010000
00011000
00000000
,  // measure 42
00001000
00000000
00000100
00000010
00000000
00000000
00001000
00000000
00000001
00000000
00000100
00001000
00000000
00000000
00010000
00000000
,  // measure 43
00001000
00000000
01000000
00001000
00000000
00000000
00100000
00010000
00100000
01000000
00000000
10000000
00000000
00000000
00100000
00000000
,  // measure 44
01000000
00010000
01000000
00000000
00001000
00000000
00010000
00000000
00000100
00001000
00000100
00000000
00010000
00000000
00001000
00000000
,  // measure 45
00100000
00010000
00100000
00000000
01000000
00000000
10000000
00000000
00010000
01000000
00100000
10000000
01000000
00100000
00010000
01000000
,  // measure 46
00100000
10000000
00000000
10000000
,  // measure 47
00000000
00010000
01001000
00010100
,  // measure 48
00000010
00000001
00000000
00000001
,  // measure 49
00000000
00000000
00001000
00000010
00000000
00000100
00001000
00001000
,  // measure 50
00010000
00010000
01000000
01000000
,  // measure 51
10000000
10000000
11000000
01010000
,  // measure 52
00001000
00001000
00000100
00000100
,  // measure 53
00000001
00000000
00000001
00000011
00000000
00001100
00001000
00001000
,  // measure 54
00000010
00000000
00000000
00000100
00000000
00000000
00000001
00000000
00000000
00000010
00000000
00000000
00001000
00000000
00000000
00010000
,  // measure 55
00000000
00001000
00100000
00000000
01100000
00000000
10010000
00000000
,  // measure 56
00010000
00000000
00000000
10000000
00000000
00000000
01000000
00000000
00000000
00010000
00000000
00000000
00001000
00000000
00000000
00000000
,  // measure 57
00011000
00011000
00000000
00000000
00000000
00000000
00010000
00001000
,  // measure 58
00000100
00000000
00000000
00001000
00000000
00000000
00020000
00000000
00000000
00000000
00030010
00000000
00010000
00000000
00001000
00000000
,  // measure 59
00000100
00000000
00000000
00001000
00000000
00000000
00020000
00000000
00000000
00000000
00031000
00000000
01000000
00010000
10000000
00000000
,  // measure 60
00100000
00000000
00000000
10000000
00000000
00000000
01000000
00000000
00010000
00001000
00010000
00000000
00000100
00001000
00000001
00000000
,  // measure 61
00000010
00000000
00000000
00000001
00000000
00000000
00000100
00001000
00010000
00000000
00010000
00000000
00001000
00000000
00010000
00000000
,  // measure 62
01000000
00000000
00000000
00010000
00000000
00000000
00002000
00000000
00000000
00000000
00103000
00000000
00001000
00000000
00010000
00000000
,  // measure 63
01000000
00000000
00000000
00010000
00000000
00000000
00002000
00000000
00000000
00000000
00103000
00000000
00010000
00000000
10000000
01000000
,  // measure 64
00100000
00000000
00010000
00000000
01000000
00100000
00000000
01000000
00100000
10000000
01000000
00000000
00010000
00001000
00010000
00000000
,  // measure 65
00000100
00000010
00000100
00000000
00001000
00000100
00000010
00000001
00000100
00000000
00001000
00000000
00010000
00000000
00001000
00000000
,  // measure 66
00000010
00000000
00000000
00001000
00000000
00000000
00020000
00000000
00000000
00000000
00030100
00000000
00010000
00000000
00001000
00000000
,  // measure 67
00000010
00000000
00000000
00001000
00000000
00000000
00020000
00000000
00000000
00000000
00031000
00000000
00100000
00010000
00000000
00000000
,  // measure 68
10000000
00000000
00000000
00000000
10010000
00000000
00000000
01010000
00000000
00000000
10010000
00000000
00000000
10000000
01000000
00000000
,  // measure 69
00010000
00000000
00000000
00001000
00100000
00001000
00010000
00000000
00001000
00000000
01000000
00000000
00001000
00000000
00010000
00000000
,  // measure 70
00100000
00000000
00000000
00010000
00000000
00000000
00002000
00000000
00000000
00000000
01003000
00000000
00001000
00000000
00010000
00000000
,  // measure 71
00100000
00000000
00000000
01000000
00010000
00100000
01000000
00000000
10000000
00000000
01000000
00000000
00010000
00000000
00001000
00010000
,  // measure 72
00001000
00000000
00000010
00000000
00000001
00000000
00001000
00000100
00000010
00000100
00001000
00000000
00000001
00000100
00000010
00000000
,  // measure 73
00001000
00000100
00001000
00000100
00000020
00000000
00000000
00000000
00001030
00000000
00000000
00000000
00011000
00000000
00000000
00000000
,  // measure 74
00011000
00000000
00020200
00030300
00000000
00011000
00000000
00101000
,  // measure 75
00000000
00000000
00110000
00000000
00000000
00000000
00010000
10000000
00010000
00000000
00000000
00000000
10000000
00000000
00000000
10000000
,  // measure 76
00000000
00000000
01000000
00000000
00010000
00000000
00001000
00010000
00000000
00000000
00000000
00000000
00000010
00000000
00000000
00000010
,  // measure 77
00000000
00000000
00001000
00000100
00000010
00000000
00000001
00000000
00000001
00000000
00000000
00000000
00001001
00000000
00000000
00000000
,  // measure 78
00001001
00000000
00002200
00003300
00000000
00000110
00000000
00001010
,  // measure 79
00000000
00000000
00011000
00000000
00000000
00000000
00010000
00001000
00010000
00000000
00000000
00000000
00100000
00000000
00200000
00000000
,  // measure 80
00300000
00000000
00000000
00000000
01000000
00000000
02000000
00000000
03000000
00000000
00010000
10000000
00010000
00000000
10010000
00000000
,  // measure 81
00000000
00202000
00000000
00000000
00303000
00000000
00011000
00000000
,  // measure 82
00011000
00000000
02002000
03003000
00000000
00011000
00000000
00010010
,  // measure 83
00000000
00000000
00001010
00000000
00000000
00000000
00001000
00000000
00000001
00000000
00000000
00000000
00000001
00000000
00000000
00000001
,  // measure 84
00000000
00000000
00000100
00000000
00001000
00000000
00010000
00001000
00000000
00000000
00000000
00000000
00100000
00000000
00110000
00000000
,  // measure 85
00000000
10010000
00000000
10100000
00000000
01100000
10010000
00000000
,  // measure 86
10010000
00000000
02020000
03030000
00000000
01100000
00000000
00110000
,  // measure 87
00000000
00000000
00011000
00000000
00000000
00000000
00001000
00010000
00001000
00000000
00000000
00000000
00100000
00000000
00001000
00000000
,  // measure 88
00010000
00001000
00000010
00000001
00000100
00000010
00001000
00000001
,  // measure 89
00000100
00000000
00001000
00000000
00010000
00001000
00010000
00000000
00000100
00010000
00000100
00010000
00001000
00000000
00010000
00000000
,  // measure 90
01000000
00000000
00000000
00010000
00000000
00000000
00002000
00000000
00000000
00000000
00103000
00000000
00001000
00000000
00010000
00000000
,  // measure 91
01000000
00000000
00000000
00010000
00000000
00000000
00002000
00000000
00000000
00000000
00103000
00000000
00010000
01000000
00010000
01000000
,  // measure 92
00001000
00010000
00001000
00010000
00000100
00001000
00000100
00001000
00000001
00000100
00000001
00000100
00000020
00000000
00000000
00000000
,  // measure 93
00000000
00000000
00000030
00000000
;

//---------------dance-double - NewbStepper-DDP----------------
#NOTEDATA:;
#CHARTNAME:NewbStepper-DDP;
#STEPSTYPE:dance-double;
#DESCRIPTION:NewbStepper-DDP;
#DIFFICULTY:Medium;
#METER:12;
#RADARVALUES:0.519666,0.614678,0.248355,0.314096,0.076698,498,464,34,43,0,0,0,0,0,0.519666,0.614678,0.248355,0.314096,0.076698,498,464,34,43,0,0,0,0,0;
#CREDIT:NewbStepper;
#NOTES:
// measure 0
00000000
00000000
00000000
00000000
,  // measure 1
00000000
00000000
00000000
00000000
,  // measure 2
00011000
00010000
00000000
00010000
,  // measure 3
00000000
00001000
00000000
00001000
,  // measure 4
00010000
00000000
00010100
00000000
,  // measure 5
00001000
00000000
00101000
00000000
00100000
00001000
00010000
00000000
,  // measure 6
00000100
00000000
00001000
00000000
00000010
00000000
00000000
00000100
00000000
00000000
00002000
00000000
00000000
00000000
00013000
00000000
,  // measure 7
00000100
00000000
00001000
00000000
00000010
00000000
00000000
00000100
00000000
00000000
00002000
00000000
00000000
00000000
00013000
00000000
,  // measure 8
00001000
00010000
00100000
00000000
10000000
01000000
00100000
01000000
,  // measure 9
00010000
00001000
00000010
00000000
00000001
00000100
00001000
00000000
,  // measure 10
01000000
00000000
00010000
00000000
00100000
00000000
00000000
01000000
00000000
00000000
00020000
00000000
00000000
00000000
00031000
00000000
,  // measure 11
01000000
00000000
00010000
00000000
00100000
00000000
00000000
01000000
00000000
00000000
00020000
00000000
00000000
00000000
00031000
00000000
,  // measure 12
00000010
00000001
00000100
00001000
00000100
00000001
00001000
00000100
,  // measure 13
00000010
00001000
00010000
00100000
20000000
00000000
30010000
00000000
,  // measure 14
10000000
00000000
11000000
00000000
01000000
00010000
00001000
00000000
,  // measure 15
00100000
00000000
00110000
00000000
00010000
01000000
00001000
00000000
,  // measure 16
00010000
00000000
00010100
00000000
00000100
00000010
00001000
00000000
,  // measure 17
00010000
00001000
00000010
00000000
00000001
00001000
00001001
00000000
,  // measure 18
00000001
00000000
00000101
00000000
00000100
00001000
00010000
00000000
,  // measure 19
00000010
00000000
00001010
00000000
00001000
00000100
00010000
00000000
,  // measure 20
00001000
00000000
01001000
00000000
01000000
00100000
00010000
00000000
,  // measure 21
00002000
00000000
00020000
00033000
,  // measure 22
00001000
00100000
00000000
00010000
00000000
10000000
00000000
01000000
,  // measure 23
00000000
00010000
00000000
00001000
00010000
00000000
00011000
00000000
,  // measure 24
00001000
00000100
00001000
00000000
00000100
00000001
00000100
00000000
,  // measure 25
00000001
00000010
00000001
00000010
00001000
00010000
00001000
00000000
,  // measure 26
00010000
00000010
00000000
00001000
00000000
00000001
00000000
00000100
,  // measure 27
00000000
00001000
00000000
00010000
00001000
00000000
00011000
00000000
,  // measure 28
00100000
00000000
00000000
00001000
00000000
00000000
00010000
00000000
00000010
00000000
00000000
00010000
00000000
00000000
00001000
00000000
,  // measure 29
02000000
00000000
03200000
00000000
,  // measure 30
00300000
10010000
10000000
00100000
,  // measure 31
01000000
00010000
00100000
00000000
00001000
00010000
00000010
00000000
,  // measure 32
00001001
00001000
00000001
00000010
,  // measure 33
00000100
00001000
00000010
00000000
00010000
00001000
00100000
00000000
,  // measure 34
10010000
00000000
00010000
00000000
10000000
01000000
00010000
00000000
,  // measure 35
00001000
00000100
00000001
00000000
00000010
00000100
00000010
00000000
,  // measure 36
00000001
00000100
00000010
00000100
00001000
00010000
00000000
00100000
,  // measure 37
10000000
01000000
00100000
01000000
00010000
00001000
00000000
00000000
,  // measure 38
00000010
00000001
00001000
00000010
00000100
00001000
00010000
00000100
,  // measure 39
00000010
00000000
00001000
00000000
00010000
00000000
00001000
00000000
00100000
00000000
00000000
00010000
00000000
00000000
00000000
00000000
,  // measure 40
10000000
01000000
00010000
01000000
00100000
00001000
00000000
00010000
,  // measure 41
00000100
00000010
00001000
00000000
00010000
00000010
00000100
00000000
,  // measure 42
00000001
00000100
00001000
00000000
00000100
00001000
00010000
00000000
,  // measure 43
00001000
00010000
01000000
00000000
00010000
01000000
10000000
00000000
,  // measure 44
10100000
10010000
00110000
00101000
,  // measure 45
00011000
00010010
00011000
00001100
,  // measure 46
00000101
00000001
00000000
00000001
,  // measure 47
00000000
00001000
00000100
00010000
,  // measure 48
00011000
00001000
00000000
00001000
,  // measure 49
00000000
00000000
01000000
00100000
00000000
00100000
10000000
10000000
,  // measure 50
10010000
10000000
00000000
10000000
,  // measure 51
00000000
00010000
01000000
00001000
,  // measure 52
00011000
00010000
00000000
00010000
,  // measure 53
00000000
00000000
00000100
00000010
00000000
00000010
00000001
00000001
,  // measure 54
00001001
00001000
00000010
00000100
,  // measure 55
00010000
00001000
00010000
01000000
,  // measure 56
01100000
00100000
10000000
00010000
,  // measure 57
01010000
01010000
00000000
00000000
00000000
00000000
01000000
00010000
,  // measure 58
00100000
00000000
00000000
01000000
00000000
00000000
00020000
00000000
00000000
00000000
00031000
00000000
01000000
00000000
00010000
00000000
,  // measure 59
00100000
00000000
00000000
01000000
00000000
00000000
00020000
00000000
00000000
00000000
00031000
00000000
00010000
00000000
00001000
00000000
,  // measure 60
00000010
00000000
00000001
00000100
00000010
00000100
00001000
00010000
,  // measure 61
00100000
00000000
10000000
01000000
00010000
00000000
00000100
00001000
,  // measure 62
00000010
00000000
00000000
00000100
00000000
00000000
00002000
00000000
00000000
00000000
00013000
00000000
00000100
00000000
00001000
00000000
,  // measure 63
00000010
00000000
00000000
00000100
00000000
00000000
00002000
00000000
00000000
00000000
00013000
00000000
00001000
00000000
00010000
00000000
,  // measure 64
00100000
10000000
01000000
00100000
00001000
00010000
00100000
01000000
,  // measure 65
00001000
00010000
00000100
00010000
00001000
00000000
00100000
00010000
,  // measure 66
01000000
00000000
00000000
00100000
00000000
00000000
00020000
00000000
00000000
00000000
00031000
00000000
00100000
00000000
00010000
00000000
,  // measure 67
01000000
00000000
00000000
00100000
00000000
00000000
00020000
00000000
00000000
00000000
00031000
00000000
00011000
00000000
00000000
00000000
,  // measure 68
00010100
00000000
00000000
00000000
00001000
00000000
00000000
00010000
00000000
00000000
00001000
00000000
00000000
00000000
00000010
00000000
,  // measure 69
00000001
00000000
00000100
00001000
00010000
00000000
00000010
00001000
,  // measure 70
00000100
00000000
00000000
00000010
00000000
00000000
00002000
00000000
00000000
00000000
00013000
00000000
00000010
00000000
00001000
00000000
,  // measure 71
00000100
00000000
00000000
00000010
00000000
00000000
00002000
00000000
00000000
00000000
00013000
00000000
00100000
00000000
10000000
00000000
,  // measure 72
01000000
00010000
01000000
10000000
00010000
01000000
00100000
00010000
,  // measure 73
00001000
00000010
00000002
00000000
00000003
00000000
00002000
00000000
,  // measure 74
00003200
00000000
00010300
00000000
00000000
00002000
00000000
00023000
,  // measure 75
00000000
00000000
00230000
00000000
00000000
00000000
10300000
00000000
00010000
00000000
00000000
00000000
01000000
00000000
00000000
01000000
,  // measure 76
00000000
00000000
00001000
00000000
00100000
00000000
00001000
00000000
00010000
00000000
00000000
00000000
00000100
00000000
00000000
00000100
,  // measure 77
00000000
00010000
00000010
00010000
00001000
00000000
00200000
00000000
,  // measure 78
02300000
00000000
03010000
00000000
00000000
00002000
00000000
00003020
,  // measure 79
00000000
00000032
00000000
00001000
00001003
00000000
00000001
00000001
,  // measure 80
00000000
00000000
00001000
00001000
00000000
00000000
00010000
00010000
,  // measure 81
00000000
00000000
10000000
10000000
00000000
00000000
00020000
00000000
,  // measure 82
02030000
00000000
03001000
00000000
00000000
00020000
00000000
00032000
,  // measure 83
00000000
00000000
00003020
00000000
00000000
00000000
00000031
00000000
00001000
00000000
00000000
00000000
00000100
00000000
00000000
00000100
,  // measure 84
00000000
00010000
00000010
00010000
00001000
00000000
01000000
00010000
,  // measure 85
00000000
10000000
00000000
01000000
00000000
00010000
00000020
00000000
,  // measure 86
00000230
00000000
00001300
00000000
00000000
00020000
00000000
00230000
,  // measure 87
00000000
20300000
00000000
00010000
30010000
00000000
10000000
01000000
,  // measure 88
00100000
00010000
01000000
00100000
00010000
00001000
00100000
00010000
,  // measure 89
00001000
00000100
00010000
00001000
00000100
00000010
00001000
00000100
,  // measure 90
00000010
00000000
00000000
00001000
00000000
00000000
00020000
00000000
00000000
00000000
00030100
00000000
00001000
00000000
00000100
00000000
,  // measure 91
00000010
00000000
00000000
00001000
00000000
00000000
00020000
00000000
00000000
00000000
00031000
00000000
00200000
00000000
00000000
00000000
,  // measure 92
00000000
00000000
00300000
20020000
,  // measure 93
00000000
00000000
30030000
00000000
;

//---------------dance-double - NewbStepper-BDP----------------
#NOTEDATA:;
#CHARTNAME:NewbStepper-BDP;
#STEPSTYPE:dance-double;
#DESCRIPTION:NewbStepper-BDP;
#DIFFICULTY:Easy;
#METER:8;
#RADARVALUES:0.324531,0.546380,0.175309,0.197223,0,311,287,24,27,0,0,0,0,0,0.324531,0.546380,0.175309,0.197223,0,311,287,24,27,0,0,0,0,0;
#CREDIT:NewbStepper;
#NOTES:
// measure 0
00000000
00000000
00000000
00000000
,  // measure 1
00000000
00000000
00000000
00000000
,  // measure 2
00011000
00000000
00000000
00000000
,  // measure 3
00000000
00000000
00000000
00000000
,  // measure 4
00011000
00000000
00000000
00000000
,  // measure 5
00100000
00000000
00010000
00010000
,  // measure 6
01000000
00100000
00010000
00001000
,  // measure 7
01000000
00100000
00010000
00001000
,  // measure 8
00000020
00000000
00000230
00000000
,  // measure 9
00001300
00001000
00001100
00000000
,  // measure 10
00000100
00000010
00001000
00010000
,  // measure 11
00000100
00000010
00001000
00010000
,  // measure 12
00100000
10000000
01000000
00010000
,  // measure 13
00001000
00000100
00000002
00000003
,  // measure 14
00001000
00001000
00000001
00000100
,  // measure 15
00000010
00000010
00001000
00010000
,  // measure 16
01000000
01000000
00100000
00010000
,  // measure 17
00001000
00100000
00100000
00000000
,  // measure 18
00010000
00010000
10000000
01000000
,  // measure 19
00100000
00100000
00010000
00001000
,  // measure 20
00000100
00000100
00000010
00001000
,  // measure 21
00020000
00030000
00002000
00003000
,  // measure 22
00000010
00000000
00000010
00000000
,  // measure 23
00000010
00000000
00000010
00000001
,  // measure 24
00001000
00000100
00010000
00000000
,  // measure 25
00002000
00003000
00020000
00030000
,  // measure 26
00100000
10000000
00100000
10000000
,  // measure 27
01000000
00100000
01000000
00100000
,  // measure 28
01100000
00000000
10010000
00000000
,  // measure 29
00022000
00000000
00033000
00000000
,  // measure 30
00000000
00000100
00001000
00000010
,  // measure 31
00000100
00000001
00000010
00001000
,  // measure 32
00011000
01000000
00001000
00100000
,  // measure 33
01000000
10000000
00100000
00010000
,  // measure 34
00011000
00001000
00000010
00000001
,  // measure 35
00000100
00000010
00000100
00000001
,  // measure 36
00001000
00001000
00000100
00000000
,  // measure 37
00010000
00010000
00001000
00000000
,  // measure 38
00010000
00100000
10000000
00100000
,  // measure 39
00010000
00001000
00010000
00000000
,  // measure 40
00001000
00000010
00000001
00000010
,  // measure 41
00001000
00010000
00001000
00000000
,  // measure 42
00100000
00010000
01000000
00100000
,  // measure 43
10000000
01000000
00010000
00001000
,  // measure 44
00011000
00010000
00011000
00001000
,  // measure 45
00011000
00011000
00011000
00011000
,  // measure 46
00011000
00000000
00000000
00000000
,  // measure 47
00000000
00000000
00000100
00000010
,  // measure 48
00000110
00000000
00000000
00000000
,  // measure 49
00000000
00000000
00000000
00000001
00000000
00000001
00001000
00001000
,  // measure 50
00000100
00000000
00000000
00000000
,  // measure 51
00000000
00000000
01000000
00100000
,  // measure 52
01100000
00000000
00000000
00000000
,  // measure 53
00000000
00000000
00000000
10000000
00000000
10000000
00010000
00010000
,  // measure 54
01000000
00000000
00000000
00000000
,  // measure 55
00000000
00000000
00000010
00000100
,  // measure 56
00000110
00000000
00000000
00000000
,  // measure 57
00000001
00001000
00000000
00000000
00000000
00000000
00000100
00000000
,  // measure 58
00000010
00001000
00010000
00000100
,  // measure 59
00000010
00001000
00010000
00200000
,  // measure 60
00000000
02300000
00000000
03010000
,  // measure 61
00010000
01010000
00000000
01000000
,  // measure 62
00100000
00010000
00001000
01000000
,  // measure 63
00100000
00010000
00001000
00000010
,  // measure 64
00000001
00000100
00001000
00010000
,  // measure 65
01000000
10000000
00010000
00100000
,  // measure 66
01000000
00010000
00001000
00100000
,  // measure 67
01000000
00010000
00001000
00011000
,  // measure 68
00000000
01100000
00000000
00011000
,  // measure 69
00000000
00000110
00000000
00000010
,  // measure 70
00000100
00001000
00010000
00000010
,  // measure 71
00000100
00001000
00010000
00100000
,  // measure 72
10000000
01000000
00010000
00001000
,  // measure 73
00000100
00000002
00000003
00001000
,  // measure 74
00001000
00000000
00000100
00000000
00000000
00000001
00000000
00000001
,  // measure 75
00000000
00000100
00000000
00010000
00001000
00000000
00020000
00000000
,  // measure 76
01030000
20000000
30100000
00010000
,  // measure 77
01000000
00100000
10000000
00010000
,  // measure 78
00010000
00000000
01000000
00000000
00000000
10000000
00000000
10000000
,  // measure 79
00000000
01000000
00000000
00001000
00010000
00000000
00002000
00000000
,  // measure 80
00003000
00000020
00000030
00000002
,  // measure 81
00000003
00000200
00000300
00000001
,  // measure 82
00000001
00000000
00000010
00000000
00000000
00001000
00000000
00001000
,  // measure 83
00000000
00010000
00000000
00100000
10000000
00000000
00020000
00000000
,  // measure 84
00130000
00000000
20000000
00000000
31000000
00000000
00010000
00100000
,  // measure 85
00000000
01000000
00000000
01000000
00000000
01000000
10000000
00000000
,  // measure 86
10000000
00000000
00100000
00000000
00000000
00010000
00000000
00010000
,  // measure 87
00000000
00001000
00000000
00000010
00000001
00000000
00002000
00000000
,  // measure 88
00003000
00000020
00000030
00020000
,  // measure 89
00030000
00002000
00003000
00010000
,  // measure 90
00100000
10000000
01000000
00010000
,  // measure 91
00001000
00000010
00000001
00002000
,  // measure 92
00000000
00000000
00003000
00002002
,  // measure 93
00000000
00000000
00003003
00000000
;
