#TITLE:REBIRTH OF THE JAZZ;
#ARTIST:Maxie x Jonny Dynamite!;
#BANNER:REBIRTH OF THE JAZZ.png;
#BACKGROUND:REBIRTH OF THE JAZZ-bg.png;
#MUSIC:REBIRTH OF THE JAZZ.ogg;
#OFFSET:-0.05;
#SAMPLESTART:45.655;
#SAMPLELENGTH:15;
#BPMS:0=124;

//---------------dance-single - DDRDAIKENKAI-bSP----------------
#NOTES:
     dance-single:
     DDRDAIKENKAI:
     Beginner:
     3:
     0.137291,0.202323,0.084301,0.236044,0,114,104,10,28,0,0,0.137291,0.202323,0.084301,0.236044,0,114,104,10,28,0,0:
0000
0000
0000
0000
,
0000
0000
0000
0000
,
0000
0000
0000
0000
,
0000
0000
0000
0000
,
2000
0000
3000
0000
,
0002
0000
0003
0000
,
0200
0000
0300
0000
,
0020
0000
0030
0000
,
1000
1000
1000
0000
,
0001
0001
0001
0000
,
0100
0100
0100
0000
,
0010
0010
0010
0000
,
0000
0110
0000
1001
,
0000
0001
0001
0001
,
0001
0000
1000
0000
,
0100
0000
0010
0000
,
0002
0000
0003
0000
,
2000
0000
3000
0000
,
0010
0000
0010
0000
,
0100
0100
0100
0000
,
0001
0001
0000
1000
,
0000
0001
0000
1000
,
1000
0000
1000
0000
,
2002
0000
3003
0000
,
0100
0100
0100
0000
,
0010
0010
0010
0000
,
1000
1000
0000
0001
,
0000
1000
0000
0001
,
0001
0000
0100
0000
,
0010
0000
1000
1000
,
1000
0000
0010
0000
,
0220
0000
0330
0000
,
0002
0000
0000
0000
,
0003
0000
0000
0000
,
2000
0000
0000
0000
,
3000
0000
0000
0000
,
0100
0000
0100
0000
,
0010
0000
0010
0000
,
0001
0001
0001
0000
,
1000
1000
1000
0000
,
1001
0000
0001
0000
,
1000
1000
1000
0000
,
0010
0000
0100
0000
,
0001
0001
0001
0000
,
0020
0000
0030
0000
,
0200
0000
0300
0000
,
1000
0000
0001
0000
,
0100
0100
0100
0000
,
0220
0000
0330
0000
,
0010
0000
0010
0000
,
0220
0000
0330
0000
,
1000
0000
1000
0000
,
2002
0000
3003
0000
,
0001
0000
0001
0000
,
2002
0000
3003
0000
,
0220
0000
0330
0000
,
0020
0000
0030
0000
,
2000
0000
3000
0000
,
0002
0000
0003
0000
,
0200
0000
0300
0000
,
0010
0000
0000
0000
;

//---------------dance-single - DDRDAIKENKAI-ESP----------------
#NOTES:
     dance-single:
     DDRDAIKENKAI:
     Hard:
     12:
     0.500991,0.505808,0.185463,0.177033,0.105377,416,394,22,21,0,0,0.500991,0.505808,0.185463,0.177033,0.105377,416,394,22,21,0,0:
// measure 0
0000
0000
0000
0000
,  // measure 1
0000
0000
0000
0000
,  // measure 2
0000
0000
0000
0000
,  // measure 3
0000
0000
0000
0000
,  // measure 4
0000
0000
0001
0000
0000
0001
0000
0000
1000
0000
0000
0010
0000
0000
0001
0000
,  // measure 5
0010
0000
1000
0000
0000
1000
0000
0000
0001
0000
0000
0010
0000
0000
1000
0000
,  // measure 6
0010
0000
0001
0000
0000
0001
0000
0000
1000
0000
0000
0010
0000
0000
0001
0000
,  // measure 7
0000
0000
0010
0000
0100
0000
0010
0000
1000
0000
0000
0100
0000
0000
0010
0000
,  // measure 8
0002
0000
1003
0010
1000
0100
0010
0000
,  // measure 9
0001
1000
0001
1000
0100
0100
1000
0000
,  // measure 10
0001
0100
0001
0100
0010
1000
0010
1000
,  // measure 11
0100
0001
0100
1000
0010
0100
0110
0000
,  // measure 12
1001
1001
1001
0000
1000
0010
0101
0000
,  // measure 13
0001
0010
0100
1000
0010
0010
1010
0000
,  // measure 14
0010
0100
0010
1000
0100
1000
0010
0100
,  // measure 15
1001
0000
0001
1000
0010
1000
0100
0010
,  // measure 16
0012
0000
1003
0001
0100
0001
0100
0010
,  // measure 17
2010
0000
3001
1000
0100
1000
0100
0010
,  // measure 18
0001
0100
0010
1000
0100
0010
0100
1000
,  // measure 19
0010
1000
0001
1000
0010
0100
0010
0100
,  // measure 20
0001
0010
1000
0001
0100
1000
0010
0001
,  // measure 21
1000
0100
0001
0010
1000
0001
0100
1000
,  // measure 22
0001
0000
0010
0001
0000
1000
0100
0000
1000
0000
0001
0000
0100
0000
0010
0000
,  // measure 23
0220
0000
0000
0000
0030
0010
0310
1000
,  // measure 24
1001
0001
0100
0010
0100
0001
1000
0010
,  // measure 25
0100
0010
1000
0001
0010
0100
1000
0010
,  // measure 26
1000
0001
1000
0010
0100
0001
1000
0100
,  // measure 27
1000
0001
0010
0100
1000
0001
1001
0000
,  // measure 28
1000
0100
1000
0010
1000
0001
0100
0010
,  // measure 29
1000
0010
0100
0001
0010
0100
1000
0001
,  // measure 30
1000
0001
0010
0001
1000
0001
0100
0010
,  // measure 31
0120
0000
0000
0000
0130
0000
0001
1000
0200
0000
0000
0000
1300
0001
1000
0001
,  // measure 32
1000
0000
0000
0010
0000
0000
0200
0000
0001
0000
0000
0000
0010
0000
0000
0000
,  // measure 33
0301
0000
0000
0100
0000
0000
0020
0000
1000
0000
0000
0000
0100
0000
0000
0000
,  // measure 34
1030
0000
0000
0100
0000
0000
0020
0000
0001
0000
0000
0000
0100
0000
0000
0000
,  // measure 35
0031
0000
0000
0010
0000
0000
0200
0000
1000
0000
0000
0000
1300
0000
0001
0000
,  // measure 36
0002
0000
0000
0010
0000
0000
0013
0000
0200
0000
0000
1000
0000
0000
1300
0000
,  // measure 37
0020
0000
0000
0100
0000
0000
0130
0000
0002
0000
0000
1000
0000
0000
1003
0000
,  // measure 38
0010
0100
0010
0001
1000
0100
0010
0100
,  // measure 39
0001
0010
1000
0100
0001
0001
0001
1000
,  // measure 40
0001
0100
1000
0001
0010
1000
0100
0001
,  // measure 41
1000
0010
0001
0100
0101
0010
1100
0000
,  // measure 42
1000
0001
0011
0000
0001
1000
1010
0000
,  // measure 43
1000
0010
0001
0010
1000
0001
1000
0010
,  // measure 44
2010
0000
3001
1000
0100
1000
0100
0010
,  // measure 45
0012
0000
1003
0001
0100
0001
0100
0010
,  // measure 46
1000
0100
0010
1000
0001
0100
0010
0001
,  // measure 47
1000
0010
0100
1000
0001
0010
0100
0001
,  // measure 48
1001
0001
0010
0100
0010
0001
1000
0001
,  // measure 49
0100
0010
1000
0100
0010
0100
1000
0001
,  // measure 50
1000
0010
0100
0001
1000
0100
0010
0100
,  // measure 51
0010
1000
0001
1000
0010
0001
1001
0000
,  // measure 52
1000
0100
1000
0001
0010
0100
1000
0001
,  // measure 53
0010
0001
1000
0100
0010
0001
1000
0010
,  // measure 54
1000
0001
0100
0010
1000
0001
0100
0001
,  // measure 55
1000
0000
0010
0000
0100
0000
0001
0000
1000
0001
1000
0000
1001
0000
0000
0000
,  // measure 56
1000
0000
0000
0100
0000
0000
0020
0000
0001
0000
0000
0000
0100
0000
0000
0000
,  // measure 57
0031
0000
0000
0100
0000
0000
0020
0000
1000
0000
0000
0000
0100
0000
0000
0000
,  // measure 58
1030
0000
0000
0100
0000
0000
0020
0000
0001
0000
0000
0000
0100
0000
0000
0000
,  // measure 59
0031
0000
0000
0100
0000
0000
0020
0000
1000
0000
0000
0000
0001
0000
0000
0000
,  // measure 60
0130
0000
0000
0000
;

//---------------dance-single - DDRDAIKENKAI-BSP----------------
#NOTES:
     dance-single:
     DDRDAIKENKAI:
     Easy:
     5:
     0.214366,0.252904,0.092732,0.269764,0,178,167,11,32,0,0,0.214366,0.252904,0.092732,0.269764,0,178,167,11,32,0,0:
0000
0000
0000
0000
,
0000
0000
0000
0000
,
0000
0000
0000
0000
,
0000
0000
0000
0000
,
2000
0000
3100
0100
,
0020
0000
0031
0001
,
0200
0000
0310
0010
,
2000
0000
3001
0001
,
1000
0000
0100
0000
,
1000
0000
0001
0000
,
0010
0000
0001
0000
,
0100
0100
0010
0000
,
1001
1000
0001
0001
,
0100
0100
0100
0100
,
0010
1000
0100
0010
,
0001
0001
1000
1000
,
2002
3003
0001
0100
,
0220
0330
0010
1000
,
0001
0010
0001
1000
,
0001
0100
0010
1000
,
0002
0010
0000
0103
,
2000
0010
0000
3100
,
0010
0001
1000
0100
,
0220
0000
0000
0330
,
0010
0001
0010
0001
,
0100
0001
0100
0001
,
0100
0010
0100
0010
,
1000
0010
1000
0010
,
1000
0100
1000
0100
,
1000
0001
1000
0001
,
0100
0010
0100
0010
,
0220
0000
0330
0001
,
0002
0000
0100
0000
,
0010
0010
0013
0000
,
2000
0000
0100
0000
,
0010
0010
3010
0000
,
1000
0000
0001
0000
,
1000
0000
0001
0000
,
1000
0010
0100
0001
,
1000
1000
1000
1000
,
0001
1000
0100
0010
,
0001
0001
0001
0000
,
1000
1000
0010
0010
,
0100
0100
0100
0000
,
0220
0330
1000
0100
,
0220
0330
0001
0100
,
0001
0001
0010
0010
,
0100
0100
1000
1000
,
2002
0000
3003
0000
,
0001
0100
0010
1000
,
2002
0000
3003
0000
,
1000
0010
0100
0001
,
2002
0000
3003
0000
,
1000
0001
0010
0100
,
0220
0000
0330
0000
,
1000
1000
0001
0001
,
0200
0000
0000
0300
,
0020
0000
0000
0030
,
2000
0000
0000
3000
,
0002
0000
0000
0003
,
0100
0000
0000
0000
;

//---------------dance-single - DDRDAIKENKAI-DSP----------------
#NOTES:
     dance-single:
     DDRDAIKENKAI:
     Medium:
     9:
     0.315528,0.379356,0.059011,0.345636,0,262,255,7,41,0,0,0.315528,0.379356,0.059011,0.345636,0,262,255,7,41,0,0:
0000
0000
0000
0000
,
0000
0000
0000
0000
,
0000
0000
0000
0000
,
0000
0000
0000
0000
,
0000
1000
0000
1000
0000
0001
0000
0001
,
0000
0100
0000
0100
0000
0010
0000
0010
,
0000
1000
0000
0100
0000
0001
0000
0100
,
0000
1000
0000
0010
0000
0001
0000
0010
,
1000
0001
1000
1000
,
0010
0000
0100
0000
0010
1000
0010
0000
,
0100
0001
1000
1000
,
0100
0000
0100
0000
0010
0100
0010
0000
,
0001
0001
0001
0000
0100
0100
0100
0000
,
0010
1000
0100
0000
0010
0010
0010
0000
,
0001
1000
0100
1000
,
0002
0000
0100
0000
0103
0010
1000
0000
,
2020
0000
3030
0000
0001
0100
0001
0000
,
2200
0000
3300
0000
0010
0001
0010
0000
,
0100
1000
0010
0001
,
0010
1000
0100
0010
0001
0100
0010
0000
,
1000
0000
1000
0001
0000
0001
0100
0000
,
0010
0000
0010
0100
0000
0100
0001
0000
,
1000
0100
0010
0001
,
2002
0000
3003
0000
,
0002
0000
0103
0000
0100
0010
1000
0000
,
0200
0000
0310
0000
0010
0001
0100
0000
,
0002
1003
0200
1300
,
0020
0000
2030
0000
3100
0010
0001
0000
,
2000
0000
3020
0000
0130
0010
1000
0000
,
0002
0000
0203
0000
0310
0100
0001
0000
,
0010
0100
1000
0000
0100
0010
0001
0000
,
2002
0000
3003
0000
,
0100
0000
0100
0000
0010
1000
0100
0000
,
0010
0000
0010
0000
0001
0100
0010
0000
,
1000
0000
1000
0000
0001
0100
0001
0000
,
1000
0010
1000
0010
1000
1000
1000
0000
,
0100
0000
0000
0100
0000
0010
0000
0010
,
0001
0000
0000
0001
0000
1000
0000
1000
,
0010
0000
0010
0000
0010
0100
0010
0000
,
2002
0000
0000
3003
,
0001
0000
0100
0010
0000
1000
0100
0000
,
0010
0001
0100
0010
2000
0000
3000
0000
,
0001
0100
0001
0000
1000
0010
1000
0000
,
0010
0100
0010
1000
0001
0001
0001
0000
,
0020
0000
0130
0000
0100
1000
0001
0000
,
0200
0000
0310
0000
0010
1000
0001
0000
,
0100
0001
0100
0000
0010
1000
0010
0000
,
1000
0001
0100
0010
1000
0000
0110
0000
,
1002
0000
0103
0000
0100
0010
1000
0000
,
0200
0000
0310
0000
0010
0001
1000
0000
,
0020
1030
2000
3001
,
0001
0100
0010
0000
1000
0001
0100
0000
,
0020
0000
1030
0000
0100
0001
0100
0000
,
2000
0000
3010
0000
0001
0010
1000
0000
,
0002
0000
0013
0000
1000
0010
0001
0000
,
0200
0000
0000
0000
0010
0010
0310
0000
,
2000
0000
0000
3200
0000
0000
0300
0000
,
2000
0000
0000
3020
0000
0000
0030
0000
,
0200
0000
0000
0320
0000
0000
0030
0000
,
0200
0000
0000
0302
0000
0000
0023
0000
,
0130
0000
0000
0000
;

//---------------dance-double - DDRDAIKENKAI-EDP----------------
#NOTES:
     dance-double:
     DDRDAIKENKAI:
     Hard:
     13:
     0.600948,0.682841,0.126452,0.134882,0.472088,499,484,15,16,0,0,0.600948,0.682841,0.126452,0.134882,0.472088,499,484,15,16,0,0:
00000000
00000000
00000000
00000000
,
00000000
00000000
00000000
00000000
,
00000000
00000000
00000000
00000000
,
00000000
00000000
00000000
00000000
,
20020000
00000000
00000000
00000000
30030000
00000000
00010000
10000000
00010000
00000000
00010000
00100000
00000000
00000000
00010000
00000000
,
00000000
00000000
01000000
00000000
00000000
00000000
10000000
00000000
01000000
00000000
00010000
00100000
00000000
00000000
00001000
00000000
,
00000000
00000000
00010000
00000000
00000000
00000000
00000100
00000000
00001000
00000000
00001000
00000010
00000000
00000000
00000100
00000000
,
00000000
00000000
00000001
00000000
00000010
00000000
00000100
00000000
00001000
00000001
00000000
00001000
00000000
00000000
00001000
00000000
,
00002100
00000000
00000000
00000000
00003100
00000000
00010000
00000000
00001000
00100000
00000000
00010000
00000000
00000000
00100000
00000000
,
01000000
10000000
01000000
00000000
10000000
00100000
10000000
00000000
00010000
00000000
00010000
00000000
01000000
00000000
00010000
00100000
,
00000000
00100000
00001000
00000000
00010000
00000000
00000100
00010000
00000000
00010000
00001000
00000000
00100000
00010000
00100000
00000000
,
00010000
00000000
01000000
00100000
10000000
00100000
10000000
00100000
10000000
00010000
10000000
00000000
10020000
00000000
00000000
10030000
,
00010000
01000000
00010000
01000000
00010000
00000000
00100000
00000000
00001000
00000000
00100000
01000000
00000000
00000000
00010000
01000000
,
00010000
01000000
10000000
01000000
10000000
01000000
10000000
00100000
10000000
00000000
10000000
00010000
00000000
00010000
00100000
00010000
,
00100000
00000000
00100000
00001000
00000000
00001000
00010000
00000000
00010000
00000100
00000000
00000100
00001000
00000001
00000100
00000001
,
00002000
00000000
00000002
00000000
00003000
00000000
00000103
00000010
00000000
00000100
00000010
00000000
00000010
00000000
00001000
00000000
,
00001200
00000000
00000000
00000000
00010300
00000000
00001000
00010000
00001000
00010000
00001000
00000000
00100000
00000000
00010000
00000000
,
01020000
00000000
00000000
00000000
10030000
00000000
01000000
10000000
01000000
10000000
01000000
00000000
10000000
00000000
00100000
00000000
,
00010000
00000000
00100000
01000000
00000000
01000000
00010000
00000000
00010000
00100000
00000000
00100000
01000000
00000000
10000000
00010000
,
10000000
00100000
00010000
00100000
10000000
01000000
00010000
01000000
,
00100000
00001000
00000100
00000001
00000010
00001000
00010000
01000000
,
10000000
00100000
00010000
00001000
00000100
00000001
00000010
00001000
,
00010000
00000000
00100000
01000000
00000000
00010000
01000000
00000000
00000000
10000000
01000000
00000000
00100000
00000000
10000000
00000000
,
20010000
00000000
00000000
00000000
00000000
00000000
01000000
00000000
00000000
00000000
30100000
01000000
00000000
00100000
01000000
00000000
,
01100000
00100000
10000000
00100000
01000000
00010000
00100000
00001000
,
00100000
00010000
10000000
00010000
00100000
00001000
00010000
00000100
,
00000001
00000100
00000010
00000001
00001000
00000010
00010000
00000100
,
00000010
00000100
00010000
00001000
00100000
00010000
10000000
00100000
,
10000000
00010000
00100000
00001000
00010000
00000100
00001000
00000001
,
00000010
00000001
00000100
00000010
00001000
00000100
00010000
00001000
,
00100000
00010000
00001000
00010000
00100000
01000000
10000000
00100000
,
01200000
00000000
00000000
00000000
01300000
00000000
00010000
10000000
02000000
00000000
00000000
00000000
13000000
00100000
10000000
00010000
,
01000000
00000000
01000000
00000000
00100000
00000000
00100000
10000000
00010000
00000000
00010000
01000000
00000000
01000000
00100000
01000000
,
00010000
00000000
00010000
00000000
01000000
00000000
01000000
00000000
00100000
00000000
00100000
10000000
00000000
10000000
00010000
00000000
,
00001000
00000100
00000001
00000100
00001000
00000100
00001000
00001000
,
00000001
00000000
00000010
00000000
00000100
00000000
00001000
00000000
00010000
00000000
00100000
00000000
01000000
00000000
10000000
00010000
,
10000000
00000000
10000000
00100000
00000000
00000000
00100000
01000000
00100000
00000000
00100000
01000000
00000000
00000000
01000000
00010000
,
01000000
00000000
01000000
00010000
00000000
00010000
00100000
00000000
00001000
00000000
00001000
00010000
00000000
00010000
00001000
00100000
,
00001000
00000000
00010000
00000100
00010000
00000000
00010000
00000000
00001000
00000000
00001000
00000100
00000000
00000100
00000001
00000100
,
00000001
00000010
00000001
00001000
00000001
00000100
00000010
00000100
00000001
00001000
00000000
00000001
00000000
00001000
00000001
00000000
,
00001000
00000000
00000010
00000000
00000001
00000000
00001000
00000000
00000100
00000000
00000001
00000000
00000100
00000000
00000010
00001000
,
00000010
00010000
00000100
00001000
00000100
00010000
00001000
00000000
00011000
00000000
00100000
00000000
00120000
00000000
00000000
00000000
,
10030000
00000000
10000000
00010000
00000000
00010000
00100000
00000000
00010000
00000000
00010000
10000000
00000000
10000000
00100000
00000000
,
00010000
00001000
00000100
00000001
00000010
00000100
00000110
00000010
,
00000012
00000000
00000000
00000000
00001003
00000000
00000001
00000100
00000001
00000000
00000001
00001000
00000000
00000100
00000000
00000100
,
00020000
00000000
00000000
00000000
00031000
00000000
01000000
00100000
01000000
00100000
01000000
00010000
00000000
00010000
00000000
10000000
,
00010000
01000000
10000000
00010000
00100000
01000000
00010000
00100000
,
01000000
00000000
00010000
00000000
00001000
00000000
00010000
00000000
00001000
00000000
00000100
00000001
00000000
00000100
00000001
00000000
,
00001001
00001000
00000010
00010000
00010000
01000000
00100000
00010000
,
00010000
00100000
00001000
00010000
00000100
00010000
00001000
00100000
,
00001000
00000010
00000100
00000010
00001000
00000010
00000001
00000100
,
00001000
00000000
00010000
00000000
00100000
00000000
10000000
00000000
01000000
00000000
00100000
00000000
10010000
00000000
00000000
00010000
,
00001000
00000100
00001000
00000100
00000001
00000010
00000001
00000010
,
00000100
00001000
00000001
00000100
00000010
00001000
00000100
00010000
,
00001000
00100000
00010000
10000000
00100000
01000000
00001000
00010000
,
00000100
00000000
00000010
00000000
00000001
00000000
00000100
00000000
00000010
00000100
00000010
00000000
00000220
00000000
00000000
00000330
,
00000000
00000000
00000100
00000000
00000000
00000100
00000000
00000000
00000001
00000000
00000000
00000001
00000000
00000000
00000001
00000000
,
00000000
00000000
00000010
00000000
00000000
00000010
00000000
00000000
00001000
00000000
00000000
00001000
00000000
00000000
00001000
00000000
,
00000000
00000000
00100000
00000000
00000000
00100000
00000000
00000000
00010000
00000000
00000000
00010000
00000000
00000000
00010000
00000000
,
00000000
00000000
01000000
00000000
00000000
01000000
00000000
00000000
10000000
00000000
00000000
10000000
00000000
00000000
10000000
00000000
,
00010000
00000000
00000000
00000000
;

//---------------dance-double - DDRDAIKENKAI-DDP----------------
#NOTES:
     dance-double:
     DDRDAIKENKAI:
     Medium:
     9:
     0.349249,0.379356,0.101162,0.320345,0.050581,290,278,12,38,0,0,0.349249,0.379356,0.101162,0.320345,0.050581,290,278,12,38,0,0:
00000000
00000000
00000000
00000000
,
00000000
00000000
00000000
00000000
,
00000000
00000000
00000000
00000000
,
00000000
00000000
00000000
00000000
,
00000000
00000000
10000000
00000000
00000000
10000000
00000000
00000000
00010000
00000000
00000000
00010000
00000000
00000000
00010000
00000000
,
00000000
00000000
01000000
00000000
00000000
01000000
00000000
00000000
00100000
00000000
00000000
00100000
00000000
00000000
00100000
00000000
,
00000000
00000000
10000000
00000000
00000000
01000000
00000000
00000000
00100000
00000000
00000000
00100000
00000000
00000000
00100000
00000000
,
00000000
00000000
00010000
00000000
00000000
00100000
00000000
00000000
00001000
00000000
00000000
00001000
00000000
00000000
00001000
00000000
,
00010000
00001000
00000000
00010000
00000000
00000100
00000000
00001000
,
00000000
00000010
00000000
00000010
00000000
00000100
00000000
00000100
,
00000000
00000001
00000000
00000010
00000000
00000001
00000000
00001000
,
00000100
00001000
00000100
00001000
00000100
00001000
00000001
00000000
,
00001000
00001000
00001000
00000000
00000100
00001000
00000100
00000000
,
00010000
00001000
00010000
00001000
00010000
00001000
00010000
00000000
,
00001000
00100000
00010000
01000000
,
00200000
00000000
01000000
00000000
01300000
00010000
10000000
00000000
,
22000000
00000000
33000000
00000000
00100000
00010000
01000000
00000000
,
02020000
00000000
03030000
00000000
00100000
10000000
01000000
00000000
,
00100000
00010000
00001000
00000100
,
00000010
00000001
00000010
00000001
00001000
00000001
00001000
00000001
,
00001000
00000000
00001000
00000100
00000000
00000100
00010000
00000000
,
00001000
00000000
00001000
00100000
00000000
00100000
00010000
00000000
,
10000000
00010000
01000000
00100000
,
02200000
00000000
00000000
03300000
00000000
10000000
10000000
00000000
,
00020000
00000000
00130000
00000000
01000000
00100000
00010000
00000000
,
02000000
00000000
03010000
00000000
00100000
00001000
00010000
00000000
,
00002000
00013000
00020000
00031000
,
00010000
00001000
00010000
00000100
00001000
00000000
00001100
00000000
,
00000020
00000000
00000032
00000000
00000103
00000010
00001000
00000000
,
00000200
00000000
00000320
00000000
00000130
00001000
00000001
00000000
,
00000100
00000010
00000100
00000000
00000001
00001000
00000001
00000000
,
00002002
00000000
00003003
00000000
,
00000010
00000000
00000010
00000000
00000010
00000001
00000100
00000000
,
00000010
00000000
00000010
00000000
00000010
00001000
00000100
00000000
,
00001000
00000100
00001000
00000000
00000001
00000010
00000001
00000000
,
00001000
00000010
00001000
00000010
00001000
00001000
00001000
00000000
,
00000010
00000000
00000000
00000010
00000000
00000100
00000000
00000100
,
00001000
00000000
00000000
00010000
00000000
00001000
00000000
00001000
,
00100000
00000000
00100000
00000000
00100000
01000000
10000000
00000000
,
20020000
00000000
00000000
30030000
,
00010000
00000000
01000000
00100000
00000000
10000000
01000000
00000000
,
00100000
00001000
00010000
00000100
00010000
00010000
00010000
00000000
,
00000100
00001000
00000100
00000000
00001000
00000010
00001000
00000000
,
00000010
00000100
00000010
00000100
00000001
00000001
00000001
00000000
,
00000020
00000000
00000130
00000000
00000100
00001000
00000001
00000000
,
00000200
00000000
00000310
00000000
00000010
00001000
00000001
00000000
,
00000100
00000001
00000100
00000000
00000010
00001000
00000010
00000000
,
00001000
00000001
00000100
00000010
00001000
00000000
00001010
00000000
,
00001200
00010300
00001200
00010300
,
00002000
00000000
00103000
00010000
10000000
00100000
10000000
00000000
,
01200000
10300000
02100000
03010000
,
10020000
00000000
10030000
00100000
10000000
01000000
00100000
00000000
,
00002000
00000000
00013000
00000000
00001000
00000100
00000001
00000000
,
00002000
00000000
00003001
00000000
00001000
00000001
00000100
00000000
,
00002000
00023000
00230000
20300000
,
31000000
00100000
00010000
01000000
00100000
10000000
00010000
00000000
,
10000000
00000000
00000000
01000000
00000000
00000000
00200000
00000000
00000000
00000000
00000000
00000000
00310000
00000000
00000000
00000000
,
01000000
00000000
00000000
00100000
00000000
00000000
00020000
00000000
00000000
00000000
00000000
00000000
00031000
00000000
00000000
00000000
,
00000010
00000000
00000000
00000100
00000000
00000000
00002000
00000000
00000000
00000000
00000000
00000000
00003100
00000000
00000000
00000000
,
00010000
00000000
00000000
00001000
00000000
00000000
00000200
00000000
00000000
00000000
00000000
00000000
00000320
00000000
00000000
00000000
,
00001030
00000000
00000000
00000000
;

//---------------dance-double - DDRDAIKENKAI-BDP----------------
#NOTES:
     dance-double:
     DDRDAIKENKAI:
     Easy:
     5:
     0.217979,0.252904,0.101162,0.337206,0,181,169,12,40,0,0,0.217979,0.252904,0.101162,0.337206,0,181,169,12,40,0,0:
00000000
00000000
00000000
00000000
,
00000000
00000000
00000000
00000000
,
00000000
00000000
00000000
00000000
,
00000000
00000000
00000000
00000000
,
20000000
00000000
31000000
01000000
,
00200000
00000000
00310000
00010000
,
02000000
00000000
03100000
00100000
,
20000000
00000000
30010000
00010000
,
01000000
00000000
00100000
00000000
,
01000000
00000000
00010000
00000000
,
00100000
00000000
00001000
00000000
,
00010000
00010000
00010000
00000000
,
00011000
00010000
00001000
00000000
,
00010000
00010000
00010000
00000000
,
00001000
00010000
00000100
00001000
,
00000010
00000000
00000010
00000010
,
00000220
00000330
00000010
00001000
,
00002002
00003003
00000001
00001000
,
00000010
00000010
00000100
00000100
,
00000001
00000010
00000100
00001000
,
00000200
00010000
00000000
00010300
,
00002000
00100000
00000000
00103000
,
00010000
00100000
00001000
00010000
,
00022000
00000000
00033000
00000000
,
00000100
00001000
00000100
00001000
,
00000010
00001000
00000010
00001000
,
00000001
00001000
00000001
00001000
,
00000100
00010000
00000100
00010000
,
00001000
00010000
00001000
00010000
,
00001000
00100000
00001000
00100000
,
00010000
10000000
00010000
10000000
,
20020000
00000000
30030000
10000000
,
20000000
00000000
01000000
31000000
,
10000000
00100000
01000000
00010000
,
00200000
00000000
00001000
00301000
,
00010000
00000100
00001000
00000001
,
00000001
00000000
00001000
00000000
,
00010000
00000000
10000000
00000000
,
00100000
01000000
00010000
10000000
,
20020000
00000000
00000000
30030000
,
00010000
00100000
00001000
00010000
,
00001000
00001000
00001000
00000000
,
00000100
00000001
00000010
00000100
,
00010000
00010000
00010000
00000000
,
00022000
00033000
00001000
00010000
,
00022000
00033000
00010000
00001000
,
00100000
00100000
01000000
01000000
,
10000000
00010000
00100000
00001000
,
00020000
00000000
00030200
00000000
,
00000320
00000000
00000032
00000000
,
00002003
00000100
00000010
00003100
,
00000002
00000100
00000010
00000103
,
00000002
00001003
00000020
00001030
,
00000200
00010300
00002000
00013000
,
00022000
00000000
00033000
00000000
,
00110000
01100000
22000000
33000000
,
00020000
00000000
00000000
00030000
,
00200000
00000000
00000000
00300000
,
00002000
00000000
00000000
00003000
,
00020000
00000000
00000000
00030000
,
00001000
00000000
00000000
00000000
;
