#VERSION:0.83;
#TITLE:RAIN;
#ARTIST:dj TAKA;
#BANNER:RAIN.png;
#BACKGROUND:RAIN-bg.png;
#JACKET:RAIN-jacket.png;
#MUSIC:RAIN.ogg;
#OFFSET:1.115;
#SAMPLESTART:42.659;
#SAMPLELENGTH:15;
#BPMS:0=159;

//---------------dance-single - NewbStepper-ESP----------------
#NOTEDATA:;
#CHARTNAME:NewbStepper-ESP;
#STEPSTYPE:dance-single;
#DESCRIPTION:NewbStepper-ESP;
#DIFFICULTY:Hard;
#METER:13;
#RADARVALUES:0.563722,0.707215,0.119577,0.136660,0.307485,462,448,14,16,0,0,0,0,0,0.563722,0.707215,0.119577,0.136660,0.307485,462,448,14,16,0,0,0,0,0;
#CREDIT:NewbStepper;
#NOTES:
// measure 0
0000
0000
0000
0000
,  // measure 1
0000
0000
0000
0000
,  // measure 2
0000
0000
0000
0000
,  // measure 3
0000
0000
0000
0000
,  // measure 4
0000
0000
0000
0000
,  // measure 5
1000
0100
0010
0001
0100
0010
1000
0001
,  // measure 6
0100
1000
0100
0001
1000
0010
0100
0000
,  // measure 7
0001
1000
0100
0001
0100
0010
0001
0100
,  // measure 8
0010
1000
0001
0100
1000
0100
0001
0000
,  // measure 9
0110
0000
0000
0000
1000
0000
0001
0100
0000
0000
0001
0000
1000
0000
0001
0010
,  // measure 10
0000
0000
1000
0000
0010
0000
0001
0100
0000
0000
0010
0000
1000
0000
0100
0000
,  // measure 11
0110
0000
0000
0000
0001
0000
1000
0100
0000
0000
1000
0000
0001
0000
1000
0010
,  // measure 12
0000
0000
0001
0000
0010
0000
1000
0100
0000
0000
0010
0000
0001
0000
0100
0000
,  // measure 13
0110
0000
1000
0000
0001
0000
0100
0010
0000
0000
1000
0000
0001
0000
0010
0100
,  // measure 14
0000
0000
1000
0000
0001
0000
0010
1000
0000
0000
0010
0000
0001
0000
1000
0100
,  // measure 15
1000
0100
0001
1000
0010
0001
0100
0001
,  // measure 16
0010
1000
0001
0100
1000
0001
0100
0010
,  // measure 17
0220
0000
0000
0000
,  // measure 18
0000
0000
0000
0000
,  // measure 19
0000
0000
0000
0000
,  // measure 20
0000
0330
0000
0000
,  // measure 21
0001
0100
0000
0000
1000
0100
0000
0000
,  // measure 22
0001
0000
0000
0010
0000
0000
0100
0000
0000
1000
0000
0000
0010
0000
0100
0000
,  // measure 23
0001
0010
0001
0000
1000
0010
1000
0000
,  // measure 24
0100
0000
0000
0010
0000
0000
0001
0000
0000
0100
0000
0000
0010
0000
0000
0000
,  // measure 25
1000
0100
1000
0100
0010
0001
0010
0001
,  // measure 26
0100
0010
1000
0100
0001
0100
1000
0000
,  // measure 27
0001
0100
0010
1000
0100
0100
0000
0010
,  // measure 28
0001
0100
1000
0100
0001
0010
0100
0000
,  // measure 29
1000
0010
0001
0010
1000
0100
0010
0000
,  // measure 30
0001
0100
0000
0001
0100
0000
0010
0100
0000
0010
0100
0000
0001
1000
0001
0000
,  // measure 31
1000
0100
0001
1000
0010
0001
0100
0010
,  // measure 32
1000
0001
0000
0100
0001
0000
1000
0001
0000
0100
0010
0000
1000
0001
1000
0000
,  // measure 33
0010
0100
0001
0100
0010
0100
1000
0100
,  // measure 34
0001
0010
0100
0010
1000
0001
0100
1000
,  // measure 35
0010
0100
0010
0001
0010
0010
0000
1000
,  // measure 36
0100
0010
0001
0100
0010
1000
0001
0000
,  // measure 37
2002
0000
3003
0000
,  // measure 38
0202
0000
0303
0000
,  // measure 39
2020
0000
3030
0000
,  // measure 40
0220
0000
0330
0000
,  // measure 41
1000
0000
0000
1000
0100
0000
0000
0000
0001
0000
0000
0001
0100
0000
0000
0000
,  // measure 42
1000
0000
0000
1000
0010
0000
0000
0000
0001
0000
0000
0001
0010
0000
0000
0000
,  // measure 43
1000
0100
0001
0100
,  // measure 44
2002
0000
0000
3003
,  // measure 45
0010
1000
0001
1000
0100
0001
0100
1000
,  // measure 46
0010
0100
0000
0001
0100
0000
0010
0100
0000
0001
0100
0000
0010
1000
0001
0000
,  // measure 47
1000
0100
1000
0000
0001
0000
1000
0100
1000
0000
0001
0000
0100
0000
0010
0000
,  // measure 48
1000
0001
0000
1000
0000
0000
0010
0000
0100
0000
0001
0000
0010
0000
0100
0000
,  // measure 49
1000
0100
0001
0100
0010
0100
1000
0001
,  // measure 50
0100
0010
0100
1000
0100
0001
0010
0100
,  // measure 51
1000
0000
0000
1000
0010
0000
0000
0010
0100
0000
0001
0000
0010
0000
0100
0000
,  // measure 52
1000
0100
0001
0100
0010
0010
0110
0000
,  // measure 53
0001
0100
0001
0000
1000
0100
1000
0000
,  // measure 54
0001
0010
0000
0100
1000
0000
0010
0100
0000
0001
1000
0000
0010
0100
0010
0000
,  // measure 55
1000
0010
1000
0000
0001
0000
1000
0010
1000
0000
0001
0000
0100
0000
1000
0000
,  // measure 56
0100
0001
0000
1000
0001
0000
0010
0000
0100
0000
1000
0000
0010
0100
0010
0000
,  // measure 57
1000
0010
1000
0000
0001
0010
0001
0000
0010
0100
0010
0000
0100
1000
0100
0000
,  // measure 58
1000
0010
0100
0001
1000
0100
0010
0001
,  // measure 59
0100
0010
0000
1000
0010
0000
0100
0001
0100
0000
0010
0000
1000
0000
0001
0000
,  // measure 60
0010
0001
0000
1000
0001
0000
0100
0010
0100
0000
0001
0000
1001
0000
0000
0000
,  // measure 61
1000
0000
0100
0010
0200
0000
0000
0000
0000
0000
0000
0000
0310
0000
0001
0000
,  // measure 62
0100
0010
1000
0001
0100
1000
0001
0010
,  // measure 63
1000
0100
0010
0001
0100
0010
1000
0001
,  // measure 64
0100
0000
1000
0100
0000
0001
0010
0001
,  // measure 65
1000
0000
0001
0010
0200
0000
0000
0000
0300
0000
1000
0000
0010
0000
0100
0000
,  // measure 66
0001
0000
1000
0010
0200
0000
0000
0000
0300
0000
0001
0000
1000
0000
0010
0000
,  // measure 67
0100
1001
0010
1001
,  // measure 68
0100
0000
0000
0100
0001
0000
0010
0000
0100
0000
0000
0100
1000
0000
0010
0000
,  // measure 69
1000
0000
0000
1000
0100
0000
0000
0100
0001
0000
0000
0001
0100
0000
0000
0100
,  // measure 70
1000
0000
0000
1000
0010
0000
0000
0010
0100
0000
0000
0100
0001
0000
0000
0001
,  // measure 71
0020
0000
0030
0000
,  // measure 72
1001
0000
0000
0000
;

//---------------dance-single - NewbStepper-CSP----------------
#NOTEDATA:;
#CHARTNAME:NewbStepper-CSP;
#STEPSTYPE:dance-single;
#DESCRIPTION:NewbStepper-CSP;
#DIFFICULTY:Challenge;
#METER:15;
#RADARVALUES:0.711363,0.891706,0.102495,0.145201,0.819959,583,571,12,17,0,0,0,0,0,0.711363,0.891706,0.102495,0.145201,0.819959,583,571,12,17,0,0,0,0,0;
#CREDIT:NewbStepper;
#NOTES:
0000
0000
0000
0000
,
0000
0000
0000
0000
,
0000
0000
0000
0000
,
0000
0000
0000
0000
,
0000
0000
0000
0000
,
0001
0000
0100
0000
0010
0000
1000
0010
0000
0000
1000
0000
0001
0000
0100
0001
,
0000
0000
0100
0000
0010
0000
1000
0001
0000
0000
0001
0000
0100
0000
0010
0000
,
1000
0000
0001
0000
0100
0000
1000
0100
0000
0000
0001
0000
1000
0000
0100
0001
,
0000
0000
0100
0000
0010
0000
0001
0100
0000
0000
1000
0000
0100
0000
0001
0100
,
0001
0000
1000
0000
0010
0000
0100
0001
0100
0000
1000
0000
0100
0000
0010
1000
,
0010
0000
0100
0000
0001
0000
0010
0100
0010
0000
0001
0000
1000
0000
0100
0010
,
0001
0000
0100
0000
1000
0000
0100
0010
1000
0000
0100
0000
0001
0000
0100
0010
,
0001
0000
0010
0000
1000
0000
0010
0100
1000
0000
0010
0000
0001
0000
0010
0100
,
0001
0000
1000
0000
0010
0100
0010
0100
0000
0001
0100
0000
0010
1000
0010
1000
,
0000
0100
0010
0000
0001
0100
0001
0100
0000
0010
1000
0000
0100
0000
0010
0001
,
1000
0000
0100
0000
0010
0001
0010
0001
0010
0000
0100
0000
1000
0010
1000
0010
,
0100
0001
0100
0001
0010
0100
0010
0100
1000
0010
0100
0001
1000
0100
0010
0001
,
0200
0000
0000
0000
,
0000
0000
0000
0000
,
0000
0000
0000
0000
,
0000
0300
0000
0000
,
1001
0100
0000
0010
0001
0010
0000
0000
,
0100
1000
0000
0100
1000
0000
0001
0100
0000
0001
0100
0000
0010
0000
1000
0000
,
0001
0100
1000
1000
0100
0001
1000
0010
,
0100
0001
0000
0010
0000
0000
0100
0000
1000
0100
1000
0100
0010
0001
0010
0001
,
1000
0010
1000
0000
0001
0000
0100
0000
1000
0000
0100
0000
0001
0000
1000
0000
,
0001
0010
0001
0000
1000
0000
0100
0000
0001
0000
0100
0000
1000
0000
0001
0000
,
1000
0000
0000
0010
0100
0000
0000
0001
0100
0000
0100
0000
0000
0000
0010
0000
,
1000
0000
0001
0100
0010
0000
1000
0100
0020
0000
0000
0000
0030
0000
0000
0000
,
1001
0100
1000
0000
1001
0100
0001
0000
,
0010
0001
0000
0010
0001
0000
1000
0010
0000
1000
0010
0000
0100
0001
1000
0000
,
0001
0010
0001
0010
0001
0000
1000
0010
1000
0010
1000
0000
0001
0100
0010
1000
,
0100
1000
0000
0010
0000
0000
0100
0000
0001
0100
0001
0100
0010
1000
0010
1000
,
0001
0010
0001
0000
1000
0000
0100
0000
0001
0000
0100
0000
1000
0000
0001
0000
,
1000
0010
1000
0000
0001
0000
0100
0000
1000
0000
0100
0000
0001
0000
1000
0000
,
0001
0000
0000
0010
0100
0000
0000
1000
0100
0000
0100
0000
0000
0000
1000
0000
,
0001
0100
0010
1000
0100
0010
0001
1000
0020
0000
0000
0000
0030
0000
0000
0000
,
2020
0000
3030
0000
,
0202
0000
0303
0000
,
0220
0000
0330
0000
,
2002
0000
3003
0000
,
0011
0100
1000
0010
,
1010
0100
0001
0010
,
0100
1000
0010
0100
,
2002
0000
0000
3003
,
0010
0000
0001
0000
0000
0000
1000
0010
1000
0000
0001
0000
0000
0000
0000
0000
,
0100
0010
0000
1000
0010
0000
0100
0010
0000
1000
0010
0000
0100
0001
0100
0000
,
0001
0010
0001
0010
0100
0000
1000
0010
1000
0010
0100
0000
0001
1000
0001
1000
,
0010
0100
0010
0100
0000
0001
0100
0000
0010
1000
0010
1000
0001
0100
0001
0100
,
0010
1000
0010
0000
0100
0001
0100
0000
0001
0010
0001
0000
0010
0100
0010
0000
,
0100
1000
0100
1000
0001
0100
0001
0100
0010
1000
0010
1000
0001
0010
0100
1000
,
0001
0000
0000
0001
1000
0000
0000
1000
0100
0000
0010
0000
0000
0001
0100
0000
,
0010
1000
0010
0100
0000
0001
1000
0000
0100
0000
0100
0000
0000
0000
0010
0001
,
0100
0010
1010
0000
0100
0010
0011
0000
,
1000
0100
0000
0001
0100
0000
1000
0100
0000
0001
0100
0000
0010
0100
0010
0100
,
1000
0001
1000
0001
0100
0000
0001
1000
0001
1000
0100
0000
0010
0001
0010
0100
,
1000
0001
0100
0010
1000
0100
0010
0001
0100
0000
0010
0000
1000
0010
1000
0010
,
0100
0001
0100
0000
0010
0100
0010
0000
1000
0010
1000
0000
0001
0010
0001
0000
,
1000
0010
1000
0010
0100
0001
0100
0001
0010
0100
0010
0100
1000
0100
1000
0001
,
0100
0000
0000
0100
0010
0000
0000
0010
1000
0000
1000
0000
0000
0000
0001
0100
,
0001
1000
0001
0010
0000
0100
1000
0000
0010
0000
0010
0000
0000
0000
0000
0000
,
1000
0000
0001
0100
0002
0000
0000
0000
0000
0000
0000
0000
1000
0000
0000
0000
,
0013
0000
0100
0010
0001
0010
0100
0010
0001
0010
0100
1000
0100
0010
0001
0100
,
0010
0000
1000
0010
1000
0000
0001
0000
0010
0001
0010
0000
0100
1000
0100
0000
,
0010
0001
0010
0001
0100
0000
0010
0000
1000
0000
0001
0000
0100
0000
0000
0000
,
0001
0000
1000
0100
2000
0000
0000
0000
3000
0000
0001
0100
0001
1000
0100
1000
,
0001
0100
0010
1000
0200
0000
0000
0000
0000
0000
0310
0001
1000
0010
1000
0001
,
0010
0000
0000
0001
0010
0000
0000
0000
0100
0000
0000
1000
0100
0000
0000
0000
,
0010
0000
0000
0010
0001
0000
1000
0010
1000
0000
0000
1000
0100
0000
0010
0001
,
0010
0000
0000
0010
0001
0000
1000
0010
0100
0000
0000
0100
0001
0000
0010
0001
,
0100
0000
0000
0100
0010
0000
1000
0001
0010
0000
0000
0010
0001
0100
0010
1000
,
0200
0000
0000
0000
0000
0000
0000
0000
0310
0000
0000
0001
0000
0100
0000
0010
,
1000
0000
0000
0000
;

//---------------dance-single - NewbStepper-DSP----------------
#NOTEDATA:;
#CHARTNAME:NewbStepper-DSP;
#STEPSTYPE:dance-single;
#DESCRIPTION:NewbStepper-DSP;
#DIFFICULTY:Medium;
#METER:9;
#RADARVALUES:0.370934,0.461227,0.128119,0.145201,0.085412,304,289,15,17,0,0,0,0,0,0.370934,0.461227,0.128119,0.145201,0.085412,304,289,15,17,0,0,0,0,0;
#CREDIT:NewbStepper;
#NOTES:
0000
0000
0000
0000
,
0000
0000
0000
0000
,
0000
0000
0000
0000
,
0000
0000
0000
0000
,
0000
0000
0000
0000
,
1000
0000
0010
1000
0100
0000
0010
0001
,
1000
0000
0100
0010
0001
0000
1000
0000
,
0001
0000
0010
0001
0100
0000
0010
1000
,
0001
0000
0100
0010
1000
0000
0001
0000
,
1000
0000
0000
0000
0100
0000
0000
0010
0000
0000
0000
0000
0001
0000
0000
0100
,
0000
0000
0000
0000
1000
0000
0000
0100
0000
0000
0000
0000
0001
0000
0000
0001
,
0000
0000
0000
0000
0100
0000
0000
0010
0000
0000
0000
0000
1000
0000
0000
0100
,
0000
0000
0000
0000
0001
0000
0000
0100
0000
0000
0000
0000
1000
0000
0000
1000
,
0000
0000
0001
0000
0100
0010
1000
0010
,
0100
0000
0001
0100
0001
0000
1001
0000
,
0100
0000
1000
0100
0001
0000
0001
0100
,
1000
1010
0101
0110
,
2002
0000
0000
0000
,
0000
0000
0000
0000
,
0000
0000
0000
0000
,
0000
3003
0000
0000
,
0011
0000
1100
0000
,
0001
0000
0100
0010
0000
0100
0010
0000
,
1000
0100
0001
0010
,
1000
0000
0001
0100
1000
0100
0001
0000
,
0010
0001
0100
1000
,
0010
0001
0100
0010
,
1000
0000
0100
0010
0001
0001
0000
1000
,
0100
0010
2002
3003
,
0001
0000
0100
0010
0100
0010
0000
0000
,
1000
0000
0000
0010
0000
0000
0100
0000
0000
0001
0000
0000
1000
0000
0000
0000
,
0010
0100
0001
0000
0010
0100
1000
0000
,
0001
0000
0000
0010
0000
0000
0100
0000
0000
1000
0000
0000
0001
0000
0000
0000
,
0100
0010
1000
0000
0100
0010
0001
0000
,
1000
0100
1000
0100
0010
0000
1001
0000
,
0010
0001
0100
0010
,
1000
0001
1000
0001
0020
0000
0030
0000
,
0002
0000
0003
0000
,
2000
0000
3000
0000
,
0020
0000
0030
0000
,
0200
0000
0300
0000
,
0001
1000
0001
1000
,
0010
0100
0010
0100
,
0002
0000
0000
0000
,
0003
0000
0000
0000
,
1000
0100
1000
0000
0001
0100
0001
0000
,
1000
0000
0000
0010
0000
0000
1000
0000
0000
0010
0000
0000
0100
0000
0000
0000
,
0001
0010
1000
0000
1000
0010
0001
0000
,
0100
0000
0000
0010
0000
0000
1000
0000
0000
0001
0000
0000
0010
0000
0000
0000
,
0100
1000
0010
0000
0100
0001
0010
0000
,
0001
1000
0100
0010
0001
0000
1000
0000
,
0001
0100
1000
0000
1000
0100
0001
0000
,
0010
0100
1000
0010
0200
0000
0300
0000
,
0001
0100
0001
0000
1000
0100
1000
0000
,
0001
0000
0000
0010
0000
0000
0001
0000
0000
0010
0000
0000
0100
0000
0000
0000
,
1000
0010
0001
0000
0001
0010
1000
0000
,
0100
0000
0000
0010
0000
0000
0001
0000
0000
1000
0000
0000
0010
0000
0000
0000
,
0100
0001
0010
0000
0100
1000
0010
0000
,
1000
0001
0100
0010
1000
0000
0001
0000
,
1000
0100
0001
0000
0001
0100
1000
0000
,
0010
0100
0001
0010
0200
0000
0300
0000
,
1000
0001
0020
0000
0000
0000
0030
0000
,
0001
1000
0100
1000
0001
0100
0001
0000
,
1000
0100
0010
0001
,
1000
1000
0001
0100
0000
0010
1000
0000
,
0001
1000
0020
0000
0030
1000
0100
0010
,
0001
0100
0020
0000
0030
0100
0001
0010
,
0100
1010
0100
0011
,
0100
1001
0010
1001
,
0010
0001
0100
1000
,
0010
0001
0100
0010
,
2002
0000
3003
0000
,
1001
0000
0000
0000
;

//---------------dance-single - NewbStepper-BSP----------------
#NOTEDATA:;
#CHARTNAME:NewbStepper-BSP;
#STEPSTYPE:dance-single;
#DESCRIPTION:NewbStepper-BSP;
#DIFFICULTY:Easy;
#METER:5;
#RADARVALUES:0.228173,0.307485,0.042706,0.059789,0,187,182,5,7,0,0,0,0,0,0.228173,0.307485,0.042706,0.059789,0,187,182,5,7,0,0,0,0,0;
#CREDIT:NewbStepper;
#NOTES:
0000
0000
0000
0000
,
0000
0000
0000
0000
,
0000
0000
0000
0000
,
0000
0000
0000
0000
,
0000
0000
0000
0000
,
0001
0100
0001
0000
,
1000
0100
1000
0000
,
0001
0100
0001
0100
,
0010
1000
0010
1000
,
0001
0100
0010
0000
,
1000
0100
0010
0000
,
0001
1000
0100
0000
,
1000
0001
0100
0000
,
0010
1000
0010
0100
,
0010
0001
0010
1000
,
0001
0100
0010
1000
,
0001
0010
0100
1000
,
0002
0000
0000
0000
,
0000
0000
0000
0000
,
0000
0000
0000
0000
,
0000
0003
0000
0000
,
1000
0000
0001
0000
,
0100
0100
0100
0100
,
0001
0000
1000
0000
,
0200
0000
0000
0300
,
1000
0000
0010
0000
,
0100
0000
0001
0000
,
1000
1000
0001
0000
,
0010
0010
0100
0000
,
1000
0100
1000
0000
,
0001
0100
0001
0100
,
0010
0000
0010
0000
,
1000
0100
1000
0100
,
0010
0000
0010
0000
,
0001
0100
1000
0100
,
0001
0001
1000
1000
,
0020
0000
0200
0330
,
0001
0000
0000
0000
,
1000
0000
0000
0000
,
0100
0000
0000
0000
,
0001
0000
0000
0000
,
0010
0000
1000
0000
,
0001
0000
0010
0000
,
0100
0000
1000
0000
,
0001
0000
0000
0000
,
1000
0100
1000
0000
,
0001
0100
0001
0100
,
0010
1000
0100
0010
,
0001
0100
1000
0100
,
0001
0100
0001
0000
,
1000
0100
1000
0000
,
1001
0000
0110
0000
,
0001
1000
1001
0000
,
0010
0000
0100
0000
,
0001
1000
0001
1000
,
0010
0100
0010
0100
,
0001
1000
0100
0000
,
1000
0001
0100
0001
,
1000
0001
0100
0000
,
0001
1000
0100
1000
,
0001
1000
0100
0000
,
0020
0000
0000
0030
,
0001
0100
1000
0010
,
0001
0000
1000
0000
,
0100
0010
0100
1000
,
0020
0000
0000
0030
,
2000
0000
0000
3000
,
0001
0100
0001
0100
,
0010
1000
0010
1000
,
0001
0010
0001
0010
,
0100
1000
0100
1000
,
1001
0000
0000
0000
,
1001
0000
0000
0000
;

//---------------dance-single - NewbStepper-bSP----------------
#NOTEDATA:;
#CHARTNAME:NewbStepper-bSP;
#STEPSTYPE:dance-single;
#DESCRIPTION:NewbStepper-bSP;
#DIFFICULTY:Beginner;
#METER:2;
#RADARVALUES:0.102495,0.215239,0.051247,0,0,84,78,6,0,0,0,0,0,0,0.102495,0.215239,0.051247,0,0,84,78,6,0,0,0,0,0,0;
#CREDIT:NewbStepper;
#NOTES:
0000
0000
0000
0000
,
0000
0000
0000
0000
,
0000
0000
0000
0000
,
0000
0000
0000
0000
,
0000
0000
0000
0000
,
0001
0000
0000
0000
,
1000
0000
0000
0000
,
0001
0000
0000
0000
,
1000
0000
0000
0000
,
0010
0000
0000
0000
,
0000
0000
0000
0000
,
0010
0000
0000
0000
,
0000
0000
0000
0000
,
0010
0000
0000
0000
,
0010
0000
0000
0000
,
0010
0000
0010
0000
,
0100
0100
0100
0100
,
0100
0000
0000
0000
,
0000
0000
0000
0000
,
0000
0000
0000
0000
,
0000
0000
0000
0000
,
1001
0000
0000
0000
,
0001
0000
0000
0000
,
1000
0000
0000
0000
,
0010
0000
0000
0000
,
1000
0000
0000
0000
,
0001
0000
0000
0000
,
1000
0000
0000
0000
,
0001
0000
0000
0000
,
0010
0000
0010
0000
,
0001
0001
0001
0000
,
0010
0000
0010
0000
,
1000
1000
1000
0000
,
0010
0000
0001
0000
,
1000
0000
0010
0000
,
1000
0000
0001
0000
,
1001
0000
0000
0000
,
0010
0000
0000
0000
,
0000
0000
0000
0000
,
0000
0000
0000
0000
,
0000
0000
0000
0000
,
0010
0000
0000
0000
,
0010
0000
0000
0000
,
0010
0000
0000
0000
,
0110
0000
0000
0000
,
0001
0000
1000
0000
,
0001
0000
0000
0000
,
1000
0000
0001
0000
,
1000
0000
0000
0000
,
0010
0000
0000
0000
,
0010
0000
0000
0000
,
0100
0000
0000
0000
,
0100
0000
0000
0000
,
0001
0000
0000
0000
,
0001
0000
1000
0000
,
0001
0000
0000
0000
,
1000
0000
0001
0000
,
1000
0000
0000
0000
,
0100
0000
0010
0000
,
0100
0000
0000
0000
,
1000
0000
0000
0000
,
1001
0000
0000
0000
,
0010
0000
0000
0000
,
0100
0000
0000
0000
,
0001
0000
0000
0000
,
1001
0000
0000
0000
,
0010
0000
0000
0000
,
0100
0000
0000
0000
,
1000
0000
0000
0000
,
0010
0000
0000
0000
,
0100
0000
0000
0000
,
0001
0000
0000
0000
,
1001
0000
0000
0000
;

//---------------dance-double - NewbStepper-EDP----------------
#NOTEDATA:;
#CHARTNAME:NewbStepper-EDP;
#STEPSTYPE:dance-double;
#DESCRIPTION:NewbStepper-EDP;
#DIFFICULTY:Hard;
#METER:12;
#RADARVALUES:0.494172,0.553472,0.111036,0.179366,0.183637,405,392,13,21,0,0,0,0,0,0.494172,0.553472,0.111036,0.179366,0.183637,405,392,13,21,0,0,0,0,0;
#CREDIT:NewbStepper;
#NOTES:
00000000
00000000
00000000
00000000
,
00000000
00000000
00000000
00000000
,
00000000
00000000
00000000
00000000
,
00000000
00000000
00000000
00000000
,
00000000
00000000
00000000
00000000
,
10000000
00010000
01000000
00010000
10000000
01000000
00010000
00001000
,
00000010
00000001
00000100
00001000
00000100
00000001
00001000
00000100
,
00010000
00001000
00000100
00001000
00010000
01000000
00010000
00001000
,
00100000
00010000
01000000
00100000
10000000
01000000
00010000
00001000
,
00011000
00000000
00000000
00000000
00000100
00000000
00000010
00000100
00000000
00000000
00000001
00000000
00000100
00000000
00000001
00000100
,
00000000
00000000
00001000
00000000
00010000
00000000
00001000
00010000
00000000
00000000
00100000
00000000
10000000
00000000
01000000
00000000
,
00010000
00000000
00000000
00000000
01000000
00000000
00100000
01000000
00000000
00000000
10000000
00000000
01000000
00000000
10000000
01000000
,
00000000
00000000
00010000
00000000
00001000
00000000
00010000
00001000
00000000
00000000
00000010
00000000
00000001
00000000
00000100
00000000
,
00001000
00000000
00000100
00000000
00000001
00000000
00000010
00000001
00000000
00000000
00000100
00000000
00001000
00000000
00010000
00001000
,
00000000
00000000
00010000
00000000
00100000
00000000
10000000
00010000
00000000
00000000
10000000
00000000
01000000
00000000
00010000
00000000
,
00001000
00010000
00100000
00010000
00001000
00000010
00001000
00010000
,
01000000
00010000
00001000
00000100
00000001
00001000
00000100
00010000
,
00022000
00000000
00000000
00000000
,
00000000
00000000
00000000
00000000
,
00000000
00000000
00000000
00000000
,
00000000
00033000
00000000
00000000
,
01100000
00000000
10010000
00000000
,
10000000
00000000
00000000
01000000
00000000
00000000
00100000
00000000
00000000
00010000
00000000
00000000
10000000
00000000
01000000
00000000
,
00010000
00001000
00010000
00000000
00000010
00000100
00000010
00000000
,
00001000
00000000
00000001
00000000
00000010
00000100
00001000
00000000
,
00000001
00000100
00001000
00010000
,
00100000
10000000
01000000
00010000
01000000
00000000
00100000
00000000
,
00001000
00000000
00000000
00001000
00010000
00000000
00000000
00010000
00000100
00000000
00000100
00000000
00000010
00000000
00000000
00000000
,
00000001
00000100
00001000
00000100
00000002
00000000
00000003
00000000
,
00000001
00000100
00001000
00000000
00010000
01000000
10000000
00000000
,
00100000
00000000
00000000
00100000
00000000
00000000
01000000
00000000
00000000
01000000
00000000
00000000
00010000
00000000
10000000
00000000
,
01000000
00010000
00001000
00000000
00000010
00000001
00001000
00000000
,
00000010
00000100
00000001
00001000
00000010
00000100
00001000
00000000
,
00010000
00100000
01000000
00100000
10000000
01000000
00010000
00001000
,
00000010
00000100
00000010
00000001
00000100
00001000
00010000
01000000
,
10000000
00000000
00000000
10000000
00010000
00000000
00000000
00010000
00100000
00000000
00100000
00000000
00000000
00000000
00001000
00000000
,
00010000
01000000
00010000
00001000
00000020
00000000
00000030
00000000
,
00000022
00000000
00000033
00000000
,
00020200
00000000
00030300
00000000
,
02002000
00000000
03003000
00000000
,
20200000
00000000
30300000
00000000
,
00010000
00000000
00000000
00010000
01000000
00000000
00000000
00000000
00100000
00000000
00000000
00100000
10000000
00000000
00000000
00000000
,
01000000
00000000
00000000
01000000
00010000
00000000
00000000
00000000
00001000
00000000
00000000
00001000
00000010
00000000
00000000
00000000
,
00000001
00001000
00010000
10000000
,
20020000
00000000
00000000
30030000
,
00100000
10000000
01000000
00000000
00100000
00010000
01000000
00000000
,
00100000
00000000
00000000
10000000
00000000
00000000
01000000
00000000
00000000
00010000
00000000
00000000
00001000
00000000
00000010
00000000
,
00000001
00000100
00001000
00000100
00000001
00000010
00001000
00010000
,
00000100
00001000
00010000
00100000
00010000
10000000
01000000
00000000
,
00010000
00001000
00000010
00001000
00010000
00100000
00010000
00001000
,
00000100
00000001
00001000
00000001
00000010
00000100
00001000
00000001
,
00001000
00000000
00000000
00001000
00000001
00000000
00000000
00000001
00000100
00000000
00001000
00000000
00010000
00000000
00000000
00000000
,
00100000
10000000
01000000
00100000
00020000
00000000
00030000
00000000
,
10000000
01000000
00010000
00000000
00001000
00000100
00000001
00000000
,
00000010
00000000
00000000
00000001
00000000
00000000
00000100
00000000
00000000
00001000
00000000
00000000
00010000
00000000
00100000
00000000
,
10000000
01000000
00010000
01000000
10000000
00100000
00010000
00001000
,
01000000
00010000
00001000
00000010
00001000
00000001
00000100
00000000
,
00001000
00010000
00100000
00010000
00001000
00000010
00001000
00010000
,
01000000
10000000
00010000
10000000
00100000
01000000
00010000
10000000
,
00010000
00000000
00000000
00010000
10000000
00000000
00000000
10000000
01000000
00000000
00010000
00000000
00001000
00000000
00000100
00000000
,
00000001
00000010
00001000
00000010
00000001
00000100
00001000
00000000
,
00011000
02020000
00000000
03030000
,
10000000
00010000
10000000
01000000
00010000
00001000
00000100
00000001
,
00001000
00000010
00000100
00001000
00010000
00100000
00010000
00001000
,
00010000
01000000
10000000
01000000
00010000
00001000
00100000
00010000
,
00001000
00000000
00002200
00000000
00003300
00000001
00000010
00001000
,
00010000
01000000
20000000
00000000
30000000
00100000
10000000
01000000
,
00010000
00000000
00000000
00010000
00001000
00000000
00000000
00000000
00000010
00000000
00000000
00000010
00000001
00000000
00000000
00000000
,
00000100
00000000
00000000
00000100
00000001
00000000
00000000
00000001
00000010
00000000
00000000
00000010
00001000
00000000
00000000
00001000
,
00010000
00000000
00000000
00010000
01000000
00000000
00000000
01000000
00100000
00000000
00000000
00100000
10000000
00000000
00000000
10000000
,
00100000
00000000
00000000
00100000
00010000
00000000
00000000
00010000
01000000
00000000
00000000
01000000
00001000
00000000
00000000
00001000
,
00020000
00000000
00030000
00000000
,
00011000
00000000
00000000
00000000
;

//---------------dance-double - NewbStepper-CDP----------------
#NOTEDATA:;
#CHARTNAME:NewbStepper-CDP;
#STEPSTYPE:dance-double;
#DESCRIPTION:NewbStepper-CDP;
#DIFFICULTY:Challenge;
#METER:15;
#RADARVALUES:0.690620,0.860957,0.102495,0.145201,0.751629,566,554,12,17,0,0,0,0,0,0.690620,0.860957,0.102495,0.145201,0.751629,566,554,12,17,0,0,0,0,0;
#CREDIT:NewbStepper;
#NOTES:
00000000
00000000
00000000
00000000
,
00000000
00000000
00000000
00000000
,
00000000
00000000
00000000
00000000
,
00000000
00000000
00000000
00000000
,
00000000
00000000
00000000
00000000
,
00000001
00000000
00000100
00000000
00000010
00000000
00001000
00000010
00000000
00000000
00010000
00000000
00000100
00000000
00010000
00001000
,
00000000
00000000
01000000
00000000
00010000
00000000
10000000
00010000
00000000
00000000
00010000
00000000
01000000
00000000
00100000
00000000
,
10000000
00000000
01000000
00000000
00010000
00000000
00001000
00100000
00000000
00000000
00010000
00000000
01000000
00000000
00100000
00010000
,
00000000
00000000
00001000
00000000
00000010
00000000
00000001
00000100
00000000
00000000
00001000
00000000
00000100
00000000
00000001
00000100
,
00000001
00000000
00001000
00000000
00000010
00000000
00000100
00000001
00000100
00000000
00001000
00000000
00010000
00000000
00100000
10000000
,
00100000
00000000
01000000
00000000
00010000
00000000
00100000
01000000
00100000
00000000
00001000
00000000
00010000
00000000
00000100
00000010
,
00000001
00000000
00000100
00000000
00001000
00000000
00000100
00000010
00001000
00000000
00000001
00000000
00000100
00000000
00001000
00010000
,
00001000
00000000
00100000
00000000
00010000
00000000
10000000
00100000
01000000
00000000
00010000
00000000
10000000
00000000
01000000
00010000
,
00001000
00000000
00000100
00000000
00000001
00000010
00000001
00000010
00000000
00000001
00000100
00000000
00000010
00001000
00000010
00001000
,
00000000
00000100
00010000
00000000
00001000
00100000
00001000
00100000
00000000
00010000
01000000
00000000
00100000
00000000
10000000
01000000
,
00100000
00000000
00001000
00000000
00010000
00001000
00010000
00001000
00000000
00010000
00000100
00000000
00000010
00000001
00000010
00000001
,
00001000
00000000
00000100
00010000
00001000
00000000
00100000
00010000
01000000
00000000
00100000
10000000
00010000
00000000
10000000
01000000
,
00200000
00000000
00000000
00000000
,
00000000
00000000
00000000
00000000
,
00000000
00000000
00000000
00000000
,
00000000
00300000
00000000
00000000
,
10010000
01000000
00000000
00010000
00001000
00010000
00000000
00000000
,
00000100
00001000
00000000
00000100
00001000
00000000
00000001
00000100
00000000
00000001
00000100
00000000
00000010
00000000
00001000
00000000
,
00000001
00000100
00001000
00010000
01000000
10000000
00010000
01000000
,
00100000
10000000
00000000
01000000
00000000
00000000
00010000
00000000
00001000
00010000
00001000
00010000
00000100
00001000
00000100
00001000
,
00000001
00000100
00000001
00000000
00001000
00000000
00000100
00000000
00000010
00000000
00001000
00000000
00010000
00000000
00100000
00000000
,
10000000
01000000
10000000
00000000
00010000
00000000
01000000
00000000
00100000
00000000
00010000
00000000
00001000
00000000
00000010
00000000
,
00000001
00000000
00000000
00000010
00000100
00000000
00000000
00001000
00000100
00000000
00000100
00000000
00000000
00000000
00000010
00000000
,
00001000
00010000
01000000
10000000
00200000
00000000
00300000
00000000
,
01100000
00010000
00001000
00000000
00000110
00001000
00010000
00000000
,
00100000
10000000
00000000
00100000
10000000
00000000
00010000
00100000
00000000
00010000
00100000
00000000
01000000
10000000
00010000
00000000
,
10000000
00100000
10000000
00100000
01000000
00000000
00010000
01000000
00010000
01000000
00001000
00000000
00010000
00000100
00010000
00000100
,
00001000
00000000
00000010
00000100
00000001
00000000
00001000
00000000
00000100
00010000
00000100
00010000
00001000
00100000
00001000
00100000
,
00010000
01000000
00010000
00000000
10000000
00000000
01000000
00000000
00010000
00000000
00001000
00000000
00000010
00000000
00000001
00000000
,
00001000
00000100
00001000
00000000
00000001
00000000
00000100
00000000
00001000
00000000
00010000
00000000
00100000
00000000
10000000
00000000
,
00010000
00000000
00000000
00100000
01000000
00000000
00000000
10000000
01000000
00000000
01000000
00000000
00000000
00000000
00010000
00000000
,
00001000
00000100
00000001
00001000
00000010
00000100
00000001
00000010
00000200
00000000
00000000
00000000
00000300
00000000
00000000
00000000
,
00000022
00000000
00000033
00000000
,
00020200
00000000
00030300
00000000
,
00202000
00000000
00303000
00000000
,
20020000
00000000
30030000
00000000
,
11000000
00100000
00010000
01000000
,
01001000
00010000
00001000
00000010
,
00000001
00000100
00001000
00010000
,
00022000
00000000
00000000
00033000
,
00100000
00000000
10000000
00000000
00000000
00000000
00010000
00100000
00010000
00000000
10000000
00000000
00000000
00000000
00000000
00000000
,
01000000
00100000
00000000
00010000
01000000
00000000
00001000
00010000
00000000
00000100
00001000
00000000
00000010
00000100
00000001
00000000
,
00001000
00000100
00001000
00000100
00010000
00000000
00001000
01000000
00001000
01000000
00010000
00000000
10000000
00100000
10000000
00100000
,
01000000
00010000
01000000
00010000
00000000
10000000
01000000
00000000
00010000
00001000
00000100
00000000
00000001
00000100
00000001
00000100
,
00000010
00000100
00000010
00000000
00010000
00001000
00010000
00000000
00001000
00100000
00001000
00000000
01000000
00010000
01000000
00000000
,
00100000
10000000
00100000
00000000
01000000
00010000
01000000
00000000
00001000
00010000
00001000
00000000
00000100
00000001
00000100
00000001
,
00001000
00000000
00000000
00001000
00000001
00000000
00000000
00000001
00000100
00000000
00000010
00000000
00000000
00000000
00001000
00000000
,
00010000
01000000
00010000
01000000
00000000
00100000
10000000
00000000
01000000
00000000
01000000
00000000
00000000
00000000
00010000
00000000
,
00001000
00000100
00000110
00000000
00000001
00000100
00000110
00000000
,
00001000
00000010
00000000
00010000
00001000
00000000
00100000
00010000
00000000
10000000
00100000
00000000
10000000
01000000
10000000
01000000
,
00100000
00010000
00100000
00010000
01000000
00000000
00010000
00100000
00010000
00100000
00001000
00000000
00010000
00001000
00010000
00001000
,
00000100
00000001
00000100
00000001
00000000
00001000
00000100
00000000
00000010
00000001
00000010
00000000
00000100
00001000
00000100
00010000
,
00001000
00100000
00001000
00000000
01000000
00010000
01000000
00000000
00100000
10000000
00100000
00000000
10000000
00010000
10000000
00000000
,
01000000
00100000
01000000
00000000
00010000
00001000
00010000
00000100
00001000
00000010
00000100
00000001
00001000
00000100
00000010
00000001
,
00001000
00000000
00000000
00001000
00000100
00000000
00000000
00000100
00010000
00000000
00010000
00000000
00000000
00000000
00001000
00010000
,
00001000
01000000
00010000
10000000
00000000
00100000
01000000
00000000
00010000
00000000
00010000
00000000
00000000
00000000
00000000
00000000
,
10000000
00000000
01000000
00100000
02000000
00000000
00000000
00000000
00000000
00000000
00000000
00000000
03010000
00000000
00000000
00000000
,
00001000
00000000
00010000
00000100
00001000
00000100
00010000
00000100
00001000
00000100
00010000
00001000
00100000
00001000
00010000
00001000
,
00100000
00000000
00010000
01000000
00001000
00000000
00010000
00000100
00001000
00000000
00000001
00000100
00000010
00000100
00000001
00000000
,
00001000
00000100
00000010
00001000
00010000
00001000
00000100
00000000
,
00000001
00000000
00000100
00000010
00000200
00000000
00000000
00000000
00000300
00000000
00001000
00010000
00001000
01000000
00010000
10000000
,
01000000
00100000
00010000
10000000
00200000
00000000
00000000
00000000
00000000
00000000
01300000
00010000
10000000
01000000
10000000
00010000
,
01000000
00000000
00000000
01000000
00001000
00000000
00000000
00000000
00010000
00000000
00000000
00010000
00000100
00000000
00000000
00000000
,
00000010
00000000
00000000
00000010
00000001
00000000
00001000
00000010
00001000
00000000
00000000
00000001
00000100
00000000
00000010
00001000
,
00000010
00000000
00000000
00000010
00010000
00000000
00001000
00010000
00001000
00000000
00000000
00001000
01000000
00000000
00100000
10000000
,
00100000
00000000
00000000
00100000
10000000
00000000
00000000
10000000
01000000
00000000
00000000
01000000
00010000
00000000
00001000
00000000
,
00000020
00000000
00000000
00000000
00000000
00000000
00000000
00000000
00000031
00000000
00000000
00001000
00000000
00000100
00000000
00000010
,
00000001
00000000
00000000
00000000
;

//---------------dance-double - NewbStepper-DDP----------------
#NOTEDATA:;
#CHARTNAME:NewbStepper-DDP;
#STEPSTYPE:dance-double;
#DESCRIPTION:NewbStepper-DDP;
#DIFFICULTY:Medium;
#METER:9;
#RADARVALUES:0.369714,0.461227,0.128119,0.145201,0.085412,303,288,15,17,0,0,0,0,0,0.369714,0.461227,0.128119,0.145201,0.085412,303,288,15,17,0,0,0,0,0;
#CREDIT:NewbStepper;
#NOTES:
00000000
00000000
00000000
00000000
,
00000000
00000000
00000000
00000000
,
00000000
00000000
00000000
00000000
,
00000000
00000000
00000000
00000000
,
00000000
00000000
00000000
00000000
,
10000000
00000000
00100000
10000000
01000000
00000000
00100000
00010000
,
10000000
00000000
01000000
00010000
00001000
00000000
00000100
00000000
,
00000001
00000000
00000010
00000001
00000100
00000000
00000010
00001000
,
00000001
00000000
00000100
00001000
00010000
00000000
01000000
00000000
,
10000000
00000000
00000000
00000000
00010000
00000000
00000000
00100000
00000000
00000000
00000000
00000000
00001000
00000000
00000000
00010000
,
00000000
00000000
00000000
00000000
00000010
00000000
00000000
00001000
00000000
00000000
00000000
00000000
00000001
00000000
00000000
00000001
,
00000000
00000000
00000000
00000000
00001000
00000000
00000000
00000010
00000000
00000000
00000000
00000000
00010000
00000000
00000000
00001000
,
00000000
00000000
00000000
00000000
00100000
00000000
00000000
00010000
00000000
00000000
00000000
00000000
10000000
00000000
00000000
10000000
,
00000000
00000000
00010000
00000000
10000000
00100000
01000000
00001000
,
00010000
00000000
00000100
00000010
00000100
00000000
00001001
00000000
,
00000100
00000000
00000001
00000100
00001000
00000000
00010000
01000000
,
10000000
10100000
01010000
00101000
,
00022000
00000000
00000000
00000000
,
00000000
00000000
00000000
00000000
,
00000000
00000000
00000000
00000000
,
00000000
00033000
00000000
00000000
,
00010010
00000000
00101000
00000000
,
00010000
00000000
00000100
00001000
00000000
00000010
00001000
00000000
,
00000001
00000100
00001000
00010000
,
00100000
00000000
10000000
01000000
00010000
01000000
10000000
00000000
,
00100000
10000000
01000000
00010000
,
00001000
00000010
00000001
00000100
,
00000010
00000000
00010000
00001000
00000010
00000010
00000000
00001000
,
00010000
00100000
20020000
30030000
,
00010000
00000000
01000000
00100000
01000000
00100000
00000000
00000000
,
10000000
00000000
00000000
01000000
00000000
00000000
00100000
00000000
00000000
00010000
00000000
00000000
10000000
00000000
00000000
00000000
,
01000000
00010000
00001000
00000000
00010000
00001000
00000010
00000000
,
00000001
00000000
00000000
00000100
00000000
00000000
00000010
00000000
00000000
00001000
00000000
00000000
00000001
00000000
00000000
00000000
,
00000100
00001000
00010000
00000000
00001000
00010000
00100000
00000000
,
10000000
00010000
10000000
00010000
01000000
00000000
10010000
00000000
,
00100000
10000000
01000000
00010000
,
00001000
00000010
00001000
00000010
00000200
00000000
00000300
00000000
,
00002000
00000000
00003000
00000000
,
00000002
00000000
00000003
00000000
,
00000020
00000000
00000030
00000000
,
00002000
00000000
00003000
00000000
,
00010000
00100000
00010000
00100000
,
10000000
01000000
10000000
01000000
,
00020000
00000000
00000000
00000000
,
00030000
00000000
00000000
00000000
,
00001000
00010000
00001000
00000000
00000100
00000010
00000100
00000000
,
00000001
00000000
00000000
00000010
00000000
00000000
00000001
00000000
00000000
00000010
00000000
00000000
00000100
00000000
00000000
00000000
,
00010000
00001000
00010000
00000000
00100000
01000000
00100000
00000000
,
10000000
00000000
00000000
00010000
00000000
00000000
10000000
00000000
00000000
00010000
00000000
00000000
01000000
00000000
00000000
00000000
,
00100000
10000000
01000000
00000000
00010000
00001000
00000100
00000000
,
00000001
00001000
00000100
00000010
00000001
00000000
00001000
00000000
,
00000001
00000100
00001000
00000000
00010000
01000000
10000000
00000000
,
00100000
01000000
00010000
10000000
02000000
00000000
03000000
00000000
,
00010000
00001000
00010000
00000000
01000000
00100000
01000000
00000000
,
10000000
00000000
00000000
00100000
00000000
00000000
10000000
00000000
00000000
00100000
00000000
00000000
01000000
00000000
00000000
00000000
,
00001000
00010000
00001000
00000000
00000010
00000100
00000010
00000000
,
00000001
00000000
00000000
00001000
00000000
00000000
00000001
00000000
00000000
00001000
00000000
00000000
00000100
00000000
00000000
00000000
,
00000010
00000001
00000100
00000000
00001000
00010000
01000000
00000000
,
10000000
00010000
01000000
00100000
10000000
00000000
00010000
00000000
,
10000000
01000000
00010000
00000000
00001000
00000100
00000001
00000000
,
00000010
00000100
00001000
00000001
00000200
00000000
00000300
00000000
,
00001000
00100000
00020000
00000000
00000000
00000000
00030000
00000000
,
10000000
00010000
01000000
00010000
10000000
01000000
10000000
00000000
,
00100000
00010000
00001000
00000010
,
00000001
00000000
00001000
00000100
00000000
00000010
00001000
00000000
,
00010000
00000010
00002000
00000000
00003000
00000001
00001000
00000100
,
00001000
00000001
00000200
00000000
00000000
00001300
00010000
00100000
,
10000000
00110000
01000000
10100000
,
01000000
00101000
00010000
00010100
,
00001000
00000010
00000001
00000100
,
00001000
00010000
00100000
10000000
,
20020000
00000000
30030000
00000000
,
10010000
00000000
00000000
00000000
;

//---------------dance-double - NewbStepper-BDP----------------
#NOTEDATA:;
#CHARTNAME:NewbStepper-BDP;
#STEPSTYPE:dance-double;
#DESCRIPTION:NewbStepper-BDP;
#DIFFICULTY:Easy;
#METER:5;
#RADARVALUES:0.219632,0.307485,0.042706,0.076871,0,180,175,5,9,0,0,0,0,0,0.219632,0.307485,0.042706,0.076871,0,180,175,5,9,0,0,0,0,0;
#CREDIT:NewbStepper;
#NOTES:
00000000
00000000
00000000
00000000
,
00000000
00000000
00000000
00000000
,
00000000
00000000
00000000
00000000
,
00000000
00000000
00000000
00000000
,
00000000
00000000
00000000
00000000
,
00010000
00001000
00010000
00000000
,
00000100
00000010
00000100
00000000
,
00001000
00000100
00001000
00000000
,
00000001
00000100
00000001
00000000
,
00000100
00001000
00010000
00000000
,
01000000
00010000
00001000
00000000
,
00100000
00001000
00010000
00000000
,
01000000
10000000
00010000
00000000
,
00100000
00001000
00010000
00000100
,
00001000
00000001
00000010
00000100
,
00010000
00001000
00100000
01000000
,
10000000
01000000
00100000
00010000
,
00200000
00000000
00000000
00000000
,
00000000
00000000
00000000
00000000
,
00000000
00000000
00000000
00000000
,
00000000
00300000
00000000
00000000
,
00001000
00000000
00010000
00000000
,
00000100
00000100
00000100
00000100
,
00000010
00000000
00000001
00000000
,
00000200
00000000
00000000
00000300
,
00001000
00000000
00010000
00000000
,
01000000
00000000
10000000
00000000
,
00010000
00010000
00100000
00000000
,
00001000
00001000
00010000
00000000
,
00000010
00001000
00000010
00000000
,
00000100
00000001
00000100
00000000
,
00000010
00000000
00000010
00000000
,
00010000
00001000
00010000
00001000
,
00100000
00000000
00100000
00000000
,
00010000
01000000
10000000
01000000
,
00010000
00010000
10000000
10000000
,
00200000
00000000
02000000
03300000
,
00001000
00000000
00000000
00000000
,
00010000
00000000
00000000
00000000
,
00000010
00000000
00000000
00000000
,
00000100
00000000
00000000
00000000
,
00000001
00000000
00000010
00000000
,
00001000
00000000
00010000
00000000
,
00100000
00000000
10000000
00000000
,
00010000
00000000
00000000
00000000
,
00100000
00010000
00100000
00000000
,
01000000
10000000
01000000
00000000
,
00100000
00000000
00100000
00000000
,
00001000
00010000
00001000
00010000
,
00000010
00000000
00000010
00000000
,
00001000
00000100
00000001
00000100
,
00001000
00001000
00000001
00000001
,
00000020
00000000
00000200
00000330
,
00001001
00000000
00000110
00000000
,
00001000
00010000
00011000
00000000
,
00100000
00000000
01000000
00000000
,
10000000
00010000
10000000
00010000
,
00100000
01000000
00100000
01000000
,
00010000
00001000
00000100
00000000
,
00000001
00001000
00000100
00001000
,
00000001
00000100
00001000
00000000
,
00020000
00000000
00000000
00030000
,
00100000
10000000
01000000
10000000
,
00100000
00000000
00010000
00000000
,
00001000
00000100
00000010
00001000
,
00000002
00000000
00000000
00000003
,
00002000
00000000
00000000
00003000
,
00000001
00000100
00000001
00000100
,
00000010
00001000
00000010
00001000
,
00000100
00010000
00000100
00010000
,
00001000
00100000
00001000
00010000
,
00011000
00000000
00000000
00000000
,
00011000
00000000
00000000
00000000
;
