#VERSION:0.83;
#TITLE:Quad Strike -saiiko2 ver-;
#ARTIST:Midflight Digital Records;
#BANNER:Quad Strike -saiiko2 ver-.png;
#BACKGROUND:Quad Strike -saiiko2 ver--bg.png;
#JACKET:Quad Strike -saiiko2 ver--jacket.png;
#MUSIC:Quad Strike -saiiko2 ver-.ogg;
#OFFSET:-0.065;
#SAMPLESTART:31.259;
#SAMPLELENGTH:15;
#DISPLAYBPM:100:200;
#BPMS:0=100,20=200,84=100,86=200,90=100,91=200,223=100,231=200,237=100,239=200,241=300,244=400,248=200,328=100,334=66;
#STOPS:89.5=2.4,96.5=2.4,153.5=0.15,154.5=0.15,155.5=0.15,156.5=0.15;
#TIMESIGNATURES:0=4=4,84=2=4,86=4=4,90=3=4,93=4=4,153=3=4,159=4=4,235=3=4,244=4=4;

//---------------dance-single - Nitrospan-bSP----------------
#NOTEDATA:;
#CHARTNAME:Nitrospan-bSP;
#STEPSTYPE:dance-single;
#DESCRIPTION:Nitrospan-bSP;
#DIFFICULTY:Beginner;
#METER:5;
#CREDIT:Nitrospan;
#NOTES:
0000
0000
0000
0000
,
1000
0000
0000
0000
,
0010
0000
0100
0000
,
0001
0000
0000
0000
,
0010
0000
0100
0000
,
1000
0000
1000
0000
,
1000
0000
0000
0000
,
0010
0000
0010
0000
,
0010
0000
0000
0000
,
0100
0000
0100
0000
,
0100
0000
0000
0000
,
0001
0000
0001
0000
,
0001
0001
0000
0000
,
1001
0000
0100
0000
,
0010
0010
0010
0000
,
1000
0000
0001
0000
,
0010
0010
0010
0000
,
0001
0000
1000
0000
,
0100
0100
0100
0000
,
1000
0000
0001
0000
,
2002
0000
3003
0000
,
0200
0000
0300
0000
0010
0000
0000
0010
,
0000
0010
0000
0010
0020
0000
0030
0000
,
0000
0000
0100
0000
0000
0100
0000
0100
,
0000
0100
0000
0000
0200
0000
0000
0000
,
0300
0000
1000
0000
0000
0001
0000
0001
,
0000
0002
0000
0000
0000
0000
0000
0000
,
0003
2002
0000
0000
,
3003
1001
0000
0100
,
0000
0010
0010
0010
,
0000
1000
0000
0100
,
0000
1000
1000
1000
,
0000
1001
0000
0100
,
0000
0010
0000
1000
,
0000
0001
0000
0010
,
0000
0100
0000
1000
,
0000
1001
0000
0000
,
0000
0220
0000
0000
,
0330
1000
0010
0100
,
0001
2002
3003
1000
,
0000
0100
0000
0010
,
0010
0010
0000
0001
,
0000
0100
0000
0001
,
0001
0001
0000
0010
,
0000
0100
0000
1000
,
1000
1000
0000
0010
,
0000
1000
0000
0100
,
0100
0100
0000
0110
,
0000
0010
0000
0001
,
0001
0001
0000
0010
,
0000
0100
0000
1000
,
1000
1000
1000
1000
,
0000
0010
0000
0100
,
0000
0001
0000
0020
,
0030
0200
0300
2000
,
3000
0002
0003
2002
,
0000
0000
0000
0000
,
0000
3003
0000
0010
,
0000
0010
0000
0000
0010
0000
0000
0010
,
0000
0020
0000
0030
,
0000
0000
0000
0000
,
0000
0000
0000
0000
,
1000
0000
0100
0000
,
0010
0000
0001
0000
,
0100
0000
0010
0000
,
1000
1000
1000
0000
,
0010
0000
0100
0000
,
0001
0000
0010
0000
,
0100
0000
1000
0000
,
1001
0000
0110
0000
,
1000
0000
0100
0000
,
0001
0000
0100
0000
,
1000
0000
0010
0000
,
0001
0000
0010
0000
,
1000
0000
0010
0000
,
0100
0000
0001
0000
,
1000
0000
0100
0000
,
0010
0000
0001
0000
,
1000
0000
1000
0000
,
0001
0000
0001
0000
,
0100
0100
0100
0000
,
0010
0010
0010
0000
,
0220
0000
0000
0000
,
0000
0330
0000
0000
;

//---------------dance-single - Nitrospan-BSP----------------
#NOTEDATA:;
#CHARTNAME:Nitrospan-BSP;
#STEPSTYPE:dance-single;
#DESCRIPTION:Nitrospan-BSP;
#DIFFICULTY:Easy;
#METER:9;
#CREDIT:Nitrospan;
#NOTES:
0000
0000
0000
0000
,
2000
0000
3000
0000
,
0002
0003
0200
0300
,
0020
0000
0030
0000
,
2000
3000
0002
0003
,
1001
0100
0100
0100
,
0010
0010
0010
0010
,
0001
0001
0001
0001
,
1000
1000
0001
0001
,
0100
0000
0110
0000
0000
0100
0010
0000
,
1000
0000
1001
0000
0000
1000
0001
0000
,
0010
0100
1000
0001
,
0100
0100
0200
0000
0000
0000
0300
0000
,
0010
0000
0100
0000
0000
0001
0100
0000
,
0010
0000
1000
0100
0000
1000
0010
0000
,
0100
0000
0001
0000
0000
0010
0001
0000
,
1000
0010
1000
0000
0001
0000
1001
0000
,
0010
0000
0100
0000
0000
0001
0100
0000
,
0010
0000
1000
0100
0000
1000
0001
0000
,
0100
0000
0010
0000
0000
1000
0001
0000
,
2000
0000
3000
0002
0000
0003
1001
0000
,
0200
0000
0300
0000
0010
0010
0000
1001
,
0000
1001
0000
1001
0200
0000
0300
0000
,
0000
0000
0100
0100
0000
0110
0000
0110
,
0000
0110
0000
0000
2002
0000
0000
0000
,
3003
0000
0010
0010
0000
0110
0000
0110
,
0000
2002
0000
0000
0000
0000
0000
0000
,
3003
0220
0000
0000
,
0330
1001
0100
0001
,
0100
1000
0100
0001
,
0100
1000
0010
0100
,
0001
0000
1000
0100
1000
0000
0001
0100
,
0001
0010
0001
0010
,
0001
0100
0001
0100
,
0001
1000
0100
1000
,
0100
1000
0010
1000
,
0010
0200
0000
0000
,
0300
2002
0000
0000
,
3003
0000
2000
3000
0020
0030
0200
0300
,
0002
0003
1001
0000
1001
0000
1000
0000
,
0100
0010
0001
0010
,
0100
1000
0001
0100
,
0001
1000
0100
1000
,
0010
0100
0000
0001
,
0100
0010
1000
0100
,
1000
0001
0100
0010
,
1000
0001
0010
0100
,
1000
0001
0000
1001
,
0010
0100
0100
0001
,
1000
0010
0100
0001
,
0010
0100
1000
0010
,
0001
0100
1000
0010
,
0100
0001
1000
0100
,
0010
0001
1000
0010
,
0010
0000
0100
0000
0100
0000
0001
0010
,
0001
0000
1000
0100
1000
0000
2001
0000
,
3000
0200
0000
0300
0020
0000
0030
0002
,
0000
0000
2000
0000
0000
3003
0011
0000
,
0000
0101
0000
0000
1100
0000
0000
1010
,
0000
2002
0000
0000
,
0000
0000
0000
0000
,
0000
0000
3003
0000
,
1000
0000
0100
0000
0000
1000
0100
0000
,
0010
0000
0001
0010
0000
0001
0010
0000
,
0001
0000
0100
0000
0000
0001
0100
0000
,
0001
1000
0001
0000
1000
0000
1001
0000
,
1000
0000
0100
0000
0000
1000
0100
0000
,
0010
0000
0100
0010
0000
0100
0010
0000
,
0001
0000
1000
0000
0000
0001
1000
0000
,
0002
0000
0003
2000
0000
3000
1001
0000
,
1000
0100
0001
0100
,
2000
0100
0002
3003
,
0001
0010
1000
0010
,
0002
0010
2003
0100
,
3001
0100
0010
1000
,
0010
0100
0001
0000
,
1000
0100
0010
0001
,
1000
0010
0100
0001
,
1000
0100
0001
0100
,
1000
0010
0001
0010
,
1000
0100
0001
0010
,
1000
0100
0001
0010
,
2001
0000
3000
0200
0000
0300
0020
0000
,
0030
0002
0000
0000
2000
0000
3003
0000
;

//---------------dance-single - Nitrospan-DSP----------------
#NOTEDATA:;
#CHARTNAME:Nitrospan-DSP;
#STEPSTYPE:dance-single;
#DESCRIPTION:Nitrospan-DSP;
#DIFFICULTY:Medium;
#METER:13;
#CREDIT:Nitrospan;
#NOTES:
0000
0000
0000
0000
,
1000
0000
0001
0100
0000
0000
0000
0000
0000
0000
0000
0000
0000
0000
0010
0000
,
1000
0000
0010
0100
0000
0000
0000
0000
0001
0000
0000
1000
0000
0000
0100
0000
,
0010
0000
0001
0010
0000
0000
0000
0000
0000
0000
0000
0000
0000
0000
0100
0000
,
1000
0000
0010
1000
0000
0001
0100
0001
0000
1000
0100
1000
0001
0000
0100
0000
,
0110
0000
0010
1000
0010
0000
0100
0000
,
0001
0100
0001
0000
1000
0000
0100
0000
,
0010
0000
0001
0010
0001
0000
0100
0000
,
0010
1000
0010
0000
0100
0000
0001
0000
,
1000
0000
1100
0000
0000
0001
0100
0000
,
0001
0000
0011
0000
0000
0100
0010
0000
,
0001
1000
0010
0100
,
0001
1000
2002
0000
0000
0000
3003
0000
,
0010
0000
0110
0000
0001
0100
0010
0000
,
0100
0001
1000
0100
0000
0100
1000
0000
,
0010
0000
1001
0000
0001
0010
0100
0000
,
0010
0001
0010
0001
0000
1000
0100
0000
,
0010
0000
1001
0000
0100
1000
0010
0000
,
0100
0000
0001
0010
0000
0010
0001
0000
,
0100
0000
0110
0000
1000
0001
0010
0000
,
0100
0010
0100
1000
0001
1000
0110
0000
,
1000
0100
0010
0001
0100
0000
0000
0000
0010
0000
0010
0000
0000
0000
0101
0000
,
0000
0000
1100
0000
0000
0000
1001
0000
1000
0100
0010
0001
1000
0000
0100
0000
,
0010
0001
0100
0100
0000
1010
0000
0011
,
0000
1001
1000
0100
0010
0001
0100
0010
,
1000
0001
0010
0100
0000
1100
0000
0011
,
0000
2001
0000
0001
0000
0001
0000
0001
,
0000
3001
0200
0010
0000
0010
0000
0010
,
0010
0310
1001
0000
0100
0010
1000
0100
,
0000
0101
0000
1100
0000
1001
0000
0100
,
0010
0001
1000
0010
0100
0001
0000
0010
,
0001
1000
0001
0010
0100
1000
0001
0100
,
0010
1000
0100
1000
0000
0001
0000
0100
,
0001
0000
1000
0100
0000
0010
0000
0001
,
0100
0000
0010
1000
0000
0100
0000
1000
,
0001
0000
0100
0010
0000
1000
0000
0001
,
0010
0000
0100
0010
0001
1000
0000
0010
,
0100
2002
0000
0000
,
3003
0000
1000
1000
0001
0001
0100
0100
,
0010
0010
1001
0000
0110
0000
0010
1000
,
0010
0100
0000
0101
0000
1100
0000
1010
,
0000
0011
0000
1000
0100
0010
0001
0000
,
0100
0010
0000
1000
0010
0100
0000
0101
,
0000
1000
0100
0010
0001
0100
0010
1000
,
0000
1100
0000
0001
0100
0000
0000
0010
,
0000
0010
0000
1000
0001
0000
1000
0100
,
1000
0001
0010
0001
1000
0001
0000
1001
,
0000
1000
0100
0010
0001
0100
0010
1000
,
0001
0100
0000
0010
0000
0110
0000
0000
,
0010
1000
0000
0001
0010
0100
1000
0100
,
0000
0101
0000
0100
1000
0001
1000
0010
,
0100
0001
0010
0100
1000
0001
0100
0010
,
0100
0010
0000
1000
0010
0100
0001
1000
,
0000
1001
0000
0001
0010
0100
1000
0100
,
1000
0000
0001
0100
0001
0000
1000
0100
,
0010
0000
0001
0000
1000
0000
0100
0000
0010
0000
0001
0000
0200
0000
0000
0300
,
0000
0000
0020
0000
0000
0030
0000
0000
2000
0000
0000
3000
0000
0000
0002
0000
,
0000
0003
0000
0000
2002
0000
0000
0000
0000
0000
3003
0000
1001
0000
0000
0000
,
0000
0011
0000
0000
1100
0000
0000
0110
,
0000
2002
0000
0000
,
0000
0000
0000
0000
,
0000
0000
3003
0000
,
1000
0000
0100
0000
1000
0001
0100
0000
,
0010
0000
0100
0001
0000
1000
0100
0000
,
0010
0000
0001
0000
1000
0010
0100
0000
,
0001
1000
0001
1000
0000
0100
0010
0000
,
0001
0001
0001
0000
1000
0001
0100
0000
,
0010
0000
1000
0100
0000
1000
0001
0000
,
0100
0000
0010
0000
1000
0010
0100
0000
,
0001
0010
0001
1000
0100
1000
0001
0000
,
1000
0100
0010
0001
0000
0010
0100
1000
,
0002
0003
2000
3000
,
0010
0100
0001
1000
0000
0001
0100
0010
,
1000
0010
0100
0001
0010
0100
1000
0001
,
1000
0100
0010
0001
1000
0001
1000
0000
,
0001
0000
0100
0010
1000
0100
0010
0000
,
0001
0010
0100
1000
0010
0010
0100
0100
,
0001
0010
0100
1000
0100
0010
0001
0000
,
1000
0010
0100
0001
1000
0010
0100
0001
,
1000
0100
0010
0001
0010
0100
1000
0001
,
0100
0010
1000
0001
0010
0100
1000
0001
,
0100
0010
1000
0010
0100
0001
1000
0000
,
2001
0000
0000
3000
0000
0000
0020
0000
0000
0030
0000
0000
0200
0000
0000
0300
,
0000
0000
0002
0000
0000
0003
0000
0000
2000
0000
0000
0000
3000
0000
0000
0000
;

//---------------dance-single - Nitrospan-ESP+----------------
#NOTEDATA:;
#CHARTNAME:Nitrospan-ESP+;
#STEPSTYPE:dance-single;
#DESCRIPTION:Nitrospan-ESP+;
#DIFFICULTY:Hard;
#METER:17;
#CREDIT:Nitrospan+;
#NOTES:
0000
0000
0000
0000
,
1000
0010
0100
0002
0000
0000
0000
0000
0000
0000
0000
0000
0003
0000
0010
0100
,
1000
0010
0100
0002
0000
0000
0003
0000
0001
0000
0000
1000
0100
0000
0010
0000
,
0001
0010
0100
2000
0000
0000
0000
0000
0000
0000
0000
0000
3000
0000
0100
0010
,
0001
0010
0100
1000
0000
0001
0100
0010
0000
1000
0010
0100
0001
0010
0100
1000
,
0001
0100
0010
1000
0000
0010
0100
0000
,
0001
1000
0000
0100
0010
0000
0001
0010
,
0100
1000
0100
0010
0000
0001
0100
0000
,
0020
1000
0030
0010
0200
0000
0301
1000
,
0100
0000
1001
0000
0000
0010
1001
0000
,
1000
0000
0110
1000
0000
0001
0110
0000
,
0001
0010
0100
1000
,
0001
1000
0001
1000
0020
0000
0000
0000
0000
0000
0000
0000
0030
0000
0000
0000
,
1000
0100
0010
0110
0000
0011
0000
1001
,
1000
0100
1000
0000
0001
0010
0001
0000
0100
0000
0110
0000
0000
0000
0010
0000
,
1000
0010
0000
0101
0000
1000
0001
0100
,
0010
0010
1000
0001
0010
0100
1000
0001
,
0100
0010
0100
0101
0000
1100
0000
1000
,
0001
0100
0001
0000
1000
0010
1000
0000
0001
0010
0100
0000
0010
0100
1000
0000
,
1001
0001
0000
0110
0000
0001
1000
0000
,
0001
0010
0001
0010
0100
0000
1000
0010
1000
0010
0100
0000
1001
0000
0000
0000
,
1000
0100
0010
0001
1000
0000
0000
0000
0010
0000
1000
0000
0000
0000
1010
0000
,
0000
0000
0000
0000
0000
0000
0011
0000
0000
0000
0000
0000
0000
0000
0000
0000
0000
0000
2002
0000
3003
0000
0000
0000
0001
0000
0000
0100
0000
0000
0010
0000
0000
1000
0000
0000
0001
0000
0000
0010
0000
0000
0100
0000
0000
1000
0000
0000
,
0001
0010
0100
0000
0010
0000
0001
0000
0000
0000
0101
0000
0000
0000
1100
0000
,
0000
0000
0000
0000
0000
0000
2002
0000
3003
0000
0000
0000
0001
0000
0000
0000
0000
0000
1000
0000
0000
0000
0000
0000
0001
0000
0000
0010
0000
0000
0100
0000
0000
1000
0000
0000
0001
0000
0000
0100
0000
0000
0010
0000
0000
1000
0000
0000
,
0001
0010
0100
0000
1000
0000
0100
0000
0010
0000
0011
0000
0000
0000
1010
0000
,
0000
1002
0000
1000
0000
1000
0000
1000
,
0000
1003
2001
0001
0000
0001
0000
0001
,
0001
0000
3001
0000
1001
0000
0000
0000
0000
0000
1000
0010
0100
0000
0001
0000
,
0000
0011
0000
1010
0000
2002
0000
3003
,
0001
0010
0100
1000
0010
0200
0000
0300
,
0001
0000
1000
0000
0001
0010
0100
0000
1000
0100
0010
0000
0001
1000
0010
0000
,
0100
0001
1000
0000
0001
0000
0100
0000
0010
0000
0000
0000
0100
0000
0001
0000
,
1000
0000
0000
0100
1000
0000
0001
0000
0100
0000
0000
0000
0010
0000
1000
0000
,
0100
0000
0000
1000
0001
0000
0010
0000
0100
0000
0000
0000
0010
0000
0001
0000
,
0100
0000
0000
0001
1000
0000
0010
0000
0100
0000
0000
0000
0001
0000
0100
0000
,
0010
1000
0001
0010
0100
1000
0010
0100
,
0001
0000
1000
0000
1001
0000
0001
0000
0010
0001
0010
0001
1000
0010
1000
0000
,
0001
0100
0001
0000
0011
0000
1000
0000
1100
0000
0001
0000
0101
0000
1000
0000
,
1010
0001
0110
0000
1001
0000
0001
0100
,
0010
0100
1000
0100
0001
0010
0100
0010
,
0001
0000
0010
0000
1000
0000
0010
0000
0001
0000
0100
0001
1000
0000
0000
0000
,
0100
0010
0000
0001
0010
0100
0000
1000
,
0010
0100
0001
0100
0010
1000
0100
0010
,
0000
0110
0000
0010
0001
1000
0010
0100
,
0010
0100
0001
1000
0100
0000
0010
0001
,
1000
0010
0100
0001
1000
0100
0000
0011
,
0000
1001
0001
0100
0010
1000
0010
0100
,
0001
1000
0000
1100
0000
0101
0000
0000
,
0001
0010
0000
0001
1000
0010
0100
0001
,
0000
0000
1100
0000
0000
0000
0001
0000
0100
0000
0010
0000
1000
0010
0100
0000
,
0001
0010
0100
0000
1000
0100
0010
0000
0001
0100
0010
0000
1000
0000
0100
0000
,
0001
0100
0000
0010
1000
0010
0001
0100
,
0000
0010
0000
0001
0010
1000
0001
0010
,
0100
0000
1000
0000
0001
0000
0100
0000
0010
0000
1000
0000
0001
0010
0100
1000
,
0100
0010
0001
0100
0010
1000
0010
0100
0001
0010
0100
1000
0002
0000
0000
0100
,
0000
0000
2003
0000
0000
0100
0000
0000
3002
0000
0000
0010
0000
0000
2003
0000
,
0000
0000
0010
0000
0000
0000
0000
0000
0002
0000
0000
0000
0000
0000
0000
0000
3003
0000
0000
0000
0001
0010
0100
1000
0001
0000
0000
0000
0000
0000
0000
0000
,
1000
0110
0000
0001
0110
0000
0010
1001
,
0100
0220
0000
0000
,
0000
0000
0000
0000
,
0000
0000
0330
0000
,
1000
0100
0010
0001
0100
0010
0110
0000
,
0010
1000
0100
0010
0001
0100
0110
0000
,
0001
0010
0100
1000
0001
0100
1001
0000
,
0100
0100
0011
1000
0000
0010
1001
0000
,
0001
1000
0001
1000
0001
0000
0010
0000
0100
0000
1000
0000
0011
0000
0000
0000
,
1000
0010
0001
0010
1000
0100
1001
0000
,
0001
0100
0010
1000
0100
0010
1001
0000
,
0001
0010
0001
0010
0100
0000
1000
0100
1000
0100
0010
0000
1001
0000
0000
0000
,
0001
0100
0010
1000
0010
0100
0001
1000
,
0002
0100
2003
0100
,
3001
0010
0100
1000
0010
0100
0001
1000
,
0002
0100
2003
0100
3002
0010
2003
0010
,
3001
0010
0001
0010
0100
1000
0100
1000
0010
0000
0100
0000
0001
0000
1000
0000
,
0010
0000
0100
0002
1000
1003
0100
0010
,
0001
0000
0010
0000
0100
0000
1000
0000
0100
1000
0001
1000
0100
0010
0001
1000
,
0001
0010
0001
0010
0100
1000
0100
1000
0001
0100
0001
0100
0010
1000
0010
1000
,
0001
0010
0001
0000
0010
0100
0010
0000
0100
1000
0100
0000
1000
0001
1000
0000
,
0001
0010
0001
0010
0100
1000
0100
1000
0001
0100
0001
0100
0010
1000
0010
1000
,
0001
0001
0010
0010
0100
0100
1000
1000
,
0001
0100
0010
1000
0100
0010
0001
0100
0010
1000
0100
0010
0001
0100
0010
1000
,
0002
0000
0000
0023
0000
0000
0230
0000
0000
2300
0000
0000
3020
0000
0000
0230
,
0000
0000
0302
0000
0000
0010
0000
0000
2000
0000
0000
0000
3003
0000
0000
0000
;

//---------------dance-single - Nitrospan-CSP+----------------
#NOTEDATA:;
#CHARTNAME:Nitrospan-CSP+;
#STEPSTYPE:dance-single;
#DESCRIPTION:Nitrospan-CSP+;
#DIFFICULTY:Challenge;
#METER:18;
#CREDIT:Nitrospan+;
#NOTES:
0000
0000
0000
0000
,
1001
0001
0100
0020
0000
0000
0000
0000
0000
0000
0000
0000
0000
0000
1030
0001
,
0100
0001
1000
0200
0000
0000
0300
0000
0010
0000
0000
0001
0000
0000
1000
0000
,
0100
1000
0001
0200
0000
0000
0000
0000
0000
0000
0000
0000
0300
0000
0010
1000
,
0001
0010
0100
0002
0000
0103
1000
0020
0000
0031
0010
1000
0001
0010
0100
1000
,
1001
0000
0001
0000
0010
0000
0000
0010
0100
0000
1000
0000
0001
0000
0000
0001
,
0100
0000
0010
0000
1000
0000
0000
1000
0001
0000
0010
0000
0100
0000
0000
0100
,
1000
0000
0001
0000
0010
0000
0000
0010
0001
0000
0100
0000
0010
0000
0000
0010
,
1000
0000
0001
0000
0010
0000
0000
0010
0001
0000
1000
0000
0010
0000
0100
0001
,
1000
0100
0110
0000
0000
0010
1001
0000
,
0001
0100
0110
1000
0000
0100
1001
0000
,
0010
0001
0100
1000
,
0010
0100
0010
0100
2002
0000
0000
0000
0000
0000
0000
0000
3003
0000
0000
0000
,
1000
0000
0010
0000
0100
0000
0001
0000
1000
0100
0010
0000
0001
0010
0100
0000
,
1000
0001
0100
0000
0010
0100
0001
1000
0100
0000
0010
0000
0001
0000
0000
0000
,
0100
0000
0010
0000
1000
0000
0100
0000
0010
0001
1000
0000
0010
0100
0001
0000
,
0010
0100
0010
0000
0100
0000
1000
0000
0010
0000
1000
0000
0001
0000
0010
0000
,
0110
0000
0100
0000
1000
0000
0001
0000
0100
0010
1000
0000
0100
0010
0001
0000
,
1000
0001
0100
0000
0001
1000
0010
0000
0100
0001
0010
0000
0100
1000
0010
0000
,
0110
0000
0100
0000
0001
0000
0010
0000
0100
1000
0001
0000
0100
0001
1000
0000
,
0001
0100
0010
1000
0100
0000
1000
0010
0100
0001
0010
0000
1001
0000
0000
0000
,
0110
0000
1000
0000
0001
0000
0010
0000
0100
1000
0001
0100
0010
1000
0001
0010
0100
0000
0000
0000
1000
0000
0000
0000
0010
0000
0100
0000
0001
0000
0000
0000
,
0000
0000
0000
0000
0000
0000
1100
0000
0000
0000
0000
0000
0000
0000
0000
0000
0000
0000
2002
0000
3003
0000
0000
0000
1000
0000
0000
0010
0000
0000
0001
0000
0000
0010
0000
0000
1000
0000
0000
0010
0000
0000
0100
0000
0000
0001
0000
0000
,
0010
0100
1000
0010
0100
0000
0001
0000
0010
0100
1000
0000
0000
0000
0101
0000
,
0000
0000
0000
0000
0000
0000
2002
0000
3003
0000
0000
0000
0001
0000
0000
0000
0000
0000
1000
0000
0000
0000
0000
0000
0100
0000
0000
1000
0000
0000
0001
0000
0000
0100
0000
0000
0010
0000
0000
0100
0000
0000
0001
0000
0000
1000
0000
0000
,
0100
0010
0001
1000
0010
0000
1000
0000
0100
0010
0001
0000
0000
0000
1010
0000
,
0000
2001
0000
0010
0000
0010
0000
0010
,
0000
3010
1002
0100
0000
0100
0000
0100
,
0100
0000
0103
0000
0010
0000
0010
0000
1000
0000
0001
0100
1000
0000
0100
0000
,
0001
1010
0000
1100
0000
0012
0000
0000
,
1003
0001
0010
0001
0100
0020
0001
0000
,
1030
0000
0001
0000
0010
0001
0100
0010
1000
0100
0010
0001
0100
0001
0010
0100
,
1000
0010
0100
0001
1000
0000
0100
0000
0010
0000
0001
0000
0000
0000
0100
0000
,
0010
1000
0001
0010
0000
0100
0000
0010
,
0001
0100
1000
0100
0000
0010
0000
1000
,
0100
0001
1000
0010
0000
0001
0000
0100
,
0010
1000
1001
0001
0100
1000
0000
1000
,
0100
0000
0001
0000
1000
0100
0010
0100
1000
0010
0100
0001
0010
0100
0010
0001
,
0100
0010
1000
0000
1010
0000
0011
0000
0011
0000
0101
0000
0101
0000
1100
0000
,
1100
1001
0110
0000
1001
0000
1000
0100
,
0010
0000
0001
0010
0000
0000
0010
0100
0000
0000
0100
1000
0000
0000
1000
0010
,
0000
0000
0010
0100
0000
0000
0100
0000
0010
0000
1000
0001
0010
0000
0000
0000
,
0100
0000
1000
0001
0000
0000
0001
0000
0100
0000
0010
0100
0000
0000
0100
0001
,
0000
0000
0001
0000
0010
0000
0100
0000
1000
0000
0001
0000
0100
0000
0010
0100
,
0000
0000
0100
0001
0000
0000
1000
0000
0010
1000
0000
0000
1000
0000
0001
0010
,
0000
0000
0100
1000
0000
0000
0001
0000
0100
0010
0000
0000
1000
0000
0010
0000
,
0100
0000
0001
0000
1000
0000
0100
0000
0010
0000
0001
0000
0100
0000
0001
0010
,
0000
0000
0100
1000
0001
0000
0100
0000
0010
0000
1000
0000
2001
0000
3002
0000
,
0203
0320
0100
2030
0010
3002
0100
1000
,
0023
0230
1000
0320
0032
2003
3020
0230
,
0010
0000
0302
0000
1000
0000
0023
0000
0230
0000
0320
0000
0031
0010
0100
1000
,
0100
0010
0001
0100
0010
1000
0010
0100
0001
1000
0010
1000
0100
0000
0010
0000
,
0001
1000
0010
0100
0001
1000
0110
0001
,
0100
0010
1000
0100
1000
0001
1001
1000
,
0100
0000
0100
0000
0010
0000
0010
0000
0001
0000
0001
0000
1000
0010
0100
1000
,
0100
0010
1000
0001
0010
0100
0001
0100
0010
0001
0100
0010
2000
0000
0000
3020
,
0000
0000
0230
0000
0000
0302
0000
0000
0023
0000
0000
0230
0000
0000
2300
0000
,
0000
0000
3020
0000
0000
0000
0000
0000
0200
0000
0000
0000
0000
0000
0000
0000
0330
0000
1000
0000
0001
0100
0010
1000
0100
0000
0000
0000
1000
0000
0010
0000
,
0100
0001
0010
0000
0001
0010
0100
1000
0010
0000
1000
0100
0010
0001
0100
0000
,
1001
0220
0000
0000
,
0000
0000
0000
0000
,
0000
0000
0330
MMMM
,
0001
0100
0110
0010
1000
0100
0011
0001
,
1000
0010
0110
0100
0001
0010
1100
1000
,
0010
1000
1001
0001
1000
0010
0101
0001
,
0010
0100
1100
1000
0010
0100
1001
0000
,
0001
0100
0001
0100
0010
0000
0100
0000
0001
0000
0010
0000
1100
0000
1000
0000
,
0001
0100
0110
0010
1000
0100
0011
0001
,
0100
0010
1010
1000
0001
0010
0110
0100
,
0001
0100
1000
0010
0100
0000
1000
0100
0001
0010
0100
0000
0110
0000
0000
0000
,
1001
1000
0100
0010
0001
0100
0010
0100
,
1000
0100
0001
0010
1000
0010
0001
0100
,
0010
1000
0001
0010
0100
1000
0010
0001
,
0010
1000
0100
0001
0100
1000
0010
1000
,
0001
0100
0010
0100
0001
0100
0010
1000
0001
0000
0010
0000
0100
0000
1000
0000
,
0010
0100
0010
1000
0001
0100
0001
0010
,
1000
0000
0010
0000
0001
0000
1000
0000
0001
0100
0010
0100
1000
0100
0010
0100
,
0001
1000
0001
0010
0100
1000
0001
1000
0010
0100
0010
1000
0001
0010
0100
0010
,
1000
0010
0100
0010
0001
1000
0100
0010
0001
1000
0010
0100
0010
0001
0010
0100
,
0010
1000
0001
1000
0010
0100
0001
1000
0100
0010
0100
0001
0100
0010
0100
1000
,
0001
0010
0100
1000
0010
0100
0001
1000
0100
0010
0001
0100
0010
1000
0001
0010
,
0100
0001
0100
1000
0010
0100
1000
0100
0010
1000
0001
0010
0100
1000
0010
0100
,
0002
0000
0000
0203
0000
0000
0320
0000
0000
2030
0000
0000
3002
0000
0000
0023
,
0000
0000
2030
0000
0000
3020
0000
0000
0200
0000
0000
0000
0330
0000
0000
0000
;

//---------------dance-double - Talkion-BDP----------------
#NOTEDATA:;
#CHARTNAME:Talkion-BDP;
#STEPSTYPE:dance-double;
#DESCRIPTION:Talkion-BDP;
#DIFFICULTY:Easy;
#METER:10;
#CREDIT:Talkion;
#NOTES:
00000000
00000000
00000000
00000000
,
00001000
00000000
00000000
00010000
00000000
00000000
00000000
00000000
00000000
00000000
00000000
00000000
00000000
00000000
00000000
00000000
,
00010000
00000000
00000000
01000000
00000000
00000000
00000000
00000000
01000000
00000000
00000000
01000000
00000000
00000000
01000000
00000000
,
10000000
00000000
00000000
00100000
00000000
00000000
00000000
00000000
00000000
00000000
00000000
00000000
00000000
00000000
00000000
00000000
,
00100000
00000000
00000000
00010000
00000000
00000000
00000000
00000000
00002000
00000000
00000000
00000000
00013000
00000000
00000000
00000000
,
00001000
00000010
00001000
00000010
,
00000001
00001000
00000001
00001000
,
00000001
00000100
00000001
00000100
,
00002000
00003000
00020000
00030000
,
00011000
00000000
00001000
00000000
00000000
00001000
00100000
00000000
,
00110000
00000000
00010000
10000000
00000000
10000000
00010000
00000000
,
10000000
00100000
00010000
00001000
,
00010000
00001000
00020000
00000000
00000000
00000000
00030000
00000000
,
00001000
00000010
00001000
00000010
00000000
00000001
00000000
00000100
,
00000000
00000010
00000000
00001000
00000000
00000100
00010000
00000000
,
00001000
00010000
00001000
00020000
00000000
00000000
00000000
00000000
,
00030000
00000000
00001000
00100000
00010000
00100000
00001000
00000000
,
00010000
01000000
00010000
01000000
00000000
10000000
00000000
00100000
,
00000000
01000000
00000000
00010000
00000000
00100000
00001000
00000000
,
00010000
00001000
00010000
00002000
00000000
00000000
00000000
00000000
,
00003010
00000000
00000000
00000110
00000000
00000000
00001001
00000000
,
00000002
00000000
00000000
00000000
00000100
00000103
00000000
00001000
,
00000000
00010000
00000000
00100000
20000000
00000000
00000000
00000000
,
00000000
00000000
01000000
31000000
00000000
00010000
00000000
00001000
,
00000000
00000010
00000002
00000000
00000000
00000000
00000000
00000000
,
00000000
00000000
00000100
00000103
00000000
00001000
00000000
00010000
,
00000000
00200000
00000000
00000000
00000000
00000000
00000000
00000000
,
00300000
20020000
00000000
00000000
,
30030000
00000000
10000000
00000000
00000000
01000000
00100000
01000000
,
00000000
00010000
00000000
00001000
00000000
00000020
00000000
00000000
,
00000130
00000000
00001000
00000001
00001000
00000001
00000000
00000000
,
00000100
00000000
00000000
00000000
00001000
00000000
00000000
00001000
00000000
00000000
00001000
00000000
00010000
00000000
00000000
00000000
,
00011000
00000000
00002000
00000000
00000000
00013000
00000000
00000000
,
01000000
00000000
20000000
00000000
00000000
30010000
00000000
00000000
,
00100000
00000000
00002000
00000000
00000000
00013000
00000000
00000000
,
00100000
00000000
00020000
00000000
00000000
00031000
00000000
00000000
,
00000010
00002002
00000000
00000000
,
00003003
00000220
00000000
00000000
,
00000330
00000000
00001000
00000100
00001000
00000100
00010000
00001000
,
00010000
00001000
00100000
00000000
01100000
00000000
10000000
00000000
,
01000000
00010000
00001000
00000010
,
00000001
00000000
00001000
00000000
00000001
00001000
00000001
00000000
,
00000000
00000001
00000100
00001000
,
00010000
00100000
10000000
00010000
,
10000000
00000000
00100000
00000000
00010000
00000000
00000000
00010000
,
00000000
00010000
00000000
00010000
00001000
00000000
00000010
00000000
,
00000100
00001000
00000100
00000010
,
00000001
00000000
00001000
00000001
00001000
00000000
00000010
00000000
,
00001000
00100000
00010000
00001000
,
00100000
00010000
01000000
00100000
,
00010000
00000000
00000000
00000000
00000010
00000000
00000000
00000000
00001000
00000000
00000000
00000000
00000001
00000000
00000000
00000001
,
00000000
00000000
00000001
00000000
00001000
00000000
00000000
00001000
00000000
00000000
00001000
00000000
00000001
00000000
00000000
00000000
,
00000010
00001000
00000010
00000000
00001000
00000000
00010000
00000000
,
00100000
00010000
00100000
00000000
10000000
00000000
00010000
10000000
,
01000000
10000000
00010000
10000000
01000000
00000000
20000000
00000000
,
32000000
03002000
00003200
00000320
,
00000000
00000000
00000000
00000000
,
00000000
00000000
00000030
00001001
,
00000000
00001100
00000000
00000000
00010100
00000000
00000000
00011000
,
00000000
00202000
00000000
00000000
,
00000000
00000000
00000000
00000000
,
00000000
00000000
00000000
00303000
,
00100000
00010000
00100000
00010000
00000000
01000000
00000000
10000000
,
00000000
01000000
00000000
00010000
00000000
00100000
00001000
00000000
,
00000010
00000100
00000010
00000200
00000000
00000000
00000000
00000000
,
00000300
00000000
00001000
00000001
00000100
00000001
00001000
00000000
,
00000010
00000100
00000010
00000000
00001000
00000100
00000000
00010000
,
00000000
00001000
00000000
00100000
00000000
00010000
01000000
00000000
,
00100000
10000000
00100000
20000000
00000000
00000000
00000000
00000000
,
31000000
00000000
00000000
01100000
00000000
00000000
10010000
00000000
,
10000000
00100000
00010000
00001000
,
00000100
00001000
00010000
00100000
,
10000000
01000000
00010000
00001000
,
00000010
00000001
00000100
00000010
,
00001000
00000001
00001000
00000001
00001000
00000000
00000100
00000000
,
00010000
00001000
00010000
00000000
00001000
00000000
00010000
00000000
,
01000000
00000000
10000000
00000000
00010000
10000000
00010000
00000000
,
10000000
00100000
10000000
00000000
00100000
01000000
00100000
00000000
,
01000000
00001000
01000000
00000000
00001000
00010000
00001000
00000000
,
00010000
00000010
00010000
00000000
00000010
00000100
00000010
00000000
,
00000100
00000001
00000100
00000000
00000001
00001000
00000001
00000000
,
00000010
00000100
00000010
00000100
00000010
00000100
00001000
00000000
,
00002002
00000000
00000000
00000000
,
00000000
00000000
00000000
00003003
;

//---------------dance-double - Talkion-DDP----------------
#NOTEDATA:;
#CHARTNAME:Talkion-DDP;
#STEPSTYPE:dance-double;
#DESCRIPTION:Talkion-DDP;
#DIFFICULTY:Medium;
#METER:14;
#CREDIT:Talkion;
#NOTES:
00000000
00000000
00000000
00000000
,
00010000
00001000
00010000
00000200
00000000
00000000
00000000
00000000
00000000
00000000
00000000
00000000
00000000
00000000
00000310
00000000
,
00001000
00010000
00001000
00200000
00000000
00000000
00000000
00000000
01300000
00000000
00000000
01000000
00100000
00000000
00010000
00000000
,
10000000
00100000
10000000
02000000
00000000
00000000
00000000
00000000
00000000
00000000
00000000
00000000
00000000
00000000
03010000
00000000
,
00001000
00010000
00001000
00000100
00000000
00000001
00001000
00000100
00000000
00001000
00000100
00000010
00000001
00000000
00000000
00000000
,
00000001
00000000
00000010
00000000
00000001
00000010
00000001
00000000
,
00000010
00000000
00001000
00000000
00010000
00001000
00010000
00000000
,
00100000
00000000
01000000
00000000
00100000
01000000
00100000
00000000
,
10000000
00000000
00010000
00000000
01000000
00010000
01000000
00000000
,
00100000
00000000
01100000
00000000
00000000
01000000
01001000
00000000
,
00001000
00000000
00011000
00010000
00000000
00010000
00010100
00000000
,
00000100
00000100
00000100
00000100
,
00000100
00000100
00000200
00000000
00000000
00000000
00000300
00000000
,
00001000
00000100
00000010
00000001
00000000
00000101
00000000
00001100
,
00000000
00011000
00000000
01010000
00000000
01000000
00100000
00010000
,
10000000
00100000
10000000
02000000
00000000
00000000
00010000
00000000
,
10000000
00000000
03010000
00001000
00010000
00000100
00001100
00000000
,
00001000
00000010
00000100
00000001
00000000
00000011
00000000
00001010
,
00000000
00011000
00000000
00110000
00000000
00100000
01000000
00010000
,
00100000
00001000
00010000
00002000
00000000
00000000
00000100
00000000
,
00013000
01000000
00100000
00001000
00000100
00000010
00010000
00000000
,
00001000
00100000
00010000
00100000
00002000
00000000
00000000
00000000
00000100
00000000
00003100
00000000
00000000
00000000
00000110
00000000
,
00000000
00000000
00000101
00000000
00000000
00000000
00001001
00000000
00000001
00000010
00000100
00002000
00000000
00000000
00000000
00000000
,
00000000
00000000
00010000
00013000
00000000
00110000
00000000
01100000
,
00000000
10010000
10000000
00100000
01000000
00020000
00000000
00000000
,
00000000
00000000
00001000
00031000
00000000
00001010
00000000
00000110
,
00000000
00002002
00000000
00000000
00000000
00000000
00000000
00000000
,
00003003
00022000
00000000
00000000
,
00033000
00000000
00000000
00000000
00200000
00000000
00000000
00000000
00300000
00000000
00010000
10000000
00010000
00000000
01000000
00000000
,
00000000
01010000
00000000
00011000
00000000
00002200
00000000
00003300
,
00000001
00000100
00000010
00001000
00000100
00000020
00000000
00000000
,
00001030
00000000
00010000
00000000
00100000
00000000
00000000
01100000
00000000
00000000
01000000
00000000
00010000
10000000
00010000
10000000
,
01000000
00000000
20000000
00000000
00100000
00100000
00000000
01000000
,
01000000
00000000
30010000
00000000
00001000
00000100
00000000
00000100
,
00000010
00000000
00000002
00000000
00000010
00000010
00000000
00000100
,
00000103
00000000
00001000
00000000
00010000
01000000
00000000
01000000
,
00100000
20020000
00000000
00000000
,
30030000
00022000
00000000
00000000
,
00033000
00000000
00000001
00000001
00001000
00001000
00010000
00010000
,
10000000
10000000
01100000
00000000
10010000
00000000
10000000
01000000
,
00010000
00001000
00000000
00011000
00000000
00001100
00000000
00000101
,
00000000
00000000
00001001
00000000
00000000
00000000
00000001
00000000
00001000
00000000
00000010
00000100
00000010
00000000
00000000
00000000
,
00000010
00001000
00000100
00000010
00000001
00000200
00000000
00002300
,
00000000
00013000
00100000
01000000
00100000
00010000
00001000
00100000
,
00000000
00110000
00000000
00010000
10000000
00000000
10000000
01000000
,
00000000
01010000
00000000
00010000
00001000
00000000
00001000
00000100
,
00000010
00000100
00001000
00010000
00001000
00000010
00000000
00000110
,
00000000
00000100
00001000
00000001
00000100
00000010
00001000
00000100
,
00000010
00001000
00000000
00011000
00000000
00110000
00000000
00100000
,
01000000
00100000
00000000
00100000
10000000
01000000
00010000
00001000
,
00000000
00000000
00011000
00000000
00000000
00000000
00010000
00000000
01000000
00000000
10000000
00000000
00100000
00000000
00000000
00011000
,
00000000
00000000
00001000
00000000
00000010
00000000
00000000
00011000
00000000
00000000
00010000
00000000
00100000
00000000
01000000
00000000
,
00100000
01000000
00000000
01000000
00010000
00100000
00001000
00010000
,
00000000
00011000
00000000
00001000
00000010
00000001
00001000
00000100
,
00000001
00000000
00000100
00000000
00001000
00000000
00000001
00000000
00000100
00000000
00000010
00000000
00010000
00001000
00010000
00000000
,
00001000
00010000
00001000
00000000
00100000
00010000
00100000
00000000
01000000
10000000
01000000
00000000
20000000
00000000
00000000
00000000
,
00000000
00000000
00000000
00000000
,
00000000
00000000
00000000
00000000
30000000
00000000
10000000
00100000
,
00010000
00001000
00000010
00000001
00000100
00001000
00010000
01000000
,
10000000
00010000
00002000
00000000
00000000
00000000
00000000
00000000
,
00000000
00000000
00000000
00000000
,
00000000
00000000
00000000
00003000
,
00000001
00000010
00000001
00000100
00000000
00000110
00000000
00011000
,
00000000
01100000
00000000
10000000
01000000
00010000
10000000
00100000
,
01000000
10000000
00010000
00200000
00000000
00000000
01000000
00000000
,
00001000
00301000
00100000
00010000
00001000
00000100
00000010
00000001
,
00000100
00000100
00000100
00000000
00000100
00000010
00010000
00001000
,
00000000
00011000
00000000
00100000
00010000
00001000
00100000
01000000
,
00010000
10000000
00100000
02000000
00000000
00000000
00100000
00000000
,
03001000
00000010
00000100
00010000
00100000
01000000
00001000
00000000
,
00011000
00000000
00001000
00000010
00000100
00010000
00001000
00000000
,
00011000
00000000
00010000
00100000
01000000
00001000
00010000
00000000
,
00011000
00000000
00001000
00000010
00000001
00000100
00000010
00001000
,
00000001
00000010
00000100
00001000
00010000
00100000
01000000
10000000
,
00010000
01000000
10000000
01000000
00010000
10000000
01000000
00000000
,
10000000
01000000
00010000
00001000
00000010
00000001
00001000
00000000
,
00000001
00000100
00000010
00000100
00000001
00000100
00001000
00010000
,
00100000
01000000
00010000
01000000
00100000
01000000
00010000
10000000
,
01000000
00010000
00001000
00010000
01000000
00010000
00001000
00000100
,
00000010
00010000
00001000
00000010
00010000
00001000
00000010
00000100
,
00000001
00000001
00000100
00000100
00000010
00000010
00001000
00001000
,
00000100
00010000
00000100
00000000
00010000
00001000
00010000
00000000
00001000
00100000
00001000
00100000
00010000
00000000
00000000
00000000
,
20020000
00000000
00000000
00000000
,
00000000
00000000
00000000
30030000
;

//---------------dance-double - Talkion-EDP----------------
#NOTEDATA:;
#CHARTNAME:Talkion-EDP;
#STEPSTYPE:dance-double;
#DESCRIPTION:Talkion-EDP;
#DIFFICULTY:Hard;
#METER:17;
#CREDIT:Talkion;
#NOTES:
00000000
00000000
00000000
00000000
,
10000000
01000000
00100000
00002000
00000000
00000000
00000000
00000000
00000000
00000000
00000000
00000000
00000000
00000000
00103000
00001000
,
00010000
00000100
00001000
00000020
00000000
00000000
00000000
00000000
00000130
00000000
00000000
00000100
00000010
00000000
00001000
00000000
,
00000001
00000010
00000100
00020000
00000000
00000000
00000000
00000000
00000000
00000000
00000000
00000000
00000000
00000000
00030100
00010000
,
00001000
00010000
00000100
00000020
00000000
00000130
00001000
00000020
00000000
00000130
00000001
00000010
00000200
00000000
00000000
00000000
,
00010300
00000000
00001000
00000000
00010000
00000000
00000000
00010000
00001000
00000000
00100000
00000000
00010000
00000000
00000000
00010000
,
01000000
00100000
10000000
01000000
00010000
00001000
00000010
00000001
,
00001000
00000000
00000001
00000000
00000100
00000000
00000000
00000100
00000010
00000000
00001000
00000000
00000001
00000000
00000000
00000001
,
00000010
00001000
00010000
00100000
01000000
00010000
10000000
00010000
,
00100000
00000000
00011000
00000000
00000000
00000100
00000110
00000000
,
00000001
00000000
00000110
00000100
00000000
00000100
00001001
00000000
,
00001100
00011000
01010000
11000000
,
00010000
00100000
01000000
10000000
00020000
00000000
00000000
00000000
00000000
00000000
00000000
00000000
00000000
00000000
00000000
00000000
,
10030000
00000000
00100000
00000000
00010000
00000000
00100000
00000000
10000000
00010000
10000000
00000000
01000000
00000000
00100000
00000000
,
00001000
00000000
00010000
00000000
00000100
00000000
00001000
00000000
00000010
00000100
00000010
00000000
00001000
00000000
00000001
00000000
,
00000011
00000010
00000100
00002100
00000000
00000010
00000010
00000000
,
00013000
00001000
00000100
00000010
00000001
00000010
00000100
00001000
,
00000001
00000000
00000100
00000000
00001000
00000000
00000100
00000000
00000001
00001000
00000001
00000000
00000010
00000000
00000100
00000000
,
00010000
00000000
00001000
00000000
00100000
00000000
00010000
00000000
01000000
00100000
01000000
00000000
00010000
00000000
10000000
00000000
,
11000000
01000000
00100000
00210000
00000000
00001000
00301000
00000000
,
00010000
00000100
00001000
00000100
00010000
00000000
00000100
00001000
00000001
00001000
00000100
00000000
00001001
00000000
00000000
00000000
,
00000001
00000100
00000010
00001000
00000200
00000000
00000000
00000000
00010000
00000000
00010300
00000000
00001000
00010000
00011000
00000000
,
00000000
00000000
01100000
00000000
00000000
00000000
20020000
30030000
10000000
01000000
00100000
00002000
00000000
00000000
00000000
00000000
,
00013000
00001000
00010000
00001000
00010000
00000000
00000100
00000000
00001000
00000001
00001001
00000000
00000000
00000000
00000101
00000000
,
00000000
00000000
00000220
00000330
00000001
00000000
00000100
00000000
00001000
00000000
00010000
00000000
00100000
00000000
10000000
00000000
,
01000000
00000000
00010000
00000000
00001000
00000000
00010000
00000000
00001000
00010000
00011000
00000000
00000000
00000000
00000110
00000000
,
00000000
00002001
00000000
00000010
00000000
00000100
00000000
00000010
,
00000000
00013000
00200000
01000000
00000000
01000000
00000000
01000000
,
01000000
00000000
01300000
00000000
10000000
00000000
00010000
00000000
10000000
00000000
00100000
01000000
00100000
00000000
00010000
00000000
,
00001000
00011000
00000000
00001010
00000000
00000012
00000000
00000000
,
00001003
00000001
00000101
00000100
00000010
00002010
00000000
00000000
,
00013000
00000000
00100000
00000000
00010000
10000000
00010000
10000000
00010000
00100000
00010000
00100000
00001000
00010000
00001000
00010000
,
00000100
00010000
00000100
00010000
00001000
00000000
00000000
00000000
00000100
00000000
00000001
00000000
00000010
00000000
00000100
00000000
,
00001000
00000000
00010000
00000000
01000000
00010000
00100000
01000000
,
10000000
00000000
00100000
00000000
00010000
00001000
00000010
00001000
,
00010000
00000000
01000000
00000000
00010000
00001000
00000100
00001000
,
00010000
00000000
00011000
00001000
00000010
00000021
00000000
00001030
,
00010000
00000000
00011000
00010000
00100000
10200000
00000000
00310000
,
00001000
00000000
00011000
00011000
00000110
00000110
00011000
00011000
,
01100000
01100000
10010000
00000000
01100000
00000000
10000000
01000000
,
10000000
01000000
00010000
01000000
00100000
00010000
01000000
00001000
,
00010000
00000000
00001000
00000000
00000100
00000000
00000001
00000000
00001000
00000001
00001000
00000001
00000010
00000000
00000000
00000000
,
00000010
00000001
00000100
00000001
00000010
00000001
00000010
00001000
,
00010000
00100000
10000000
00010000
00100000
00010000
10000000
00100000
,
10000000
00100000
00010000
00100000
01000000
00010000
00100000
00001000
,
00010000
00001000
00000010
00000001
00001001
00000000
00000001
00000010
,
00001000
00000010
00000001
00000010
00001000
00010000
00001000
00000100
,
00001000
00010000
01000000
10000000
00010000
10000000
00100000
00100000
,
01000000
00000000
00010000
00000000
00100000
00000000
00001000
00010000
00001000
00000000
00010000
00001000
00010000
00000000
00000100
00000000
,
00000010
00000000
00000001
00000000
00001000
00000000
00000001
00000100
00000001
00000000
00000100
00000001
00000100
00000000
00000001
00000000
,
00000010
00000000
00001000
00000000
00010000
00000000
00001000
00000000
00100000
00000000
00010000
00000000
10000000
00100000
01000000
00100000
,
10000000
00100000
01000000
00100000
10000000
00010000
00100000
00010000
10000000
00010000
00100000
00001000
00010000
00000000
00000000
00000000
,
00011000
00001000
00000100
00000001
00000010
00000100
00000110
00000000
,
00000010
00000001
00000100
00001000
00010000
00100000
10000000
10000000
,
01000000
00000000
01000000
00000000
00100000
00000000
00100000
00000000
00010000
00000000
00010000
00000000
01000000
00001000
01000000
00001000
,
00010000
00001000
00010000
00001000
00010000
00000100
00010000
00000100
00001000
00000100
00000010
00000001
00002000
00000000
00000000
00003020
,
00000000
00000000
00000032
00000000
00000000
00002003
00000000
00000000
00003200
00000000
00000000
00000320
00000000
00000000
00020030
00000000
,
00000000
00032000
00000000
00000000
00203000
00000000
00000000
00000000
00000000
00000000
00300000
00000000
01100000
00000000
10000000
00010000
,
10000000
00010000
00100000
00000000
00001000
00010000
00001000
00010000
00000100
00000000
00001000
00000001
00001000
00000001
00000100
00000000
,
00001001
00000220
00000000
00000000
,
00000000
00000000
00000000
00000000
,
00000000
00000000
00000330
00000000
,
00000001
00000000
00001000
00000000
00000001
00000000
00000100
00000000
00001000
00010000
00001000
00000000
00010000
00000000
01000000
00000000
,
10000000
00000000
00010000
00000000
10000000
00000000
00100000
00000000
00010000
00001000
00010000
00000000
00001000
00000000
00000010
00000000
,
00000011
00000001
00001000
00001200
00000000
00010000
00010000
00000000
,
00000001
00000000
00001300
00000100
00000010
00000001
00000100
00000010
,
00001000
00000001
00001000
00000001
00000100
00000000
00000000
00000000
00000100
00000010
00000100
00000000
00000001
00000000
00001000
00000000
,
00000001
00000000
00000010
00000000
00001000
00000000
00010000
00000000
01000000
00100000
01000000
00000000
10000000
00000000
00010000
00000000
,
00110000
00100000
00001000
00012000
00000000
00000100
00003100
00000000
,
00000001
00000100
00000010
00001000
00000100
00000000
00010000
00001000
00100000
00010000
01000000
00000000
10010000
00000000
00000000
00000000
,
10000000
00000000
01000000
00000000
00010000
00000000
01000000
00000000
10000000
00000000
00010000
00100000
00010000
00000000
00100000
00001000
,
00100000
00000000
00001000
00000000
00010000
00000000
00001000
00000000
00000100
00000000
00000001
00001000
00000001
00000000
00000100
00000001
,
00000100
00000000
00000001
00000000
00000100
00000000
00001000
00000000
00000100
00000000
00000001
00000010
00000001
00000000
00001000
00000001
,
00001000
00000001
00000010
00000100
00001000
00010000
00100000
01000000
,
10000000
00010000
10000000
00010000
00100000
00010000
00100000
00010000
01000000
00000000
00001000
00010000
00001000
00000000
00000100
00000001
,
00000100
00000000
00000001
00000000
00001000
00000000
00000100
00000000
00000010
00000000
00000001
00001000
00000001
00000000
00000100
00001000
,
00000100
00000000
00001000
00000000
00010000
00000000
01000000
00000000
10000000
00100000
10000000
00100000
01000000
00010000
10000000
00000000
,
01000000
00100000
01000000
00000000
00100000
00010000
00100000
00000000
00001000
00010000
00001000
00000000
00000100
00001000
00000100
00000000
,
00000001
00000010
00000001
00000000
00000100
00000001
00000100
00000000
00000001
00000010
00000001
00000000
00000010
00001000
00000010
00000000
,
00001000
00010000
00001000
00010000
00001000
00100000
00010000
00000000
00100000
00010000
00100000
00010000
00100000
00010000
10000000
00000000
,
00100000
10000000
00010000
10000000
00100000
10000000
00010000
00000000
00100000
00001000
00010000
00001000
00100000
00001000
00010000
00000000
,
00000100
00001000
00000100
00001000
00000001
00000100
00000001
00000100
00000010
00001000
00000010
00001000
00000001
00000010
00000100
00001000
,
00000002
00000000
00000000
00000203
00000000
00000000
00002300
00000000
00000000
00003002
00000000
00000000
00000023
00000000
00000000
00002030
,
00000000
00000000
00023000
00000000
00000000
00230000
00000000
00000000
02000000
00000000
00000000
00000000
03300000
00000000
00000000
00000000
;

//---------------dance-double - Talkion-CDP----------------
#NOTEDATA:;
#CHARTNAME:Talkion-CDP;
#STEPSTYPE:dance-double;
#DESCRIPTION:Talkion-CDP;
#DIFFICULTY:Challenge;
#METER:18;
#CREDIT:Talkion;
#NOTES:
00000000
00000000
00000000
00000000
,
00000001
00000010
00001000
00020000
00000000
00000000
00000000
00000000
00000000
00000000
00000000
00000000
00000000
00000000
10030000
00010000
,
00001000
00010000
00100000
20000000
00000000
00000000
00000000
00000000
31000000
00000000
00000000
01000000
00100000
00000000
01000000
00000000
,
10000000
00100000
00010000
00002000
00000000
00000000
00000000
00000000
00000000
00000000
00000000
00000000
00000000
00000000
00003001
00001000
,
00010000
00001000
00000010
00000002
00000000
00001003
00000010
00000002
00000000
00000013
00000100
00001000
00020000
00000000
00000000
00000000
,
00032000
00000000
00000100
00000000
00000001
00000001
00000001
00000000
,
00023000
00000000
01000000
00000000
10000000
10000000
10000000
00000000
,
00032000
00000000
00003020
00000000
00000001
00000001
00000032
00000000
,
00000203
00000000
00002300
00000000
00010000
00010000
00023000
00000000
,
00130000
00000000
10010000
00000000
00000000
00010000
00011000
00000000
,
00000010
00000000
00001001
00000001
00000000
00000001
00001001
00000000
,
00011000
10010000
11000000
00110000
,
00001000
00000001
00001000
00000001
00000200
00000000
00000000
00000000
00000000
00000000
00000300
00000000
MMMMMMMM
00000000
00000000
00000000
,
00001000
00000000
00000010
00000000
00000001
00000000
00001000
00000000
00000100
00000001
00000100
00000001
00000010
00000000
00000001
00000000
,
00000010
00000000
00001000
00000000
00010000
00000000
00100000
00000000
01000000
00100000
01000000
00100000
10000000
00000000
00010000
00000000
,
00110000
00100000
00001000
00012000
00000000
00000001
00000001
00000000
,
00003010
00001000
0001MMMM
00100000
10000000
01000000
00010000
01000000
,
10000000
00000000
00100000
00000000
00010000
00000000
10000000
00000000
01000000
00010000
01000000
00010000
00100000
00000000
00010000
00000000
,
00001000
00000000
00000100
00000000
00000010
00000000
00000001
00000000
00001000
00000010
00001000
00000010
00000100
00000000
00000001
00000000
,
00001001
00001000
00000100
00000120
00000000
00001000
00001030
00000000
,
00010000
00100000
01000000
00100000
00010000
00000000
00001000
00000100
MMMM0010
00000100
00001000
00000000
00010000
00000000
0010MMMM
00000000
,
10000000
00010000
10000000
01000000
00020000
00000000
00000000
00000000
00000100
00000000
00030100
00000000
00000010
00000100
00000110
00000000
,
00000000
00000000
00001001
00000000
00000000
00000000
00000022
00000033
00001000
00000100
00000010
00002000
00000000
00000000
00000000
00000000
,
00013000
00001000
00010000
00001000
00010000
00000000
00100000
00000000
10000000
00010000
10010000
00000000
00000000
00000000
00110000
00000000
,
00000000
00000000
22000000
33000000
00010000
00000000
00001000
00000000
00000010
00000000
00000001
00000000
00001000
00000100
00001000
00000100
,
00000001
00000100
00000001
00000100
00000010
00000000
00010000
00000000
00001000
00010000
00011000
00000000
00000000
00000000
01100000
00000000
,
00000000
20020000
00000000
00000000
00000000
00000000
00000000
00000000
,
30030000
00022000
00000000
00000000
,
00033000
00000000
00000000
00000000
00001002
00000000
00000000
00000000
00000013
00000000
00000001
00000010
00000100
00000000
00001100
00000000
,
00000000
00110000
00000000
11000000
00000000
10020000
00000000
00000000
,
01030000
00100000
00001000
00000100
00000010
00000002
00000000
00000000
,
00001003
00000000
00000010
00000000
00001000
00000100
00001000
00000100
00010000
00001000
00010000
00001000
00100000
00010000
01000000
00010000
,
00100000
00010000
01000000
00100000
20000000
00000000
00000000
00000000
01000000
00000000
00000000
00000000
00100000
00000000
00100000
00000000
,
30200000
00000000
00302000
00000000
00000100
00000000
00000010
00000010
,
00003020
00000000
00020030
00000000
01000000
00000000
00001000
00001000
,
00032000
00000000
00003200
00000000
00000001
00000000
00001000
00001000
,
00002300
00020000
00000000
00000000
,
00033000
02200000
00000000
00000000
,
03300000
00000000
11000000
01010000
MMMM1100
00000101
00000011
00001010
,
0011MMMM
10100000
10010000
00000000
01100000
00000000
10000000
01000000
,
00001000
10000000
00100000
00001000
00000100
00000001
MMMMMMMM
00001001
,
MMMMMMMM
00000000
00011000
00000000
MMMMMMMM
00000000
10010000
00000000
10000000
00000000
00100000
01000000
00200000
00000000
00000000
00000000
,
10000000
10300000
01000000
00001000
10000000
00100000
00001000
00000100
,
00000010
00001000
00000001
00000010
00001000
00010000
00000010
00001000
,
00010000
00100000
01000000
10000000
20010000
00000000
31000000
01100000
,
MMMMMMMM
00011000
MMMMMMMM
00000110
00001001
00000000
00000001
00001000
,
00010000
00001000
00000001
00000010
00001000
00100000
00010000
10000000
,
00010000
01000000
00100000
00001000
00000100
00000010
00000110
00000000
,
00001001
00000001
00000100
00010000
00000100
00000001
00000100
00010000
,
00001000
00000100
00010000
01000000
00100000
01000000
01100000
00000000
,
10010000
00000000
10000000
00000000
00100000
00000000
00001000
00000000
00100000
00000000
10000000
00000000
00100000
01000000
00100000
01000000
,
00010000
00100000
00010000
00100000
00001000
00010000
00001000
00010000
00000100
00001000
00000100
00001000
00000001
00000000
00000000
00000000
,
00000011
00000010
00001000
00010000
00100000
10000000
10010000
00000000
,
10100000
00000000
00100000
00000000
00010000
00000000
00001000
00000000
00000010
00000000
00000001
00000000
00001000
00000100
00001000
00000000
,
00000001
00000100
00000001
00000000
00000100
00001000
00010000
00000000
00001000
00010000
01000000
00000000
00100000
00010000
00100000
00010000
,
01000000
00010000
01000000
00010000
00100000
00001000
00010000
00000100
00001000
00000001
00001000
00000001
00002000
00000000
00000000
00003020
,
00000000
00000000
00000032
00000000
00000000
00002003
00000000
00000000
00023000
00000000
00000000
02030000
00000000
00000000
23000000
00000000
,
00000000
30020000
00000000
00000000
02030000
00000000
00000000
00000000
00000000
00000000
00000000
00000000
03100000
00000000
10000000
01000000
,
00010000
00000000
00011000
00000000
00001000
00000010
00000001
00000000
00001001
00000000
00000001
00000100
00001000
00000000
00011000
00000000
,
00010000
00100000
10000000
00200000
02000000
00000000
00000000
00000000
00000000
00000000
00000000
00000000
00000000
00000000
00000000
00000000
,
00000000
00000000
00000000
00000000
,
00000000
00000000
03300000
MMMMMMMM
,
10000000
00000000
01000000
00000000
00001000
00000000
00000100
00000000
00010000
00001000
00010000
00001000
00000100
00000000
00000001
00000000
,
00001000
00000000
00010000
00000000
00001000
00000000
00000001
00000000
00001000
00000010
00001000
00000010
00010000
00000000
00100000
00000000
,
01100000
01000000
00010000
20010000
00000000
01000000
01000000
00000000
,
30100000
00010000
MMMM1000
00000010
00000001
00001000
00010000
00001000
,
00000001
00000010
00000001
00000010
00001000
00000000
00000000
00000000
00001000
00010000
00001000
00010000
00100000
00000000
10000000
00000000
,
00010000
00000000
10000000
00000000
01000000
00000000
00010000
00000000
00000100
00000010
00000100
00000010
00000001
00000000
00000100
00000000
,
00000110
00000010
00001000
00001002
00000000
00000010
00000010
00000000
,
00001003
00000100
00000001
00000100
00001000
00000000
00010000
00100000
1000MMMM
00100000
00010000
00000000
00001000
00000000
MMMM0100
00000000
,
00000010
00000000
00000011
00000001
00000100
00001000
00010000
01000000
,
11000000
00000000
10100000
00100000
00010000
00001000
00000010
00000001
,
00000101
00000000
00000001
00001000
00010000
00001000
00000100
00000010
,
00001000
00010000
00001000
00000000
00010000
00100000
10000000
00000000
00010000
10000000
00010000
00000000
10000000
01000000
00010000
00000000
,
00001000
00010000
00001000
00010000
00000100
00001000
00000010
00001000
00000100
00000000
00001000
00000000
00000001
00000000
00000100
00000000
,
00000010
00001000
00100000
00010000
00001000
00010000
01000000
10000000
,
00010000
00000000
01000000
00000000
00100000
00000000
10000000
00000000
00010000
10000000
00010000
10000000
01000000
00100000
00010000
00000000
,
00100000
00001000
00010000
00000000
00001000
00010000
00000100
00000000
00001000
00000010
00000100
00000000
00000010
00000100
00000001
00000000
,
00001000
00000100
00000001
00000000
00000100
00001000
00000010
00000000
00000001
00000010
00001000
00000000
00000010
00001000
00000100
00000000
,
00010000
00001000
00100000
00010000
01000000
00100000
10000000
00000000
00100000
01000000
00010000
00100000
00001000
00010000
00000100
00000000
,
00001000
00000010
00001000
00000010
00000100
00000001
00000100
00000001
00001000
00000100
00001000
00000100
00010000
00001000
00010000
00001000
,
00100000
00010000
10000000
00010000
01000000
10000000
01000000
00010000
01000000
00100000
10000000
01000000
00100000
00001000
00010000
00001000
,
00020000
00000000
00000000
00030200
00000000
00000000
00000302
00000000
00000000
00002003
00000000
00000000
00003020
00000000
00000000
00000032
,
00000000
00000000
00000203
00000000
00000000
00002300
00000000
00000000
00020000
00000000
00000000
00000000
00033000
00000000
00000000
00000000
;
