#TITLE:Quad Strike -leeium ver-;
#ARTIST:Midflight Digital Records;
#MUSIC:Quad Strike -leeium ver-.ogg;
#BANNER:Quad Strike -leeium ver-.png;
#BACKGROUND:Quad Strike -leeium ver--bg.png;
#SAMPLESTART:39.621;
#SAMPLELENGTH:15;
#OFFSET:2.012;
#BPMS:0=98,36=196,100=98,104=196,112=98,116=196,124=98,128=196,152=98,168=196,200=98,208=196,288=98,296=196;

//--------------- dance-single - Talkion-bSP----------------
#NOTES:
     dance-single:
     Talkion:
     Beginner:
     5:
     0,0,0,0,0:
0000
0000
0000
0000
,
0002
0000
0000
0003
,
2000
3000
0001
0100
,
0020
0000
0000
0030
,
0200
0000
0000
0000
0000
0300
0000
0000
0001
0000
0000
0000
1000
0000
0000
0000
,
0200
0000
0000
0300
,
0020
0030
0001
1000
,
0020
0000
0000
0030
,
0200
0000
0000
0000
0300
0100
0000
0000
,
0001
0001
0001
0000
,
1000
1000
1000
0000
,
0001
0001
0001
0000
,
0100
0000
0100
0000
,
0010
0010
0010
0000
,
1000
1000
1000
0000
,
0001
0001
0001
0000
,
0010
0000
0010
0000
,
0001
0001
0100
0000
,
1000
1000
0100
0000
,
0001
0001
1000
0000
,
0100
0000
0010
0000
,
0001
0001
0010
0000
,
1000
1000
0010
0000
,
0001
0001
1000
0000
,
0010
0000
0000
0010
0000
0000
0000
0000
,
0200
0000
0000
0000
,
0310
0000
1000
0000
,
0001
0000
0010
0000
,
0200
0000
0000
0000
,
0310
0000
0001
0000
,
1000
0000
0010
0000
,
0200
0000
0000
0000
,
0310
0000
1000
0000
,
0001
0000
0010
0000
,
0200
0000
0000
0000
,
2300
0000
0000
0000
,
3001
0001
0001
0000
,
0200
0000
0000
0000
,
0310
1000
0000
1000
,
0000
0001
0000
0001
,
0000
1000
0000
1000
,
0000
0001
0000
0001
,
0100
0000
0100
0000
,
0010
0000
1000
0000
,
0100
0000
0100
0000
,
0010
0000
0001
0000
,
0100
0000
0100
0000
,
0010
0000
0010
0000
,
1000
1000
1000
1000
,
0002
0003
2000
3000
,
1001
0000
0000
0000
,
0000
0000
0000
0000
,
0001
0000
0000
0100
0000
0000
0010
0000
,
0000
1000
0000
0000
2002
0000
0000
0000
,
0000
0000
0000
0000
,
0000
0000
0000
3003
,
0000
0001
0000
0001
,
0000
0010
0000
0010
,
0000
1000
0000
1000
,
0000
0010
0010
0010
,
0000
0001
0000
0001
,
0000
0100
0000
0100
,
0000
1000
0000
1000
,
0000
0100
0200
0300
,
0001
0000
0001
0000
,
2000
3000
0200
0300
,
0010
0000
0010
0000
,
0002
0003
0200
0300
,
0010
0000
0010
0000
,
1000
0000
1000
0000
,
0001
0001
0001
0001
,
2000
3000
0002
0003
,
1001
0000
0000
0000
,
0000
0000
0000
0000
,
1000
0000
0000
0010
0000
0000
0100
0000
,
0000
0001
0000
0000
2002
0000
0000
0000
,
0000
0000
0000
0000
,
0000
0000
0000
3003
,
0000
1001
0000
0000
0000
0000
0000
0000
;

//--------------- dance-single - Talkion-BSP----------------
#NOTES:
     dance-single:
     Talkion:
     Easy:
     10:
     0,0,0,0,0:
0000
0000
0000
0000
,
0001
0000
0000
2000
0000
0000
0000
0000
0000
0000
0000
0000
0000
0000
3100
0000
,
0010
0000
0000
0002
0000
0000
0000
0000
1003
0000
0000
0001
0000
0000
0100
0000
,
0010
0000
0000
2000
0000
0000
0000
0000
0000
0000
0000
0000
0000
0000
3001
0000
,
0010
0000
0000
0200
0000
0000
0000
0000
1300
0000
0001
0000
0100
0000
0010
0000
,
1000
0000
0000
0002
0000
0000
0000
0000
0000
0000
0000
0000
0000
0000
0013
0000
,
0100
0000
0000
2000
0000
0000
0000
0000
3002
0000
0000
0000
0203
0000
0000
0000
,
0310
0000
0000
2000
0000
0000
0000
0000
0000
0000
0000
0000
0000
0000
3001
0000
,
0010
0000
0000
0200
0000
0000
0000
0000
1300
0000
1001
0000
0000
0000
0000
0000
,
0001
0000
0101
0000
0100
0020
0000
0000
,
1030
0000
1001
0000
0001
0010
0000
0010
,
0100
0100
1000
0000
0001
2000
0000
3010
,
0200
0000
0310
2000
0000
3010
0200
0000
,
0301
0000
0011
0000
0010
0200
0000
0000
,
1300
0000
1001
0000
0001
0100
0000
0100
,
0010
0010
1000
0000
0001
0010
0000
0010
,
0100
0000
0000
0100
2000
0000
0000
0000
,
3001
0000
0110
0000
1000
0002
0000
0000
,
0013
0000
0001
0000
1000
0010
0000
0100
,
0010
0010
1000
0000
0001
0020
0000
0130
,
2000
0000
3001
0200
0000
1300
0200
0000
,
0301
0000
0110
0000
1000
0002
0000
0000
,
0103
0000
0001
0000
1000
0100
0000
0010
,
0100
0100
1000
0000
0001
0100
0000
0010
,
2020
0000
3030
1002
0000
0000
0013
0000
,
0200
0000
0000
0000
0000
0000
0000
0000
1300
0000
0000
0001
0000
0001
0000
0100
,
0110
0000
0000
0010
1000
0010
0100
0000
,
0000
0000
0000
0100
0001
0000
0000
0000
,
0020
0000
0000
0000
0000
0000
0000
0000
0031
0000
0000
1000
0000
1000
0000
0010
,
0110
0000
0000
0100
0010
0100
0010
0000
,
0000
1000
0000
0001
0010
0000
0000
0000
,
0200
0000
0000
0000
0000
0000
0000
0000
1300
0000
0000
0001
0000
0001
0000
0100
,
0110
0000
0000
0010
1000
0010
0100
0000
,
0000
0000
0000
0001
1000
0000
0000
0000
,
0100
0000
0100
0000
1000
0000
1000
0001
,
0100
0100
0001
0001
,
1000
0100
1000
0001
0100
0001
1000
0100
,
0020
0000
0000
0000
,
0031
0000
1000
0000
0010
0010
0100
0000
,
0010
0000
1000
0000
0001
0001
0010
0000
,
0001
0000
1000
0000
0010
0010
0100
0000
,
0010
0000
1000
0000
0001
0010
0100
1000
,
0001
0001
0100
0100
,
0010
0010
1000
1000
,
0001
0001
0010
0010
,
0100
0100
1000
1000
,
0002
0000
0103
0020
0000
0130
0001
0000
,
2000
0000
3100
0020
0000
0130
1000
0000
,
0001
0100
0010
1000
0001
0010
0100
1000
,
0002
0100
2003
0100
,
3001
0000
0000
0100
0000
0000
0010
0000
0000
1000
0000
0000
0001
0000
0000
0010
,
0000
0000
0100
0000
0000
1000
0000
0000
0001
0000
0000
0000
0000
0000
0000
0000
,
0101
0000
1000
0010
0000
0010
0001
0000
,
0001
0010
0000
0010
2000
0000
0000
0000
,
0000
0000
0000
0000
,
0000
0000
0000
3000
,
0001
1000
1100
0101
,
0110
1001
1010
0011
,
0001
1000
0100
0010
,
0001
1000
0000
0001
0100
0100
0020
0000
,
1030
0001
0011
1010
,
0110
1001
1100
0101
,
0001
1000
0010
0100
,
0002
0000
1000
1003
0020
0000
0130
0000
,
0010
0010
1000
1000
,
0001
0001
0010
0010
,
0100
0100
1000
1000
,
0001
0001
0100
0100
,
0020
0000
1030
0002
0000
0000
0013
0000
,
0200
0000
2300
0000
3001
1000
0010
0000
,
1010
0000
1000
0000
0001
0100
0010
1000
,
0002
0010
2003
0010
,
3001
0000
0000
0010
0000
0000
0100
0000
0000
1000
0000
0000
0001
0000
0000
0100
,
0000
0000
0010
0000
0000
1000
0000
0000
0001
0000
0000
0000
0000
0000
0000
0000
,
0011
0000
1000
0100
0000
0100
0001
0000
,
0001
0100
0000
0100
2000
0000
0000
0000
,
0000
0000
0000
0000
,
0000
0000
0000
3000
,
0000
1001
0000
0000
0000
0000
0000
0000
;

//--------------- dance-single - Talkion-DSP----------------
#NOTES:
     dance-single:
     Talkion:
     Medium:
     13:
     0,0,0,0,0:
0000
0000
0000
0000
,
1000
0100
0010
0002
0000
0000
0000
0000
0000
0000
0000
0000
0000
0000
1003
0001
,
0100
0010
1000
0002
0000
0000
0000
0000
0013
0000
0000
0100
0000
0000
1000
0000
,
0001
0100
0010
2000
0000
0000
0000
0000
0000
0000
0000
0000
0000
0000
3001
1000
,
0100
0010
0001
1000
0000
0010
0100
0001
0000
0100
0010
1000
0002
0000
0000
0000
,
0013
0000
0001
0200
0000
0000
0000
0000
0000
0000
0000
0000
0000
0000
0310
0100
,
0001
0000
1000
0200
0000
0000
0000
0000
0320
0000
0000
0000
0032
0000
0000
0000
,
1003
0000
0010
0200
0000
0000
0000
0000
0000
0000
0000
0000
0000
0000
0301
0100
,
0010
0000
1000
0001
0000
0010
0100
1000
0000
0000
1001
0000
0000
0000
0000
0000
,
1010
0000
0101
0000
0001
1000
0001
1000
,
0100
0000
0100
1000
0001
0100
0000
0100
,
0010
0010
1000
0000
0001
1000
0000
1000
,
0100
0100
1000
0001
0100
0010
0200
0000
,
0301
0000
1100
0000
1000
0001
1000
0001
,
0100
0000
0100
0001
1000
0100
0000
0100
,
0010
0010
0001
0000
1000
0001
0000
0001
,
0100
0000
0000
0010
2010
0000
0000
0000
,
3001
1000
0100
0010
0000
1000
0010
0100
,
0000
1000
0010
0100
0000
1000
0100
0001
,
1000
0100
0010
0001
1000
0010
0000
0010
,
0100
0100
0001
1000
0010
1000
0001
0010
,
0001
1000
0010
0100
0000
1000
0100
0010
,
0000
1000
0100
0010
0000
1000
0010
0001
,
1000
0010
0100
0001
1000
0100
0000
0100
,
0220
0000
0330
2002
0000
3003
0110
0000
,
0001
1000
0100
0010
0002
0000
0000
0000
1003
0020
0000
0100
0000
0100
0000
1030
,
1001
0000
0000
0001
0010
0100
0001
0100
,
0010
0001
1000
0010
0100
0000
0000
0000
,
0010
1000
0001
0020
0000
0000
0000
0000
0130
2000
0000
0001
0000
0001
0000
3100
,
0110
0000
0000
0010
0001
0100
0010
1000
,
0100
0010
0000
0010
0001
0000
0000
0000
,
1000
0010
0100
0002
0000
0000
0000
0000
1003
0200
0000
0010
0000
0010
0000
1300
,
1001
0000
0000
0001
0100
0010
0001
0010
,
0100
0000
0010
0100
0001
0000
2000
0000
,
3100
0000
0100
0000
0100
0000
0100
0010
,
0001
0001
0001
0001
,
1000
0010
0001
0010
1000
0001
0010
0100
,
2000
0000
0000
0000
,
3001
0100
0101
0001
1000
0100
1100
1000
,
0001
0100
0110
0010
1000
0100
0110
0010
,
0001
1000
1010
0010
1000
0001
0011
0010
,
0100
1000
1001
0001
0100
0110
0110
0010
,
1000
1000
0001
0001
,
0010
0010
0100
0100
,
1000
1000
0010
0010
,
0100
0100
0001
0001
,
1000
0100
1000
0001
0100
0001
1000
0100
,
0010
0001
1000
0010
1000
0001
0010
0100
,
1000
0100
0010
0001
1000
0010
0001
0010
,
1000
0001
1000
0100
0001
0100
0010
0001
,
2001
0000
0000
3010
0000
0000
0100
0000
0000
0001
0000
0000
0010
0000
0000
0100
,
0000
0000
1000
0000
0000
0010
0000
0000
0100
0000
0000
0000
0000
0000
0000
0000
,
0101
0000
0001
0100
0000
0100
1000
0000
,
1000
0010
0000
0010
0002
0000
0000
0000
,
0000
0000
0000
0000
,
0000
0000
0000
0003
,
1000
0100
0010
1000
0000
1010
0000
0011
,
0000
0101
0000
0110
0000
0010
1000
0001
,
0010
0100
0000
0001
0100
0020
0000
0031
,
1000
0010
0000
0010
1000
0001
0010
0001
,
1000
0010
0100
1000
0000
1100
0000
0101
,
0000
0011
0000
0110
0000
0100
1000
0001
,
0100
0010
0000
0002
0000
0010
0013
0000
,
1000
0010
0001
1000
0100
0001
1000
0000
,
0001
0001
1000
1000
,
0010
0010
0100
0100
,
0001
0001
0010
0010
,
0100
0100
1000
1000
,
0001
0100
0001
1000
0100
1000
0001
0100
,
0010
1000
0001
0010
0001
1000
0010
0100
,
0001
0010
0100
1000
0001
0100
1000
0001
,
1000
0100
0001
1000
0100
0010
0001
0100
,
0110
0000
0000
0010
0000
0000
1000
0000
0000
0100
0000
0000
0010
0000
0000
0001
,
0000
0000
0100
0000
0000
0010
0000
0000
1000
0000
0000
0000
0000
0000
0000
0000
,
1100
0000
1000
0100
0000
0100
0001
0000
,
0001
0010
0000
0010
2000
0000
0000
0000
,
0000
0000
0000
0000
,
0000
0000
0000
3000
,
0000
1001
0000
0000
0000
0000
0000
0000
;

//--------------- dance-single - Talkion-ESP----------------
#NOTES:
     dance-single:
     Talkion:
     Hard:
     15:
     0,0,0,0,0:
0000
0000
0000
0000
,
1000
0001
0100
0020
0000
0000
0000
0000
0000
0000
0000
0000
0000
0000
0130
0010
,
1000
0001
0010
0200
0000
0000
0000
0000
0301
0000
0000
0100
0000
0000
1000
0000
,
0001
1000
0010
0200
0000
0000
0000
0000
0000
0000
0000
0000
0000
0000
0310
0100
,
0001
1000
0100
0010
0000
0001
0100
0010
0000
0001
0010
1000
0001
0010
0100
1000
,
0001
1000
0010
0002
0000
0000
0000
0000
0000
0000
0000
0000
0000
0000
0013
1000
,
0001
0010
0100
2000
0000
0000
0000
0000
3020
0000
0000
0000
0230
0000
0000
0000
,
0301
0000
1000
0200
0000
0000
0000
0000
0000
0000
0000
0000
0000
0000
0310
0100
,
1000
0000
0001
0200
0000
0310
1000
0100
0000
0000
0220
0000
0000
0000
0330
0000
,
1001
0000
0101
0000
0100
0010
0100
0010
,
2000
0000
3100
0001
0100
0010
0000
0011
,
0001
1000
1010
0000
0010
0110
0000
0100
,
0001
0000
0010
0000
0010
0000
1000
0000
0100
0000
0100
0000
0001
1000
0100
1000
,
0001
0000
1010
0000
0010
0100
0010
0100
,
0002
0000
0013
1000
0010
0100
0000
1100
,
1000
0001
0101
0000
0100
0110
0000
0010
,
1001
0000
0000
1000
0012
0000
0000
0000
,
0103
0001
1000
0001
0010
0010
1000
0001
,
0200
0000
0310
1000
0010
0010
0001
1000
,
0001
0100
0100
1000
0010
0010
0001
1000
,
0100
0000
0010
0000
0010
0000
1000
0000
0001
0000
1000
0000
0010
0100
0010
0100
,
0001
0100
0001
1000
0100
0100
0001
1000
,
0020
0000
0130
0001
0100
0100
1000
0001
,
1000
0010
0010
0001
0100
0100
1000
0001
,
0022
0000
0033
2200
0000
3300
1001
0000
,
0001
0100
0010
1000
0200
0000
0000
0000
0301
0100
0010
0001
1000
0010
0100
0001
,
1001
0000
0000
1000
0110
0001
1000
0020
,
0032
0000
0000
0023
0000
0000
2030
0000
0000
3001
0000
0000
0010
0000
0000
0000
0100
0000
0000
0000
1000
0000
0000
0000
,
0001
1000
0010
0200
0000
0000
0000
0000
1300
0100
0010
1000
0001
0010
0100
1000
,
1001
0000
0000
0000
0000
0000
0001
0100
0001
0000
1000
0100
1000
0000
0001
0000
,
0200
0000
0010
0000
0000
0000
1300
0000
0100
0000
0000
0001
0000
0000
1000
0000
,
0001
0010
0100
0002
0000
0000
0000
0000
0103
0010
0001
1000
0010
0100
0001
1000
,
1100
0000
0000
0001
0110
1000
0001
0020
,
1030
0000
0010
0001
1001
0000
2000
0000
,
3010
0000
0010
0000
0010
0000
0100
1001
,
0010
0010
0010
0010
,
1000
0000
0001
0000
0010
0000
1000
0000
0010
0000
0001
0000
1000
0010
0100
0001
,
2000
0000
0000
0000
,
3100
1000
0001
0100
0000
0010
1000
0100
0000
0002
0000
0000
0103
0000
1000
0001
,
0010
0001
1000
0010
0000
0000
0100
0010
2000
0000
0000
0001
0000
0000
3100
0000
,
0010
0100
1000
0001
0000
0100
0010
0000
0002
0000
0000
0000
0013
0000
1000
0000
,
0001
0010
0100
1000
0001
0100
0010
1000
0001
0010
1000
0010
0001
0010
1000
0010
,
0001
0001
1000
1000
,
0002
0000
0000
0000
0010
0000
0000
0000
2003
0000
0000
0000
3010
0000
1000
0010
,
0200
0000
0010
0000
0310
0100
0001
1000
,
0100
0010
0001
1000
0010
0100
0001
1000
,
0100
0010
1000
0010
0100
1000
0001
1000
,
0010
0100
1000
0100
0010
1000
0001
0010
,
0100
0000
1000
0000
0010
0000
0100
0000
0001
1000
0100
0010
0001
1000
0010
0100
,
0001
1000
0100
0000
1000
0000
0001
0000
0100
0010
1000
0000
0001
0000
0010
0000
,
0210
0000
0000
1300
0000
0000
0010
0000
0000
0001
0000
0000
1000
0000
0000
0100
,
0000
0000
0001
0000
0000
1000
0000
0000
0100
0000
0000
0000
0000
0000
0000
0000
,
0110
0000
0010
0011
0000
0001
0101
0000
,
0100
1100
0000
1000
1020
0000
0000
0000
,
0000
0000
0000
0000
,
0000
0000
0000
0030
,
1000
0010
0100
0001
2000
0100
3002
0100
,
2003
0010
3002
0010
1003
0001
0100
0010
,
1000
0100
0010
0002
0100
0000
0100
0000
,
1003
0000
0200
0000
0301
0000
0100
0000
1000
0000
0001
0000
0100
0001
0100
0001
,
1000
0100
0010
0001
2000
0010
3002
0010
,
2003
0100
3002
0100
1003
0001
0010
0100
,
1000
0001
0100
0020
0001
0000
0001
0000
,
0130
0010
1000
0010
0100
0000
0001
0000
0002
0000
0000
0000
1000
0000
0000
0000
,
0013
0010
0100
0100
,
2000
0010
3020
0100
0230
0001
0301
1000
,
0100
0100
0010
0010
,
0002
1000
0203
0010
0302
1000
0023
0100
,
0031
1000
0010
0001
1000
0100
0001
1000
,
0001
0010
2000
3020
0032
2003
3010
0100
,
0001
0000
0010
0000
0100
0000
1000
0000
0001
0100
0010
1000
0001
0010
0100
1000
,
0001
0100
0010
0000
1000
0000
0001
0000
0010
0001
1000
0000
0010
0000
0100
0000
,
0210
0000
0000
0301
0000
0000
0010
0000
0000
1000
0000
0000
0001
0000
0000
0100
,
0000
0000
1000
0000
0000
0010
0000
0000
0100
0000
0000
0000
0000
0000
0000
0000
,
0110
0000
0010
1010
0000
1000
1100
0000
,
0100
0101
0000
0001
0022
0000
0000
0000
,
0000
0000
0000
0000
,
0000
0000
0000
0033
,
0000
1001
0000
0000
0000
0000
0000
0000
;

//--------------- dance-single - Talkion-CSP----------------
#NOTES:
     dance-single:
     Talkion:
     Challenge:
     17:
     0,0,0,0,0:
0000
0000
0000
0000
,
0001
1000
0010
0200
0000
0000
0000
0000
0000
0000
0000
0000
0000
0000
1300
0100
,
0001
1000
0100
0020
0000
0000
0000
0000
1030
0000
0000
0010
0100
0000
1000
0000
,
0001
0100
0010
2000
0000
0000
0000
0000
0000
0000
0000
0000
0000
0000
3001
1000
,
0100
0001
0100
2000
0000
3010
0100
0002
0000
0013
0100
1000
0010
0100
0001
1000
,
0100
1000
0001
0200
0000
0000
0000
0000
0000
0000
0000
0000
0000
0000
1300
0100
,
0001
1000
0100
0020
0000
0000
0000
0000
2030
0000
0000
0000
3002
0000
0000
0000
,
0103
0000
1000
0002
0000
0000
0000
0000
0000
0000
0000
0000
0000
0000
0103
0001
,
0010
0000
0001
2000
0000
3010
1000
0100
0000
0000
0220
0000
0000
0000
0330
0000
,
1001
0000
0101
0000
1001
1100
0100
0010
,
0001
0000
1000
0000
0001
0000
0100
0000
0000
0010
0000
0000
0110
0000
0000
1010
0000
0000
0000
0000
0000
1010
0000
0000
,
0100
0100
1001
0000
0011
2001
0000
3010
,
1000
0000
0010
0000
0010
0000
0001
0000
0100
0000
0100
0000
1000
0001
0100
0001
,
1000
0000
1100
0000
1001
0101
0100
0010
,
1000
0000
0001
0000
1000
0000
0100
0000
0000
0010
0000
0000
0110
0000
0000
0011
0000
0000
0000
0000
0000
0011
0000
0000
,
0100
0100
1001
0000
1010
1002
0000
0013
,
0100
0000
0000
0110
2001
0000
0000
0000
,
3010
1000
0001
0010
0100
0100
0001
1000
,
0100
0000
0010
0000
0001
0000
1000
0000
0000
0010
0000
0000
0100
0000
0000
0100
0000
0000
1000
0000
0000
0001
0000
0000
,
1000
0100
0100
0001
0010
0010
1000
0001
,
0100
0000
0010
0000
0010
0000
0001
0000
1000
0000
0100
0000
0010
0001
0010
0001
,
1000
0001
1000
0010
0100
0100
1000
0001
,
0010
0000
0100
0000
1000
0000
0001
0000
0000
0100
0000
0000
0010
0000
0000
0010
0000
0000
0001
0000
0000
1000
0000
0000
,
0001
0010
0010
1000
0100
0100
0001
1000
,
0001
0100
0010
1000
0001
0000
1000
0100
0010
0001
1000
0000
0020
0000
0000
0000
,
0130
0001
1000
0200
0010
0010
0010
0310
0001
1000
0001
0100
0010
1000
0001
0100
,
0110
0000
0000
1010
0101
1000
0001
0020
,
2030
0000
0000
3002
0000
0000
0203
0000
0000
1300
0000
0000
1001
0000
0000
0000
0001
0000
0000
0000
1000
0000
0000
0000
,
1010
0010
0100
0002
1000
1000
1000
1003
0100
1000
0001
0100
0010
1000
0001
0100
,
0110
0000
0000
0000
0000
0000
1001
0000
1000
0100
1000
0001
0100
0000
0010
0000
,
1000
0000
0110
0000
0001
0000
2000
0000
3100
0000
0000
0010
0000
0000
0001
0000
,
1001
1000
0010
0200
0001
0001
0001
0301
0100
0001
1000
0100
0010
0001
1000
0100
,
0110
0000
0000
0011
1100
0001
1000
0020
,
0031
0000
0010
1000
1001
0000
0002
0000
,
0013
0100
1000
0010
0100
0001
0010
0010
,
1000
0001
0100
0010
,
1000
0000
0010
0000
0001
0000
1000
0000
0100
0000
0001
0000
1000
0010
0100
0010
,
2000
0000
0000
0000
,
3001
1000
0100
0010
0001
1000
0010
0100
0001
1000
0100
0000
1100
0000
1000
0001
,
0100
0010
1000
0100
0010
0000
0100
1000
0001
0000
0100
0010
1000
0000
0001
0000
,
1000
0100
0010
0001
1000
0001
0100
0000
0010
0000
0100
0000
0101
0000
0001
0000
,
1000
0000
0100
0000
0001
0000
1000
0000
0001
0000
0100
0000
1000
0000
0001
0000
0100
0010
1000
0001
0100
0010
1000
0001
0010
0100
1000
0001
0010
0100
1000
0001
,
0100
0100
0010
0010
,
2000
0000
0000
0000
0100
0000
0000
0000
3002
0000
0000
0000
0103
0000
0001
0100
,
0020
0000
0000
0000
0100
0000
0000
0000
0130
0000
0010
0000
1000
0000
0001
1000
,
0100
0010
0001
1000
0001
0100
0010
1000
,
0001
0010
1000
0001
1000
0010
0001
1000
,
0010
0100
1000
0001
0010
0100
0001
1000
,
0001
0010
0001
0010
0100
1000
0100
1000
0001
0010
0100
1000
0100
0010
0001
1000
,
0010
0100
0001
1000
0100
0000
1000
0000
0100
1000
0001
0100
0010
0000
1000
0000
,
1002
0000
0000
0013
0000
0000
1000
0000
0000
0001
0000
0000
0100
0000
0000
1000
,
0000
0000
0010
0000
0000
0100
0000
0000
0001
0000
0000
0000
0000
0000
0000
0000
,
1001
0000
1100
0101
0000
0011
1010
0000
,
1100
0101
0000
0011
2010
0000
0000
0000
,
0000
0000
0000
0000
,
0000
0000
0000
0000
0000
0000
0000
0000
0000
0000
0000
0000
3001
1000
0100
0010
,
0001
1000
0010
0110
0100
0101
0001
1001
,
1000
1010
0010
0011
0001
1001
1000
0100
,
0010
0001
0100
0120
0001
0000
1000
0000
,
0031
0000
0020
0000
1030
0000
0001
0000
0010
0000
0010
0000
1000
0010
0100
0001
,
1000
0001
0010
0110
0100
1100
1000
1001
,
0001
0011
0010
1010
1000
1001
0001
0100
,
0010
1000
0100
0201
0010
0000
1000
0000
,
0310
0100
1000
0001
0100
0000
0010
0100
0001
1000
0100
0000
0020
0000
0000
0000
,
0031
1000
0100
1000
0001
1000
0010
1000
,
0002
0100
2003
0010
3002
0010
2003
0001
,
3020
1000
0230
0001
0320
0001
0230
1000
,
0310
0100
0001
1000
0100
0010
0001
1000
,
0100
0010
0010
1000
0100
0100
0010
1000
,
0001
0010
2000
3002
2003
3020
0031
0100
,
0010
0000
1000
0000
0100
0000
0010
0000
0001
1000
0010
1000
0001
1000
0100
1000
,
0001
0100
0010
1000
0001
0000
1000
0000
0001
0010
0100
1000
0001
0000
1000
0000
,
1020
0000
0000
0031
0000
0000
1000
0000
0000
0100
0000
0000
0001
0000
0000
0010
,
0000
0000
0100
0000
0000
1000
0000
0000
0001
0000
0000
0000
0000
0000
0000
0000
,
1001
0000
0011
1010
0000
1100
0101
0000
,
0011
1010
0000
1000
2002
0000
0000
0000
,
0000
0000
0000
3003
,
0001
1000
0001
1000
0100
0020
0000
0000
0000
0000
0000
0030
0000
0000
0000
0000
,
0000
1001
0000
0000
0000
0000
0000
0000
;

//--------------- dance-double - Talkion-BDP----------------
#NOTES:
     dance-double:
     Talkion:
     Easy:
     10:
     0,0,0,0,0:
00000000
00000000
00000000
00000000
,
00020000
00000000
00000000
00000000
00000000
00000000
00000000
00031000
,
02000000
00000000
03100000
10000000
,
00020000
00000000
00000000
00000000
00000000
00000000
00000000
00130000
,
00002000
00000000
00013000
00000100
,
00000020
00000000
00000000
00000000
00000000
00000000
00000000
00000031
,
00002000
00000000
00003100
00010000
,
00002000
00000000
00000000
00000000
00000000
00000000
00000000
01003000
,
00020000
00000000
00000000
00000000
10030000
10010000
00000000
00000000
,
10000000
00000000
01000000
00000000
00010000
00001000
00000000
00000000
,
01000000
00000000
00001000
00000000
00010000
00000100
00000000
00000100
,
00000020
00000000
00000031
00000000
00001000
00000010
00000000
00000010
,
00020000
00000000
00031000
00100000
00000000
00100000
00020000
00000000
,
10030000
00000000
00100000
00000000
00010000
00001000
00000000
00000000
,
00100000
00000000
00001000
00000000
00010000
00000100
00000000
00000100
,
00000020
00000000
00000031
00000000
00001000
00000100
00000000
00000100
,
00010000
00000000
00000000
00001000
02000000
00000000
00000000
00000000
,
03100000
00000000
01000000
00000000
00001000
00020000
00000000
00000000
,
01030000
00000000
00010000
00000000
00001000
00010000
00000000
00010000
,
00000020
00000000
00000130
00000000
00000010
00001000
00000000
00001000
,
00000002
00000000
00000013
00000100
00000000
00000100
00020000
00000000
,
00030010
00000000
00000100
00000000
00010000
00002000
00000000
00000000
,
00003100
00000000
00010000
00000000
00001000
01000000
00000000
01000000
,
00200000
00000000
10300000
00000000
00010000
00100000
00000000
00100000
,
00002000
00000000
00000000
00010000
00000000
00000000
00013000
00000000
,
00000200
00000000
00000000
00000000
,
00000310
00000000
00000000
00000001
00001000
00000001
00000100
00000000
,
00000000
00000000
00000000
00000100
00010000
00000000
00000000
00000000
,
02000000
00000000
00000000
00000000
,
03100000
00000000
00000000
10000000
00010000
10000000
00100000
00000000
,
00000000
01000000
00000000
00001000
00010000
00000000
00000000
00000000
,
00000200
00000000
00000000
00000000
,
00000310
00000000
00000000
00000001
00001000
00000001
00000100
00000000
,
00000000
00000000
00000000
00000100
00001000
00000000
00000000
00000000
,
00010000
00010000
00001000
00001000
,
01000000
01000000
00100000
00100000
,
10000000
00010000
00100000
00010000
10000000
00010000
00100000
00010000
,
02000000
00000000
00000000
00000000
,
03001000
00000000
00010100
00000000
00001000
00001000
00010100
00000000
,
00000010
00000000
00001001
00000000
00000010
00000010
00001001
00000000
,
00000100
00000000
00011000
00000000
00000100
00000100
00011000
00000000
,
01000000
00000000
00011000
00000000
01000000
00010000
00010000
00000000
,
10000000
10000000
00010000
00010000
,
00200000
00000000
00000000
00000000
00302000
00000000
00000000
00013000
,
00000100
00000100
00000010
00000010
,
00000002
00002003
00003020
00020030
,
00031000
00000000
01000000
00200000
00000000
01300000
00001000
00000000
,
00010000
00000000
00000100
00000020
00000000
00000031
00001000
00000000
,
00000001
00000100
00000010
00000000
00000100
00000010
00010000
00000000
,
00002000
00000010
00023000
01000000
,
00031000
00000000
00000000
01000000
00000000
00000000
00010000
00000000
00000000
10000000
00000000
00000000
01000000
00000000
00000000
00100000
,
00000000
00000000
00001000
00000000
00000000
00010000
00000000
00000000
00000100
00000000
00000000
00000000
00000000
00000000
00000000
00000000
,
00000110
00000000
00000000
00001001
00000000
00000000
00010100
00000000
,
00000000
01001000
00000000
00000000
20020000
00000000
00000000
00000000
,
00000000
00000000
00000000
00000000
,
00000000
00000000
00000000
30030000
,
10000000
01000000
00001000
00000100
,
00000010
00010000
00100000
00001000
,
00010000
00000010
00000100
00000001
,
00001000
00000200
00001300
00000000
00000001
00000001
00000200
00000000
,
00000301
00000010
00010000
00100000
,
01000000
00001000
00000100
00010000
,
00001000
01000000
00100000
10000000
,
00020000
00000000
00130000
00100000
00002000
00000000
00003000
00000000
,
00010000
00000100
00010000
00000100
,
00000010
00000010
00000001
00000001
,
00001000
00000010
00001000
00000010
,
00010000
00010000
00001000
00001000
,
02000000
00000000
03100000
20000000
00000000
30100000
01000000
00000000
,
00002000
00000000
00013000
00000200
00000000
00010300
00001000
00000000
,
00000010
00000100
00001000
00000000
00000001
00000100
00000010
00010000
,
00002000
00000100
00023000
00100000
,
00031000
00000000
00000000
00100000
00000000
00000000
00010000
00000000
00000000
10000000
00000000
00000000
00100000
00000000
00000000
01000000
,
00000000
00000000
00001000
00000000
00000000
00010000
00000000
00000000
00000010
00000000
00000000
00000000
00000000
00000000
00000000
00000000
,
00000110
00000000
00000000
00001001
00000000
00000000
00010010
00000000
,
00000000
00101000
00000000
00000000
20020000
00000000
00000000
00000000
,
00000000
00000000
00000000
00000000
,
00000000
00000000
00000000
30030000
,
00000000
10010000
00000000
00000000
00000000
00000000
00000000
00000000
;

//--------------- dance-double - Talkion-DDP----------------
#NOTES:
     dance-double:
     Talkion:
     Medium:
     12:
     0,0,0,0,0:
00000000
00000000
00000000
00000000
,
00001000
00000000
00000000
00020000
00000000
00000000
00000000
00000000
00000000
00000000
00000000
00000000
00000000
00000000
01030000
00000000
,
00010000
00000000
00000000
00002000
00000000
00000000
00000000
00000000
00003100
00000000
00000000
00000001
00000000
00000000
00001000
00000000
,
00000100
00000000
00000000
00000020
00000000
00000000
00000000
00000000
00000000
00000000
00000000
00000000
00000000
00000000
00001030
00000000
,
00010000
00000000
00000000
00100000
00000000
00000000
10000000
00000000
00010000
00000000
00100000
00000000
01000000
00000000
10000000
00000000
,
00010000
00000000
00000000
02000000
00000000
00000000
00000000
00000000
00000000
00000000
00000000
00000000
00000000
00000000
03010000
00000000
,
00001000
00000000
00000000
00000200
00000000
00000000
00000000
00000000
00000001
00000000
00000000
00000000
00000010
00000000
00000000
00000000
,
00001300
00000000
00000000
00000002
00000000
00000000
00000000
00000000
00000000
00000000
00000000
00000000
00000000
00000000
00000103
00000000
,
00001000
00000000
00000000
00020000
00000000
00000000
00000000
00000000
01030000
00000000
01100000
00000000
00000000
00000000
00000000
00000000
,
10010000
00000000
10100000
00000000
00100000
01000000
00100000
01000000
,
00001000
00000000
00010000
00000100
00000000
00000110
00000000
00000010
,
00000001
00000001
00001000
00000000
00000001
00000100
00000000
00000010
,
00010000
00010000
00001000
00100000
00010000
10000000
00020000
00000000
,
01030000
00000000
01001000
00000000
00001000
00010000
00001000
00010000
,
00000100
00000000
00000010
00000100
00000000
00010100
00000000
00010000
,
00001000
00001000
01000000
00000000
00010000
10000000
00000000
10000000
,
01000000
00000000
00000000
00010000
00002000
00000000
00000000
00000000
,
00003010
00000000
00000011
00000000
00000001
00001000
00000001
00001000
,
00000200
00000000
00000310
00001000
00000000
00001000
00010000
00001000
,
01000000
01000000
00010000
00000000
10000000
01000000
00000000
01000000
,
00100000
00100000
00001000
01000000
00001000
00100000
00001000
01000000
,
00100000
00000000
10100000
00000000
10000000
00010000
10000000
00010000
,
00200000
00000000
01300000
00010000
00000000
00010000
00001000
00010000
,
00000010
00000010
00001000
00000000
00000001
00000010
00000000
00000010
,
00000200
00000000
00000000
00010000
00000000
00000000
00000310
00000000
,
00000001
00000010
00000100
00010000
00002000
00000000
00000000
00000000
01003000
00000000
00000000
00100000
00000000
00100000
00000000
10000000
,
10010000
00000000
00000000
00010000
00100000
00001000
00020000
00000000
,
00000000
00000000
00030000
00000100
00000010
00000000
00000000
00000000
,
00000001
00001000
00000010
00000200
00000000
00000000
00000000
00000000
00000310
00000000
00000000
00010000
00000000
00010000
00000000
00001000
,
00011000
00000000
00000000
01000000
00010000
01000000
00100000
00000000
,
10000000
00020000
00000000
00130000
01000000
00000000
00000000
00000000
,
10000000
01000000
00100000
00001000
00020000
00000000
00000000
00000000
00030100
00000000
00000000
00000010
00000000
00000010
00000000
00000001
,
00001001
00000000
00000000
00001000
00000100
00010000
00002000
00000000
,
00000000
00000000
00003000
00100000
01000000
00000000
00000000
00000000
,
10000000
00000000
10000000
00000000
00100000
00000000
00100000
01000000
,
00001000
00001000
00010000
00010000
,
00000100
00000010
00000001
00001000
00000100
00000010
00000001
00000100
,
00000020
00000000
00000000
00000000
,
00010030
00000000
00011000
00000000
00001000
00001000
01000000
00000000
,
00100000
00000000
10100000
00000000
10000000
10000000
00010000
00000000
,
00100000
00000000
00101000
00000000
00001000
00001000
00010000
00000000
,
00000100
00000000
00000110
00000000
00000010
00000001
00000001
00001000
,
00000100
00000100
00010000
00010000
,
00002000
01000000
00023000
00000100
,
00031000
00001000
01000000
01000000
,
00100000
10000000
00010000
00000000
00100000
00010000
10000000
00000000
,
00100000
00100000
01000000
00001000
00001000
00010000
00000100
00000000
,
00000010
00000010
00000001
00001000
00001000
00000010
00000100
00000000
,
00000010
00010000
00001000
00100000
00010000
10000000
00100000
01000000
,
00010000
10000000
01000000
00100000
00001000
00010000
00000100
00000010
,
00000001
00000000
00000000
00001000
00000000
00000000
00000100
00000000
00000000
00010000
00000000
00000000
00001000
00000000
00000000
01000000
,
00000000
00000000
00010000
00000000
00000000
10000000
00000000
00000000
01000000
00000000
00000000
00000000
00000000
00000000
00000000
00000000
,
01100000
00000000
00100000
00001000
00000000
00001000
00000010
00000000
,
00000010
00010000
00000000
00010000
00200000
00000000
00000000
00000000
,
00000000
00000000
00000000
00000000
,
00000000
00000000
00000000
00300000
,
00001000
00010000
00000100
00000010
00000000
00000011
00000000
00001001
,
00000000
00010010
00000000
00011000
00000000
00001000
01000000
00100000
,
10000000
00010000
00000000
00200000
01000000
00000000
01000000
00000000
,
00301000
00010000
00000000
00000100
00001000
00000001
00000100
00000010
,
00010000
00001000
01000000
00100000
00000000
10100000
00000000
10010000
,
00000000
00101000
00000000
00011000
00000000
00010000
00000100
00000010
,
00000001
00001000
00000100
00000002
00000000
00000000
00000103
00000000
,
00010000
00010000
00000010
00010000
00010000
00000100
00000010
00000000
,
00001000
00001000
00010000
00010000
,
00000200
00000010
00020300
00000010
,
00031000
00001000
01000000
01000000
,
00010000
10000000
01000000
00000000
10000000
00010000
01000000
00000000
,
00010000
00100000
00100000
00001000
01000000
01000000
00001000
00010000
,
00000200
00000000
00000310
00000000
00001000
00000010
00000001
00001000
,
00000001
00000000
00000100
00000010
00010000
00001000
00100000
01000000
,
10000000
00010000
01000000
00001000
00010000
00000100
00001000
00000001
,
00000100
00000000
00000000
00000010
00000000
00000000
00010000
00000000
00000000
00001000
00000000
00000000
01000000
00000000
00000000
00100000
,
00000000
00000000
10000000
00000000
00000000
00010000
00000000
00000000
00100000
00000000
00000000
00000000
00000000
00000000
00000000
00000000
,
01100000
00000000
01000000
00010000
00000000
00010000
00000100
00000000
,
00000100
00001000
00000000
00001000
02000000
00000000
00000000
00000000
,
00000000
00000000
00000000
00000000
,
00000000
00000000
00000000
03000000
,
00000000
10010000
00000000
00000000
00000000
00000000
00000000
00000000
;

//--------------- dance-double - Talkion-EDP----------------
#NOTES:
     dance-double:
     Talkion:
     Hard:
     14:
     0,0,0,0,0:
00000000
00000000
00000000
00000000
,
00001000
00010000
00000010
00000200
00000000
00000000
00000000
00000000
00000000
00000000
00000000
00000000
00000000
00000000
00000301
00000100
,
00000010
00010000
00000100
00000020
00000000
00000000
00000000
00000000
00001030
00000000
00000000
00010000
00000000
00000000
00000100
00000000
,
00010000
00001000
01000000
00200000
00000000
00000000
00000000
00000000
00000000
00000000
00000000
00000000
00000000
00000000
10300000
00100000
,
01000000
00001000
00100000
01000000
00000000
00100000
00001000
00010000
00000000
00000010
00010000
00001000
00010000
00000010
00000100
00000001
,
00001000
00000100
00000010
00002000
00000000
00000000
00000000
00000000
00000000
00000000
00000000
00000000
00000000
00000000
00103000
00001000
,
00010000
01000000
00100000
00020000
00000000
00000000
00000000
00000000
20030000
00000000
00000000
00000000
30200000
00000000
00000000
00000000
,
00310000
00000000
00001000
00000020
00000000
00000000
00000000
00000000
00000000
00000000
00000000
00000000
00000000
00000000
00001030
00010000
,
00000100
00000000
00010000
00002000
00000000
01003000
00100000
10000000
00000000
00000000
20020000
00000000
00000000
00000000
30030000
00000000
,
11000000
00000000
00110000
00000000
00100000
00001000
00100000
00001000
,
00020000
00000000
01030000
00100000
00001000
00010000
00000000
00010010
,
00000010
00001000
00001001
00000000
00000001
00000101
00000000
00001000
,
00000010
00000000
00000010
00000000
00000001
00000000
00000100
00000000
00000100
00000000
00010000
00000000
00001000
00010000
00001000
00010000
,
00000100
00000000
00001100
00000000
00000100
00000010
00000100
00000010
,
00002000
00000000
00013000
00001000
01000000
00010000
00000000
10010000
,
10000000
00010000
00110000
00000000
00001000
00020000
00000000
00030100
,
00000010
00000000
00000000
00000001
00002000
00000000
00000000
00000000
,
00003100
00000010
00001000
00010000
00000010
00000100
00000001
00001000
,
00000100
00000010
00001000
00010000
00000100
00010000
00001000
01000000
,
00100000
10000000
00010000
00100000
01000000
00010000
00001000
01000000
,
00001000
00010000
00000100
00000010
00000100
00010000
00002000
00000000
,
00103000
01000000
00010000
00001000
01000000
00100000
10000000
00010000
,
00100000
01000000
00010000
00001000
00100000
00001000
00010000
00000010
,
00000100
00000001
00000010
00000100
00010000
00001000
01000000
00100000
,
20200000
00000000
30300000
02002000
00000000
03003000
00011000
00000000
,
00010000
00000100
00000010
00000001
00002000
00000000
00000000
00000000
00003100
00010000
00000000
00001000
00000000
00001000
00000000
01000000
,
01100000
00000000
00000000
10000000
00110000
00001000
01000000
00010000
,
00100000
00000000
00000000
01000000
00000000
00000000
00010000
00000000
00000000
00001000
00000000
00000000
00000010
00000000
00000000
00000000
00000010
00000000
00000000
00000000
00000010
00000000
00000000
00000000
,
00000001
00000010
00000100
00020000
00000000
00000000
00000000
00000000
00031000
01000000
00000000
00100000
00000000
00100000
00000000
10000000
,
10010000
00000000
00000000
00000000
00000000
00000000
00100000
00001000
00100000
00000000
00001000
00010000
00001000
00000000
00010000
00000000
,
00000200
00000000
00000010
00000000
00000000
00000000
00001300
00000000
00000001
00000000
00000000
00000100
00000000
00000000
00000010
00000000
,
00010000
00001000
01000000
00200000
00000000
00000000
00000000
00000000
01300000
00001000
00000000
00010000
00000000
00010000
00000000
00000100
,
00000110
00000000
00000000
00000001
00001010
00010000
00000100
00000010
,
00001000
00000000
00010000
00001000
01000000
00000000
00200000
00000000
,
10300000
00000000
00010000
00000000
00001000
00000000
00000001
00000001
,
00000010
00010000
00100000
00001000
,
01000000
00100000
10000000
01000000
00100000
00010000
00001000
00000100
,
00000020
00000000
00000000
00000000
,
00000031
00001000
00000100
00000010
00000000
00001000
00100000
00010000
00000000
02000000
00000000
00000000
13000000
00000000
01000000
00010000
,
10000000
01000000
00100000
00001000
00000000
00000000
00010000
00000010
00000200
00000000
00000000
00001000
00000000
00000000
00000301
00000000
,
00001000
00000010
00000100
00001000
00000000
00010000
00000100
00000000
00000010
00000000
00000000
00000000
00001000
00000000
00100000
00000000
,
00010000
10000000
00100000
01000000
00010000
00001000
00000010
00000100
00000002
00000000
00002003
00000000
00023000
00000000
20030000
00000000
,
31000000
00010000
00001000
00000100
,
00000002
00000000
00000000
00000000
00001000
00000000
00000000
00000000
00000203
00000000
00000000
00000000
00000310
00000000
00010000
00001000
,
00020000
00000000
00000100
00000000
00030100
00010000
00001000
01000000
,
00100000
01000000
00001000
00010000
01000000
00100000
00001000
00010000
,
00000010
00000010
00000001
00001000
00000100
00000100
00000001
00001000
,
00000100
00010000
00010000
01000000
00001000
00010000
00010000
01000000
,
00100000
10000000
00010000
00100000
00001000
00000010
00000001
00000100
,
00010000
01000000
00001000
00000100
00000001
00001000
00000100
00010000
,
00011000
00000000
00000000
00001000
00000000
00000000
00000010
00000000
00000000
00000001
00000000
00000000
00000100
00000000
00000000
00001000
,
00000000
00000000
00010000
00000000
00000000
01000000
00000000
00000000
10000000
00000000
00000000
00000000
00000000
00000000
00000000
00000000
,
10010000
00000000
00010000
00101000
00000000
00001000
00010100
00000000
,
00000100
00001001
00000000
00000001
00000220
00000000
00000000
00000000
,
00000000
00000000
00000000
00000000
,
00000000
00000000
00000000
00000330
,
00010000
00001000
01000000
00100000
00000000
00001000
00000010
00000100
,
00000000
00010000
01000000
00100000
00000000
00001000
00000010
00010000
,
00001000
00000010
00000001
00000200
00000010
00000000
00000010
00000000
,
00000301
00000000
00002000
00000000
00003100
00000000
00010000
00000000
00001000
00000000
01000000
00000000
00010000
01000000
00010000
01000000
,
00001000
00010000
00000010
00000100
00000000
00010000
01000000
00100000
,
00000000
00001000
00000010
00000100
00000000
00010000
01000000
00001000
,
00010000
01000000
10000000
00020000
00100000
00000000
00100000
00000000
,
10030000
00010000
00100000
00010000
10000000
00000000
00010000
00000000
00200000
00000000
00000000
00000000
00301000
00000000
00000000
00000000
,
00000010
00000010
00000001
00000001
,
00000200
00001000
00000320
00000100
,
00010030
00010000
00001000
00001000
,
01000000
00010000
10000000
01000000
00010000
00001000
00010000
00100000
,
10000000
00000000
00100000
01000000
00001000
00100000
01000000
00010000
,
00001000
00000000
00000100
00000010
00010000
00000100
00000010
00001000
,
00010000
00000010
00000100
00000010
00010000
00001000
01000000
00010000
,
00000100
00001000
01000000
00010000
10000000
01000000
00100000
00001000
,
00011000
00000000
00000000
00010000
00000000
00000000
01000000
00000000
00000000
10000000
00000000
00000000
00100000
00000000
00000000
00010000
,
00000000
00000000
00001000
00000000
00000000
00000010
00000000
00000000
00000001
00000000
00000000
00000000
00000000
00000000
00000000
00000000
,
00001001
00000000
00001000
00010100
00000000
00010000
00101000
00000000
,
00100000
10010000
00000000
10000000
02200000
00000000
00000000
00000000
,
00000000
00000000
00000000
00000000
,
00000000
00000000
00000000
03300000
,
00000000
00011000
00000000
00000000
00000000
00000000
00000000
00000000
;

//--------------- dance-double - Talkion-CDP----------------
#NOTES:
     dance-double:
     Talkion:
     Challenge:
     18:
     0,0,0,0,0:
00000000
00000000
00000000
00000000
,
00010000
00001000
01000000
00200000
00000000
00000000
00000000
00000000
00000000
00000000
00000000
00000000
00000000
00000000
00310000
00001000
,
00000010
00000100
00010000
00002000
00000000
00000000
00000000
00000000
01003000
00000000
00000000
00100000
01000000
00000000
00001000
00000000
,
00010000
00001000
00000010
00000200
00000000
00000000
00000000
00000000
00000000
00000000
00000000
00000000
00000000
00000000
00000301
00000100
,
00001000
00000001
00000100
00000020
00000000
00010030
00001000
00200000
00000000
01300000
00100000
00001000
01000000
00010000
00100000
01000000
,
00010000
00001000
00000100
00000020
00000000
00000000
00000000
00000000
00000000
00000000
00000000
00000000
00000000
00000000
00001030
00010000
,
01000000
00100000
00010000
00002000
00000000
00000000
00000000
00000000
00003020
00000000
00000000
00000000
00000032
00000000
00000000
00000000
,
00000103
00000000
00001000
00020000
00000000
00000000
00000000
00000000
00000000
00000000
00000000
00000000
00000000
00000000
01030000
00010000
,
00001000
00000000
01000000
00200000
00000000
10300000
00010000
00100000
00000000
00000000
00022000
00000000
00000000
00000000
00033000
00000000
,
00011000
00000000
00001010
00000000
00000110
00001001
00000001
00000010
,
00001000
00000000
00010000
00000000
00001000
00000000
00010000
00000000
00000000
01000000
00000000
00000000
00010000
00000000
00000000
00011000
00000000
00000000
00000000
00000000
00000000
01010000
00000000
00000000
,
00100000
00100000
10010000
00000000
10100000
02100000
00000000
03001000
,
00010000
00000000
00000100
00000000
00000100
00000000
00000001
00000000
00000010
00000000
00000010
00000000
00001000
00000010
00001000
00000010
,
00010000
00000000
00101000
00000000
01100000
10010000
10000000
00100000
,
00010000
00000000
00001000
00000000
00010000
00000000
00001000
00000000
00000000
00000100
00000000
00000000
00001000
00000000
00000000
00011000
00000000
00000000
00000000
00000000
00000000
00001100
00000000
00000000
,
00000010
00000010
00001001
00000000
00000011
00001200
00000000
00010300
,
00001000
00000000
00000000
10000000
12000000
00000000
00000000
00000000
,
03010000
00001000
00000100
00000001
00000010
00000010
00010000
00001000
,
00000010
00000000
00001000
00000000
00010000
00000000
00001000
00000000
00000000
01000000
00000000
00000000
00100000
00000000
00000000
00100000
00000000
00000000
00001000
00000000
00000000
00010000
00000000
00000000
,
00000100
00001000
00001000
00100000
00001000
00001000
00000100
00000010
,
00000001
00000000
00000100
00000000
00001000
00000000
00010000
00000000
00001000
00000000
00000010
00000000
00000100
00010000
00000100
00010000
,
00001000
00010000
00100000
10000000
01000000
01000000
00001000
00010000
,
01000000
00000000
00010000
00000000
00001000
00000000
00010000
00000000
00000000
00000010
00000000
00000000
00000100
00000000
00000000
00000100
00000000
00000000
00010000
00000000
00000000
00001000
00000000
00000000
,
00100000
00010000
00010000
00000100
00010000
00010000
00100000
00001000
,
00010000
00000100
00001000
00000001
00000100
00000000
00000001
00001000
00000100
00010000
00001000
00000000
02000000
00000000
00000000
00000000
,
03100000
01000000
00010000
00200000
00001000
00001000
00001000
00301000
00010000
00000100
00000010
00000001
00001000
00000100
00000010
00000001
,
00000101
00000000
00000000
00011000
01010000
01000000
00001000
00000200
,
00000301
00000000
00000000
00000020
00000000
00000000
00001030
00000000
00000000
00100000
00000000
00000000
00010000
00000000
00000000
00000000
10000000
00000000
00000000
00000000
00010000
00000000
00000000
00000000
,
10010000
10000000
01000000
00200000
00001000
00001000
00001000
00301000
00010000
00000010
00000100
00000001
00001000
00000010
00000100
00000001
,
00000011
00000000
00000000
00000000
00000000
00000000
00001000
00000010
00010000
00001000
00100000
00010000
10000000
00000000
00010000
00000000
,
01000000
00000000
00002000
00000000
00003100
00000000
00000010
00000000
00010000
00000000
00000000
00100000
00000000
00000000
00010000
00000000
,
00011000
00001000
00000010
00000002
00001000
00001000
00001000
00001003
00000100
00010000
00001000
01000000
00100000
10000000
00010000
10000000
,
10100000
00000000
00000000
00011000
00001010
00000010
00000100
00020000
,
01030000
00000000
00001000
00000100
00000110
00000000
00000002
00000000
,
00001003
00000010
00001000
00000001
00001000
00000010
00001000
00001000
,
00010000
01000000
10000000
00010000
,
00100000
00000000
00010000
00000000
00001000
00000000
00100000
00000000
00010000
00000000
00001000
00000000
00000010
00000100
00001000
00000100
,
00000020
00000000
00000000
00000000
,
00000031
00000100
00000010
00010000
00001000
01000000
00100000
10000000
00010000
00100000
01000000
00000000
11000000
00000000
10000000
00100000
,
01000000
00001000
00010000
00000010
00000100
00000000
00010000
00000100
00000010
00000000
00001000
00000001
00000010
00000000
00000100
00000000
,
00010000
00001000
01000000
00100000
01000000
00001000
00010000
00000000
00000100
00000000
00000010
00000000
00000011
00000000
00000001
00000000
,
00001000
00000000
00000010
00000000
00000100
00000000
00001000
00000000
01000000
00000000
00100000
00000000
00010000
00000000
00001000
00000000
00100000
00010000
10000000
00100000
01000000
00010000
10000000
00100000
01000000
00001000
00010000
00000010
00000100
00000001
00001000
00000100
,
00000010
00001000
00010000
00100000
,
20000000
00000000
00000000
00000000
00100000
00000000
00000000
00000000
30020000
00000000
00000000
00000000
00130000
00000000
00001000
00010000
,
00000020
00000000
00000000
00000000
00000100
00000000
00000000
00000000
00000130
00000000
00000010
00000000
00010000
00000000
00001000
00010000
,
00000100
00000010
00000001
00001000
00000010
00000100
00000001
00001000
,
00000100
00010000
01000000
00100000
00001000
00000010
00001000
00010000
,
00100000
00010000
00001000
00100000
01000000
10000000
00010000
00100000
,
00001000
00010000
00000100
00010000
00001000
00010000
00000100
00001000
00000001
00000100
00000010
00010000
00001000
01000000
00100000
10000000
,
00010000
00100000
01000000
00010000
00001000
00000000
00010000
00000000
00001000
00010000
01000000
00100000
00010000
00000000
01000000
00000000
,
00012000
00000000
00000000
00003010
00000000
00000000
00000001
00000000
00000000
00000100
00000000
00000000
00001000
00000000
00000000
00010000
,
00000000
00000000
01000000
00000000
00000000
10000000
00000000
00000000
00010000
00000000
00000000
00000000
00000000
00000000
00000000
00000000
,
00001001
00000000
00000011
00001010
00000000
00011000
00110000
00000000
,
10100000
10010000
00000000
00101000
00021000
00000000
00000000
00000000
,
00000000
00000000
00000000
00000000
,
00000000
00000000
00000000
00000000
00000000
00000000
00000000
00000000
00000000
00000000
00000000
00000000
00030100
00001000
00000010
00000100
,
00000001
00001000
00000100
00010000
01000000
00001000
00000010
00010000
,
01000000
00000000
00100000
00000000
01000000
00000000
00100000
00000000
00000000
00001000
00000000
00000000
00000010
00000000
00000000
00010000
00000000
00000000
00100000
00000000
00000000
00001000
00000000
00000000
,
01000000
00100000
00001000
00000020
00000001
00000000
00001000
00000000
,
00000031
00000000
00000010
00000000
00010000
00000000
00000100
00000000
00000010
00000000
00001000
00000000
00100000
00010000
01000000
00100000
,
10000000
00010000
00100000
00001000
00000010
00010000
01000000
00001000
,
00000010
00000000
00000100
00000000
00000010
00000000
00000100
00000000
00000000
00010000
00000000
00000000
01000000
00000000
00000000
00001000
00000000
00000000
00000100
00000000
00000000
00010000
00000000
00000000
,
00000010
00000100
00010000
02000000
10000000
00000000
00100000
00000000
,
03001000
00010000
00000100
00000010
00001000
00000000
00010000
00001000
00100000
01000000
00010000
00000000
00002000
00000000
00000000
00000000
,
00003010
00000001
00001000
00000001
00000100
00001000
00010000
00100000
,
20000000
00100000
30020000
10000000
02030000
00010000
03002000
01000000
,
00013000
00001000
00000010
00000001
00001000
00000100
00010000
00001000
,
01000000
10000000
01000000
00001000
00100000
10000000
00100000
00001000
,
00010000
00000100
00000100
00000001
00000010
00000010
00010000
00001000
,
01000000
10000000
00020000
00230000
20300000
30010000
00100000
00001000
,
00010000
00000100
00001000
00000000
00000001
00001000
00000100
00000000
00001000
00000100
00000010
00000001
00001000
00000010
00000100
00000001
,
00001000
00000100
00000010
00001000
00010000
00000000
00001000
00000000
00010000
00001000
00000010
00000100
00001000
00000000
00000001
00000000
,
00000200
00000000
00000000
00001300
00000000
00000000
00010000
00000000
00000000
00100000
00000000
00000000
10000000
00000000
00000000
01000000
,
00000000
00000000
00010000
00000000
00000000
00001000
00000000
00000000
00000010
00000000
00000000
00000000
00000000
00000000
00000000
00000000
,
00001001
00000000
00000101
00001100
00000000
00011000
01010000
00000000
,
11000000
10010000
00000000
01000000
02002000
00000000
00000000
00000000
,
00000000
00000000
00000000
03003000
,
00001000
00010000
00001000
00010000
00000100
00002000
00000000
00000000
00000000
00000000
00000000
00000000
00000000
00003000
00000000
00000000
,
00000000
00001001
00000000
00000000
00000000
00000000
00000000
00000000
;
