#VERSION:0.83;
#TITLE:Quad Strike -fz ver-;
#ARTIST:Midflight Digital Records;
#BANNER:Quad Strike -fz ver-.png;
#BACKGROUND:Quad Strike -fz ver--bg.png;
#JACKET:Quad Strike -fz ver--jacket.png;
#MUSIC:Quad Strike -fz ver-.ogg;
#OFFSET:-0.081;
#SAMPLESTART:39.681;
#SAMPLELENGTH:15;
#BPMS:0=100,34=200,98=100,102=200,110=100,114=200,122=100,126=200,151=100,200=200;
#STOPS:150=2.1,199=5.4,263.75=0.3;
#TIMESIGNATURES:0=4=4,32=2=4,34=4=4,150=1=4,151=4=4,199=1=4,200=4=4,264=3=4,267=4=4;

//---------------dance-single - Marten-ESP----------------
#NOTEDATA:;
#CHARTNAME:Marten-ESP;
#STEPSTYPE:dance-single;
#DESCRIPTION:Marten-ESP;
#DIFFICULTY:Hard;
#METER:14;
#RADARVALUES:0.598181,0.746864,0.386517,0.241573,0.390543,520,472,48,30,0,0,0,0,0,0.598181,0.746864,0.386517,0.241573,0.390543,520,472,48,30,0,0,0,0,0;
#CREDIT:Marten;
#NOTES:
0000
0000
0000
0000
,
0000
0000
0000
0000
,
0000
0000
0000
0000
,
0000
0000
0000
0000
,
0012
0000
0000
2003
,
3020
0000
0230
0302
,
2003
0000
0000
0000
,
3001
0100
0001
1000
0100
0010
0100
1000
0001
0100
0001
1000
0001
0010
0100
0010
,
0100
1000
0001
1000
0001
0010
0100
1000
0001
0000
0010
0000
1000
0000
0010
0000
,
0000
0011
0000
1010
0000
1001
0000
0110
,
0100
0001
1000
0100
0010
0100
1000
0020
,
0100
0000
0001
0000
1030
0100
0010
0001
,
1000
0010
1000
0000
0001
0000
0001
0000
1000
0000
0100
0000
0001
0000
0100
0000
,
0000
1100
0000
0101
0000
0110
0000
1001
,
0001
0100
1000
0100
0010
1000
0000
0002
,
0010
0000
1000
0000
0103
0001
0010
1000
,
0010
0001
0010
0000
0100
0000
0100
0000
1000
0000
0010
0000
0100
0000
0010
0000
,
0000
1010
0000
0101
0000
1100
0000
0011
,
0001
0010
0100
0001
0100
1000
0010
0200
,
0001
0000
1000
0000
0310
1000
0001
0020
,
1030
0020
0031
0020
0130
1000
0001
0100
,
0000
0101
0000
1010
0000
0011
0000
1100
,
0100
0010
1000
0010
0001
0100
0010
0200
,
0001
0000
0000
0000
1000
0000
0000
0000
0310
1000
0010
1000
0010
0000
0100
0001
,
0100
0001
0100
0000
0001
0000
0000
0000
1000
0100
0010
0001
2000
0000
0000
0000
,
3010
0010
0000
1010
0000
0101
0000
0001
1000
0000
0010
0000
0100
0000
1000
0000
,
0100
0010
0100
1000
0100
0001
0010
0100
,
0001
0000
0100
0000
0010
0000
0010
0000
0001
0100
0010
2000
0000
0000
0000
0000
,
3100
0100
0000
1100
0000
0011
0000
1000
0100
0000
0001
0000
0100
0000
0010
0000
,
0100
1000
0100
0010
0001
0100
1000
0100
,
0001
0000
0001
0000
1000
0000
0010
0000
0100
0001
1000
0020
0000
0000
0000
0000
,
1030
1000
0000
1001
0000
0110
0000
0100
0001
0000
0010
0000
1000
0000
0010
0000
,
0001
0100
0010
0001
0010
1000
0001
0100
,
0010
0010
1000
0001
0010
0001
1000
0100
,
0000
1100
0000
0101
0000
1010
0000
0011
,
0000
0001
0100
0010
0100
0000
0001
1000
,
0000
0110
0000
2002
0000
0000
0000
0000
,
0000
0000
0000
0000
3003
0000
0000
0000
0020
0000
0000
0000
1030
0100
0010
0001
,
0100
0000
0000
0000
0100
0000
0000
0000
0100
0000
0001
0010
0001
0100
0010
1000
,
0100
0000
0000
0000
0110
0000
0000
0001
0010
0000
0100
0000
1000
0010
0100
0001
,
0100
0000
0000
0000
0100
0000
0000
0000
0100
0000
0001
1000
0001
0010
0100
1000
,
0000
0010
1000
0010
0000
0100
0001
1000
0100
0010
0001
1000
0010
0000
1000
0000
,
1010
0000
0100
0001
0000
1000
0100
0000
0110
0000
0010
0001
1000
0001
0100
0000
,
0101
0000
0010
1000
0001
0000
1000
0100
0000
0010
0100
0000
1000
0000
1000
0000
,
1100
0000
0010
0001
1000
0001
0010
0000
0011
0000
0001
0100
0010
0000
0010
0000
,
1001
0000
0001
0100
0001
0010
0100
0000
1000
0010
0100
0000
0001
0000
0100
0010
,
0100
0000
0001
1000
0000
1000
0000
0100
0010
0100
1000
1000
0001
0000
0100
0010
,
0100
0000
0001
0000
1000
0100
0010
0001
1000
0010
0100
0100
0001
0000
0100
0001
,
1000
0000
0100
0010
0000
0010
0000
0001
0010
0010
0100
0010
0001
0000
0100
0000
,
0010
1000
0001
1000
0100
1000
0010
0100
0001
1000
0001
0010
0200
0000
0000
0000
,
1300
0010
0001
0010
0000
1010
0000
0011
,
0000
1100
0000
0101
0001
0010
0100
0001
,
0100
0010
0000
0200
1000
0000
0001
0000
,
0310
0001
1000
0020
0130
0020
0031
0020
,
1030
0100
0010
0100
0000
1100
0000
0011
,
0000
0101
0000
1010
1000
0010
0001
0010
,
0100
0001
0000
0020
0100
0000
1000
0000
,
0031
0010
0001
0010
0001
0000
1000
0100
1000
0100
1000
0000
0010
0000
0000
0000
,
2001
0010
0001
0100
,
0001
0000
3010
0000
0100
0001
1000
0001
,
0021
0100
1000
0001
,
0100
0000
0031
1000
0010
0010
0100
0010
,
0210
1000
0001
0010
,
0001
0000
1300
0000
0100
0001
1000
1000
,
0001
0100
0001
0100
1000
0100
1000
0100
,
0001
1000
0001
1000
0100
0000
0010
0000
0001
1000
0001
1000
0010
0000
0100
0000
,
2002
3003
0000
0000
;

//---------------dance-double - Kekkle-EDP----------------
#NOTEDATA:;
#CHARTNAME:Kekkle-EDP;
#STEPSTYPE:dance-double;
#DESCRIPTION:Kekkle-EDP;
#DIFFICULTY:Hard;
#METER:14;
#RADARVALUES:0.608534,0.990651,0.064420,0.177154,0.471068,529,521,8,22,0,0,0,0,0,0.608534,0.990651,0.064420,0.177154,0.471068,529,521,8,22,0,0,0,0,0;
#CREDIT:Kekkle;
#NOTES:
// measure 0
00000000
00000000
00000000
00000000
,  // measure 1
00000000
00000000
00000000
00000000
,  // measure 2
00000000
00000000
00000000
00000000
,  // measure 3
00000000
00000000
00000000
00000000
,  // measure 4
20000000
00000000
00000000
30020000
,  // measure 5
00230000
00000000
00302000
00003200
,  // measure 6
00000320
00000000
00000000
00000000
,  // measure 7
00001030
00000001
00000100
00000001
00001000
00000100
00001000
00000100
00010000
00001000
00010000
00100000
00010000
00001000
01000000
00010000
,  // measure 8
10000000
01000000
10000000
01000000
00100000
00010000
00100000
01000000
10000000
00000000
01000000
00000000
10000000
00000000
00000000
00000000
,  // measure 9
00010000
01000000
00010000
00000000
10000000
01000000
00010000
00001000
,  // measure 10
00010000
01000000
00100000
00000000
00001000
00010000
00000100
00000000
,  // measure 11
00001000
00000010
00000100
00000000
00001000
00010000
00001000
00000100
,  // measure 12
00000010
00010000
00001000
00000000
01000000
00010000
00100000
00000000
,  // measure 13
01000000
10000000
00010000
00000000
01000000
00001000
00010000
01000000
,  // measure 14
00100000
00001000
00010000
00000000
00000100
00001000
00000001
00000000
,  // measure 15
00000100
00000010
00001000
00000000
00000001
00000100
00001000
00010000
,  // measure 16
00100000
00010000
00001000
00000000
01000000
00010000
00100000
01000000
,  // measure 17
10000000
01000000
00100000
00000000
00001000
00010000
00000100
00000010
,  // measure 18
00000100
00001000
00000100
00000000
00000010
00000000
00000001
00000000
00001000
00000000
00000100
00000000
00010000
00000000
00001000
00000000
,  // measure 19
00000100
00000010
00010000
00000000
00001000
01000000
00100000
00010000
,  // measure 20
00100000
01000000
00100000
00000000
10000000
00000000
01000000
00000000
00010000
00000000
00001000
00000000
00010000
00000000
01000000
00000000
,  // measure 21
00010000
00001000
00000100
00000000
00000010
00001000
00000001
00000010
,  // measure 22
00000100
00001000
00000100
00000000
00010000
00000000
00001000
00000000
00010000
00000000
01000000
00000000
00010000
00000000
00001000
00000000
,  // measure 23
01000000
00010000
10000000
00000000
00100000
00100000
01000000
00001000
,  // measure 24
00001000
00010000
00000100
00000100
00000020
00000001
00000001
00000031
,  // measure 25
00000001
00001000
00000100
00010000
00000000
00010000
00000000
00001000
01000000
00000000
00100000
00000000
10000000
00000000
00100000
00000000
,  // measure 26
01000000
00010000
00100000
00001000
00010000
01000000
00100000
00010000
,  // measure 27
10000000
00100000
10000000
00000000
00010000
00000000
01000000
00000000
00002000
00000000
00000000
00023000
00000000
00000000
00032000
00000000
,  // measure 28
01003000
00010000
10000000
01000000
00000000
01000000
00000000
00100000
00001000
00000000
00010000
00000000
00000100
00000000
00010000
00000000
,  // measure 29
00001000
00000100
00000001
00000010
00000100
00000010
00000001
00001000
,  // measure 30
00000010
00000100
00000010
00000000
00001000
00000000
00000100
00000000
00010000
00001000
00010000
00002000
00000000
00000000
01003000
00000000
,  // measure 31
00010000
10000000
01000000
00100000
00000000
00100000
00000000
00001000
00010000
00000000
00000100
00000000
00001000
00000000
00000100
00000000
,  // measure 32
00010000
00000010
00000100
00001000
00000100
00000001
00000010
00000100
,  // measure 33
00000010
00000001
00000010
00000000
00000100
00000000
00001000
00000000
00000100
00000000
00000010
00000000
00000001
00000000
00000100
00000000
,  // measure 34
00001000
00010000
00000000
00011000
00000000
01001000
00000000
10100000
,  // measure 35
00000000
10000000
01000000
00010000
01000000
00000000
00100000
00001000
,  // measure 36
00000000
00010000
00000100
00000010
00001000
00000010
00000001
00000100
,  // measure 37
00001000
00000000
00010000
00000000
01000000
00000000
10000000
00000000
00020000
00000000
00000000
00000000
10030000
00100000
01000000
00010000
,  // measure 38
00000000
00000000
00000000
00000000
00000000
00000000
00000000
00000000
00000000
00000000
00001000
00000010
00001000
00000010
00000100
00000001
,  // measure 39
00000000
00000000
00000000
00000000
00000011
00000000
00000000
00001001
00000000
00000000
00001100
00000000
00000100
00010000
00001000
01000000
,  // measure 40
00000000
00000000
00000000
00000000
00000000
00000000
00000000
00000000
00000000
00000000
00010000
01000000
00010000
10000000
01000000
00100000
,  // measure 41
00000000
01000000
00010000
00001000
00000000
00010000
00001000
00000100
00001000
00010000
00000010
00000100
00000001
00001000
00000001
00000100
,  // measure 42
00000000
00001000
00010000
00100000
00000000
10000000
00000000
00000000
10010000
00000000
00010000
00100000
00001000
00100000
00010000
01000000
,  // measure 43
00000000
10000000
01000000
00000000
00001000
00010000
00001000
01000000
00000000
00000000
00001000
00000000
00010000
00000100
00000010
00000001
,  // measure 44
00000000
00000100
00001000
00000000
00000100
00000000
00000010
00000000
00010000
00000000
00001000
01000000
00100000
01000000
00010000
10000000
,  // measure 45
00000000
01000000
00010000
01000000
00010000
00001000
00010000
00001000
00000100
00000010
00000100
00000010
00001000
00000001
00000100
00000100
,  // measure 46
00001000
00000000
00010000
00000000
00001000
00000000
02000000
00000000
00000000
00000000
03010000
00000000
10000000
00000000
00010000
00000000
10000000
00100000
10000000
00000000
00010000
00000000
01000000
00000000
00100000
00000000
10000000
00000000
00010000
00000000
00010000
00000000
,  // measure 47
00100000
00000000
00001000
00000000
00010000
00000000
00000200
00000000
00000000
00000000
00001300
00000000
00000001
00000000
00000100
00000000
00000010
00001000
00000010
00000000
00000100
00000000
00000001
00000000
00001000
00000000
00000100
00000000
00010000
00000000
00010000
00000000
,  // measure 48
00001000
00000000
01000000
00000000
00001000
00000000
00200000
00000000
00000000
00000000
01300000
00000000
10000000
00000000
00010000
00000000
01000000
00100000
01000000
00000000
00010000
00000000
10000000
00000000
01000000
00000000
00010000
00000000
01000000
00000000
01000000
00000000
,  // measure 49
00010000
00000000
00001000
00000000
00010000
00000000
00010000
00000000
00000010
00000000
00001000
00000000
00000010
00000000
00000100
00000000
00000001
00001000
00000001
00001000
00000001
00001000
00000001
00001000
00000001
00000000
00000000
00000000
00000000
00000000
00000000
00000000
,  // measure 50
10000000
01000000
00010000
00001000
00010000
00100000
01000000
00010000
,  // measure 51
10000000
00000000
01000000
00000000
00100000
00000000
00010000
00000000
00100000
01000000
00100000
00000000
01000000
00000000
10000000
00000000
,  // measure 52
00010000
01000000
00001000
00020000
00000100
00000000
00001000
00000000
,  // measure 53
00030100
00000010
00000001
00000100
00001000
00010000
00001000
00010000
,  // measure 54
00100000
10000000
01000000
00100000
00001000
00010000
00100000
10000000
,  // measure 55
01000000
00000000
00010000
00000000
00001000
00000000
00000010
00000000
00000100
00001000
00000100
00000000
00010000
00000000
00001000
00000000
,  // measure 56
00000100
00000001
00000010
00000200
00001000
00000000
00000010
00000000
,  // measure 57
00001300
00000001
00000001
00000100
00001000
00001000
00010000
00001000
,  // measure 58
02000000
00010000
10000000
00010000
,  // measure 59
03100000
00000000
10000000
00000000
01000000
00000000
00100000
00000000
00010000
10000000
00010000
00000000
01000000
00000000
00001000
00000000
,  // measure 60
00020000
00000100
00001000
00000100
,  // measure 61
00030010
00000000
00001000
00000000
00000001
00000000
00000100
00000000
00000010
00001000
00000010
00000000
00010000
00000000
00001000
00000000
,  // measure 62
00020000
00100000
00001000
00100000
,  // measure 63
00031000
00000000
01000000
00000000
00100000
00000000
10000000
00000000
01000000
00100000
01000000
00000000
10000000
00000000
00010000
00000000
,  // measure 64
00100000
01000000
00100000
01000000
00010000
00001000
00010000
00001000
,  // measure 65
00000010
00000100
00000010
00000100
00000001
00000100
00010000
00001000
,  // measure 66
00022000
00000000
00033000
00000000
;

//---------------dance-single - Marten-CSP----------------
#NOTEDATA:;
#CHARTNAME:Marten-CSP;
#STEPSTYPE:dance-single;
#DESCRIPTION:Marten-CSP;
#DIFFICULTY:Challenge;
#METER:18;
#RADARVALUES:0.752328,1.226990,0.418727,0.281835,0.748877,654,602,52,35,0,0,0,0,0,0.752328,1.226990,0.418727,0.281835,0.748877,654,602,52,35,0,0,0,0,0;
#CREDIT:Marten;
#NOTES:
0000
0000
0000
0000
,
0000
0000
0000
0000
,
0000
0000
0000
0000
,
0000
0000
0000
0000
,
2010
0000
0000
3002
,
0023
0000
0230
2300
,
3002
0000
0000
0000
,
1003
0100
0010
0100
0001
0100
1000
0001
0100
1000
0100
0010
0100
1000
0001
0010
,
1000
0010
1000
0010
0100
0010
0100
0010
1000
0001
1000
0001
0100
0001
0100
0001
1000
0000
0000
0000
0100
0000
0000
0000
0001
0000
0000
0000
0101
0000
0000
0000
,
0000
1100
0000
1010
0000
1001
0000
0101
,
0001
1000
0100
0100
1000
0010
0100
0002
,
0100
0000
0013
0000
0001
0100
1000
0100
,
0001
0010
0001
0000
0100
0000
0100
0000
0001
0000
0100
0000
1000
0000
1100
0000
,
0000
0101
0000
0011
0000
1001
0000
1100
,
1000
0001
0100
0100
0001
0010
0100
2000
,
0100
0000
3010
0000
1000
0001
0010
0010
,
0100
0010
0100
0000
1000
0000
1000
0000
1010
0000
0010
0000
0100
0000
0001
0000
,
0100
0010
0001
1000
0100
0010
0100
0001
,
0100
0010
0001
0010
0100
0001
0010
0200
,
1000
0000
0000
0000
0301
0000
0000
0000
0100
0000
1000
0010
1000
0000
0020
0000
,
0001
0230
1000
0320
1030
0100
0010
1000
,
0010
0100
1000
0010
0100
1000
0001
0010
,
1000
0100
0010
1000
0010
0001
1000
0020
,
0001
0000
0000
0000
1030
0000
0000
0000
0001
0010
0100
1000
0001
0000
1000
0010
,
0100
0001
1000
0000
0002
0000
0000
0000
1003
0100
0010
1000
0020
0000
0030
0000
,
0011
0011
0000
1100
0000
0101
0000
0010
0100
0000
0001
0100
0001
0000
1000
0010
,
1000
0000
0001
0010
0001
0000
1000
0100
1000
0000
0010
0100
0010
0000
1000
0001
,
1000
0001
0100
0000
0010
0000
0100
0000
0001
0100
0010
0002
0000
0000
0003
0000
,
1010
1010
0000
0101
0000
1100
0000
0010
0001
0000
0100
0000
0101
0000
0010
0000
,
1000
0000
0100
0000
1100
0000
1000
0000
0001
0000
0100
0000
0110
0000
0010
1000
,
0001
1000
0100
0000
0010
0000
0010
0000
0001
0010
1000
0002
0000
0000
0003
0000
,
1100
1100
0000
0101
0000
1010
0000
0001
0010
0000
0001
1000
0100
0000
1000
0001
,
0100
0000
0001
1000
0010
0000
1000
0001
0010
0000
0100
1000
0001
0000
0100
0010
,
0100
0010
0100
0000
0001
0000
0001
0000
1000
0000
0010
0000
0001
0000
0011
0000
,
0000
1010
0000
1100
0000
0101
0000
1001
,
0000
0001
0010
0100
1000
0100
0001
0100
,
1000
0000
0010
0000
0001
0000
0010
0000
1000
0100
0010
0100
1000
0001
1000
0010
,
0100
0001
0100
0010
1000
0001
0010
0001
2000
0000
0000
0000
3001
0100
0010
2000
,
0010
0000
0000
0000
0010
0000
0000
0000
3010
0000
1000
0100
1000
0100
0010
0002
,
0010
0000
0003
0000
0021
0000
0030
0002
0100
0000
2003
0000
3001
0100
0010
2000
,
0100
0000
0000
0000
0100
0000
0000
0000
0100
0000
3001
0100
0001
0010
0100
2000
,
0000
3010
1000
0020
0000
0130
0001
1000
0100
0010
0001
0010
0100
0000
1000
0000
,
1010
0000
0010
0100
0000
0001
1000
0000
1001
0000
0001
0100
0001
0100
0010
0000
,
0110
0000
0100
0001
1000
0000
0100
0001
0100
1000
0001
0000
0100
0000
0100
0000
,
0110
0000
0010
1000
0000
0001
1000
0000
1001
0000
1000
0000
0100
0000
1000
0000
,
0010
0000
0100
0000
0010
0000
0100
0000
0001
0010
0001
0010
0100
1000
0100
1000
0001
0100
0001
0100
0010
1000
0010
1000
0001
0000
1000
0000
0001
0000
1000
0000
,
1010
0000
0000
0000
1000
0000
0001
0000
0000
0000
0001
0000
0000
0000
0010
0001
0010
0000
0100
0000
1000
0000
1000
0000
0001
0000
0100
0000
0010
0000
0000
0000
,
0110
0000
0000
0000
0010
0000
1000
0000
0001
0000
0010
0000
0100
0000
0100
0000
1000
0001
1000
0000
0010
0000
0010
0000
0100
0000
0001
0000
1000
0000
0000
0000
,
1001
0000
0000
0000
1000
0000
0100
0000
0000
0000
0100
0000
0010
0000
0100
0000
1000
0010
1000
0000
0001
0000
0001
0000
1000
0000
0010
0000
0100
0000
0001
0000
,
1000
0100
0010
0001
0010
0100
1000
0001
1000
0100
1000
0100
0010
0001
0010
0001
1000
0010
0100
0001
0100
0010
1000
0001
2000
0000
0000
0000
3001
0010
0100
1000
,
0001
0100
0010
0011
0000
1010
0000
1001
,
0000
0011
0000
1100
1000
0010
0100
0100
,
0001
0010
0100
0002
0100
0000
1003
0000
,
0010
0001
0100
0020
0001
0230
1000
0320
,
1030
0100
0010
1010
0000
0011
0000
1001
,
0000
1010
0000
0101
0001
0010
0100
0100
,
1000
0010
0100
2000
0100
0000
3001
0000
,
0010
1000
0001
0010
0100
0000
0010
0001
1000
0010
0100
0000
0002
0000
0000
0000
,
1003
0100
0010
0100
1000
0010
0100
0010
,
1000
0001
0010
0100
0010
0001
0100
0010
,
0001
0010
0100
0001
1000
0100
0001
0100
,
1000
0010
0001
0010
1000
0001
0010
1000
,
0010
0001
0010
0001
1000
0001
1000
0001
0100
0010
1000
0010
0100
0001
1000
0001
,
0010
0100
1000
0001
1000
0100
0010
0001
1000
0000
0010
0000
0100
0000
0100
0000
,
0001
0100
0001
0100
0001
0010
0001
0010
0100
1000
0100
1000
0010
1000
0010
1000
,
0001
1000
0010
1000
0001
1000
0100
0010
0001
1000
0001
0010
0001
1000
0010
0100
,
2002
3003
0000
0000
;

//---------------dance-single - Marten-DSP----------------
#NOTEDATA:;
#CHARTNAME:Marten-DSP;
#STEPSTYPE:dance-single;
#DESCRIPTION:Marten-DSP;
#DIFFICULTY:Medium;
#METER:12;
#RADARVALUES:0.508454,0.693516,0.386517,0.257678,0.217416,442,394,48,32,0,0,0,0,0,0.508454,0.693516,0.386517,0.257678,0.217416,442,394,48,32,0,0,0,0,0;
#CREDIT:Marten;
#NOTES:
0000
0000
0000
0000
,
0000
0000
0000
0000
,
0000
0000
0000
0000
,
0000
0000
0000
0000
,
2010
0000
0000
3002
,
0023
0000
0230
2300
,
3002
0000
0000
0000
,
1003
0100
0010
0001
2000
0000
0001
0000
,
0010
0010
0100
3100
1000
0100
0001
0100
,
0000
1100
0000
1001
0000
0101
0000
0110
,
0000
0010
1000
0001
1000
0100
0000
0020
,
0001
0000
0031
0000
1000
0001
1000
0100
,
0010
0001
0100
0000
0001
0100
1000
0100
,
0000
0101
0000
1001
0000
1100
0000
0110
,
0000
0010
0001
1000
0001
0100
0000
0020
,
1000
0000
1030
0000
0010
1000
0001
0010
,
0100
0100
0010
0010
0001
0010
1000
0010
,
0000
0011
0000
1001
0000
1010
0000
0110
,
0000
0010
0100
0001
0100
0010
0000
2000
,
0001
0000
3001
0000
1000
0000
0000
0002
,
0013
0200
0310
0002
1003
0010
0001
0010
,
0000
1010
0000
1001
0000
0011
0000
0110
,
0000
0010
0100
1000
0100
0010
0000
0002
,
1000
0000
1003
0000
0010
0100
0100
0010
,
0100
0000
0100
0000
0002
0000
0000
0000
1003
0100
1000
0100
0020
0000
0030
0000
,
0001
0001
0000
0011
0000
0110
0000
2100
0000
0000
0000
0000
0100
0000
0000
0000
,
0001
0100
0010
0010
,
0100
0000
0100
0000
3100
0000
0000
0000
0100
1000
0001
2000
0000
3000
0000
0000
,
0010
0010
0000
1010
0000
0110
0000
0102
0000
0000
0000
0000
0100
0000
0000
0000
,
1000
0100
0010
0010
,
0100
0000
0100
0000
0103
0000
0000
0000
0001
0100
0010
2000
0000
3000
0000
0000
,
0001
0001
0000
1001
0000
0110
0000
1001
0000
0000
0000
0000
0100
0000
0001
0000
,
0010
0000
0100
1000
0010
0000
1000
0001
,
1000
0001
0010
0000
0001
0100
0010
1000
,
0000
1010
0000
0011
0000
1100
0000
0101
,
0000
0001
1000
0100
0010
0000
0001
1000
,
0000
0110
0000
2002
0000
0000
0000
0000
,
0000
0000
0000
0000
3003
0000
0000
0000
0200
0000
0000
0000
0301
0010
0001
0010
,
0000
0000
0000
0000
0000
0000
0000
0000
0000
0000
0100
1000
0001
1000
0100
0010
,
0000
0000
0000
0000
0001
0000
0000
1000
0000
0000
0010
0000
0100
0001
1000
0001
,
0000
0000
0000
0000
0000
0000
0000
0000
0000
0000
0010
0001
1000
0100
1000
0001
,
0000
0100
0010
0100
0000
0001
1000
0001
1000
0010
0100
0001
1000
0000
0100
0000
,
1100
1000
0001
0100
0101
0100
0010
1000
,
1001
0000
0001
0000
0010
0000
0100
0010
0000
0001
0010
0000
0100
0000
1000
0000
,
1010
0010
0100
0001
1001
0001
0010
0100
,
0110
0000
0010
0000
0001
1000
0100
0000
1000
0001
0100
0000
0010
0000
1000
0001
,
1000
0000
0001
0100
0000
0100
0000
0100
0010
0000
0100
0000
0001
0000
0010
0000
,
0100
0000
1000
0001
1000
0100
0010
0000
0001
0000
1001
0000
1000
0000
0010
0000
,
0100
0000
0010
1000
0000
1000
0000
1000
0001
1000
0100
0000
0010
0000
0001
0000
,
0100
0000
0001
0010
0001
1000
0010
1000
0001
0010
0100
1000
0002
0000
0000
0000
,
1003
0010
0001
0010
0000
1010
0000
1001
,
0000
0011
0000
0110
0000
0010
0100
1000
,
0100
0010
0000
0002
1000
0000
1003
0000
,
0001
0000
0000
2000
3010
0200
0310
2000
,
3001
0010
1000
0010
0000
0011
0000
1001
,
0000
1010
0000
0110
0000
0010
0100
0001
,
0100
0010
0000
2000
0001
0000
3001
0000
,
0010
0100
0100
0010
0100
0100
2000
0000
,
3001
0100
0001
0000
1000
0010
1000
0000
,
0001
0010
0001
0000
1000
0100
1000
0000
,
0001
0100
1000
0000
0001
0010
1000
0000
,
1000
0100
0001
0000
1000
0010
0001
0000
,
1000
0010
1000
0010
1000
0001
1000
0001
,
0010
0001
0010
0001
0100
0001
0100
0001
,
1000
0010
0100
0001
1000
0100
1000
0001
,
0010
0100
0010
0001
1000
0010
0100
0001
,
2002
3003
0000
0000
;

//---------------dance-single - Marten-BSP----------------
#NOTEDATA:;
#CHARTNAME:Marten-BSP;
#STEPSTYPE:dance-single;
#DESCRIPTION:Marten-BSP;
#DIFFICULTY:Easy;
#METER:8;
#RADARVALUES:0.346255,0.506800,0.249626,0.233521,0.044288,301,270,31,29,0,0,0,0,0,0.346255,0.506800,0.249626,0.233521,0.044288,301,270,31,29,0,0,0,0,0;
#CREDIT:Marten;
#NOTES:
0000
0000
0000
0000
,
0000
0000
0000
0000
,
0000
0000
0000
0000
,
0000
0000
0000
0000
,
0012
0000
0000
2003
,
3020
0000
0230
0302
,
2003
0000
0000
0000
,
3001
1000
0020
0000
,
0100
0000
1030
0001
,
0100
0100
0001
0010
,
0100
1000
0001
1000
,
1002
0000
0103
0100
,
0010
1000
0001
1000
,
0100
0100
1000
0010
,
0100
0001
1000
0001
,
2001
0000
3010
1000
,
0001
0001
0010
0001
,
0100
0010
0001
0010
,
0100
0001
1000
0100
,
0210
0000
0301
1000
,
1001
1001
0001
0100
,
0010
0100
0001
1000
,
0100
0100
0010
0001
,
1002
0000
0000
0000
0013
0000
0000
0010
,
0000
0000
0010
0000
0001
1000
0002
0003
,
0101
0000
0000
1001
0000
1001
0000
2000
0000
0000
0000
0000
0010
0000
0000
0000
,
0001
0100
0001
0001
,
0100
0000
3100
0000
1000
0001
2000
3000
,
1100
0000
0000
1001
0000
1001
0000
0002
0000
0000
0000
0000
0100
0000
0000
0000
,
1000
0010
1000
1000
,
0100
0000
0103
0000
0100
0010
0200
0300
,
1001
0000
0000
0110
0000
0110
0000
0020
0000
0000
0000
0000
1000
0000
0000
0000
,
0100
0001
0100
0100
,
1000
1030
1000
0100
,
0001
0100
1000
0001
,
1000
1000
0010
1000
,
0001
0010
0220
0000
,
0000
0000
0330
0000
2001
0000
3001
0100
,
0010
0000
0100
0000
0100
0001
1000
0100
,
1000
0000
0000
0000
0001
0000
0000
1000
0000
0000
0001
0000
0100
0000
0001
0000
,
0010
0000
0100
0000
0100
0010
0001
1000
,
0010
1000
0001
0010
0100
0100
0110
0010
,
1001
0000
0001
0100
0101
0000
0010
1000
,
0001
0000
1000
0000
0100
0000
0000
1000
0000
0000
0001
0000
0100
0000
0010
0000
,
0110
0000
1000
0001
1001
0000
1000
0100
,
0010
0001
1000
1000
0001
0001
1001
0000
,
0110
0010
1000
0001
1000
1000
0100
1000
,
0001
0000
0010
0100
1000
1000
0001
1000
,
1100
0000
0010
0001
1000
1000
0010
1000
,
0001
0010
0100
1000
0001
0100
0020
0000
,
1030
0001
0100
0100
,
0010
0100
0001
1000
,
0100
0010
0210
0000
,
0310
0001
1001
1001
,
0001
0100
0010
0010
,
1000
0001
1000
0100
,
0010
0001
1002
0000
,
0013
0000
0000
0010
0000
0000
0010
0000
,
0002
0100
1000
0100
,
0010
0010
0100
0100
,
2003
0100
0010
0010
,
0001
0010
0100
0100
,
3020
0100
0001
0100
,
1000
1000
0100
0100
,
0230
0010
0001
0001
,
1000
1000
0010
0310
,
2002
3003
0000
0000
;

//---------------dance-single - Marten-bSP----------------
#NOTEDATA:;
#CHARTNAME:Marten-bSP;
#STEPSTYPE:dance-single;
#DESCRIPTION:Marten-bSP;
#DIFFICULTY:Beginner;
#METER:3;
#RADARVALUES:0.129989,0.186716,0.072472,0.177154,0,113,104,9,22,0,0,0,0,0,0.129989,0.186716,0.072472,0.177154,0,113,104,9,22,0,0,0,0,0;
#CREDIT:Marten;
#NOTES:
0000
0000
0000
0000
,
0000
0000
0000
0000
,
0000
0000
0000
0000
,
0000
0000
0000
0000
,
2002
0000
3003
0001
,
2000
3000
0010
0010
,
0020
0000
0000
0000
,
0000
0030
0200
0000
,
0000
0300
0001
0000
,
0001
0000
1000
0000
,
1000
0000
0100
0000
,
0000
0000
0010
0000
,
0000
0000
0001
0000
,
0001
0000
1000
0000
,
1000
0000
0010
0000
,
0000
0000
0100
0000
,
0010
0000
1000
0000
,
1000
0000
0001
0000
,
0001
0000
0010
0000
,
0000
0000
0100
0000
,
0000
0000
1000
0000
,
1000
0000
0001
0000
,
0001
0000
0100
0000
,
0000
0000
0010
0000
,
0010
0000
2000
3000
,
0001
1000
2002
0000
,
0000
0000
0000
0000
,
0000
3003
0002
0003
,
0010
0100
0220
0000
,
0000
0000
0000
0000
,
0000
0330
0200
0300
,
1000
0001
2002
0000
,
0000
0000
0000
0000
,
0000
3003
0001
0000
,
0001
0000
1000
0000
,
1000
0000
0010
0000
,
0100
0000
0220
0000
,
0000
0330
1001
0001
,
0000
0000
1000
1000
,
0000
0100
0000
1000
,
0000
0000
0001
0001
,
0000
0100
0110
0010
,
0000
0000
1000
1000
,
0000
0001
0000
0001
,
0000
0010
0000
0000
,
0100
0100
0100
0100
,
0000
1000
0000
0001
,
0000
0100
0100
0100
,
0000
0010
0000
1000
,
0000
0001
0001
1001
,
1000
0000
1000
0000
,
0001
0000
0001
0000
,
0100
0000
0000
0000
,
0010
0000
0000
0000
,
1000
0000
1000
0000
,
0001
0000
0001
0000
,
0010
0000
0000
0000
,
0100
0000
0010
0000
,
0002
0000
0000
0000
,
0000
0000
0000
0003
,
2000
0000
0000
0000
,
0000
0000
0000
3000
,
0020
0000
0000
0000
,
0000
0000
0000
0030
,
0200
0000
0000
0300
,
0001
0001
1000
1000
,
2002
3003
0000
0000
;

//---------------dance-double - Kekkle-DDP----------------
#NOTEDATA:;
#CHARTNAME:Kekkle-DDP;
#STEPSTYPE:dance-double;
#DESCRIPTION:Kekkle-DDP;
#DIFFICULTY:Medium;
#METER:11;
#RADARVALUES:0.346255,0.451742,0.032210,0.201311,0.004026,301,297,4,25,0,0,0,0,0,0.346255,0.451742,0.032210,0.201311,0.004026,301,297,4,25,0,0,0,0,0;
#CREDIT:Kekkle;
#NOTES:
// measure 0
00000000
00000000
00000000
00000000
,  // measure 1
00000000
00000000
00000000
00000000
,  // measure 2
00000000
00000000
00000000
00000000
,  // measure 3
00000000
00000000
00000000
00000000
,  // measure 4
00000002
00000000
00000000
00000000
,  // measure 5
00000203
00000000
00002300
00000000
,  // measure 6
00023000
00000000
00000000
00000000
,  // measure 7
00000000
00000000
00030200
00000000
,  // measure 8
00000320
00000032
00000103
00000010
,  // measure 9
00001000
00000100
00010000
00000000
00001000
01000000
00100000
00000000
,  // measure 10
10000000
00010000
00100000
00000000
01000000
00000000
00010000
00000000
,  // measure 11
00001000
00010000
00000100
00000000
00001000
00000001
00000100
00000000
,  // measure 12
00000001
00001001
00001000
00000100
,  // measure 13
00010000
00001000
01000000
00000000
00010000
10000000
01000000
00000000
,  // measure 14
00100000
00001000
00010000
00000000
01000000
00000000
00100000
00000000
,  // measure 15
00001000
00010000
00000010
00000000
00000200
00000000
00000001
00000000
,  // measure 16
00000010
00000301
00001000
00000100
,  // measure 17
00010000
00001000
01000000
00000000
00001000
00010000
01000000
00000000
,  // measure 18
00100000
00010000
10000000
00000000
00100000
00000000
01000000
00000000
,  // measure 19
00100000
00010000
00001000
00000000
00010000
00000100
00000010
00000000
,  // measure 20
00000001
00000011
00000010
00000100
,  // measure 21
00010000
00001000
00000100
00000000
00001000
00010000
01000000
00000000
,  // measure 22
00100000
00010000
01000000
00000000
00100000
00000000
10000000
00000000
,  // measure 23
00010000
00000000
00100000
00000000
00002000
00000000
00000000
00023000
,  // measure 24
00000000
00030100
00000020
00000000
,  // measure 25
00000031
00000000
00000001
00000001
00000001
00000000
00001000
00000000
,  // measure 26
00000100
00010000
00001000
00000000
01000000
00100000
10000000
00000000
,  // measure 27
00010000
00100000
00001000
00000000
00020000
00000000
00000000
00000000
,  // measure 28
00031000
00000000
00001000
00001000
00001000
00000000
00010000
00000000
,  // measure 29
00000010
00000100
00000001
00000000
00000010
00000100
00010000
00000000
,  // measure 30
00001000
01000000
00100000
00000000
20000000
00000000
00000000
00000000
,  // measure 31
30010000
00000000
00010000
00010000
00010000
00000000
01000000
00000000
,  // measure 32
00001000
00010000
00000010
00000000
00000100
00000001
00001000
00000000
,  // measure 33
00000100
00000010
00000001
00000000
00001000
00000000
00000100
00000000
,  // measure 34
00010000
00010000
00001000
01000000
,  // measure 35
00100000
10000000
00010000
00000000
00100000
00000000
01000000
00000000
,  // measure 36
00100000
00100000
00002000
00000000
,  // measure 37
00000000
00000000
00013000
00000020
,  // measure 38
00001000
00001000
00001000
00020030
,  // measure 39
00000100
00000100
00000100
00032000
,  // measure 40
01000000
01000000
01000000
00203000
,  // measure 41
01000000
00000000
01000000
00000000
01000000
00000000
00310000
10000000
,  // measure 42
00100000
01000000
00001000
00010000
00001000
00000100
00000010
00000100
,  // measure 43
00000001
00000000
00000010
00000000
00000100
00000000
00000000
00000100
00000000
00000000
00000100
00000000
00010000
00000000
00001000
00000000
,  // measure 44
01000000
00100000
01000000
10000000
01000000
00010000
00100000
00001000
,  // measure 45
00010000
01000000
00010000
00001000
00000100
00000001
00000010
00000010
,  // measure 46
00000001
00000000
00002000
00000000
00000010
00003010
00000100
00000100
,  // measure 47
00000010
00000000
00020000
00000000
00001000
00031000
01000000
00010000
,  // measure 48
10000000
00000000
02000000
00000000
00100000
03100000
00001000
00010000
,  // measure 49
00000010
00000000
00000100
00000001
00001000
00000100
00000010
00000000
,  // measure 50
00000001
00000000
00001000
00000000
00000010
00010000
00001000
00000000
,  // measure 51
00010000
00001000
01000000
00000000
00010000
00100000
01000000
00000000
,  // measure 52
10000000
00000000
00010000
00000000
01000000
00010000
00100000
00000000
,  // measure 53
00001000
00010000
00000010
00000000
00000100
00000000
00000101
00000000
,  // measure 54
00000001
00000000
00001000
00000000
00000010
00000100
00000001
00000000
,  // measure 55
00001000
00000100
00010000
00000000
00001000
01000000
00100000
00000000
,  // measure 56
10000000
00010000
00100000
00002000
,  // measure 57
00010000
00010000
00010000
00013000
,  // measure 58
00000020
00000100
00001000
00000100
,  // measure 59
00000001
00000100
00001000
00001030
,  // measure 60
00000200
00010000
00001000
00000010
,  // measure 61
00001000
00010000
00001000
00001300
,  // measure 62
02000000
00010000
00100000
10000000
,  // measure 63
00100000
00010000
00100000
03100000
,  // measure 64
00001000
00010000
00000010
00000100
,  // measure 65
00000001
00001000
00000100
00010000
00001000
01000000
00010000
10000000
,  // measure 66
10010000
00000000
00000000
00000000
;

//---------------dance-double - Kekkle-BDP----------------
#NOTEDATA:;
#CHARTNAME:Kekkle-BDP;
#STEPSTYPE:dance-double;
#DESCRIPTION:Kekkle-BDP;
#DIFFICULTY:Easy;
#METER:7;
#RADARVALUES:0.256528,0.292304,0.008052,0.136891,0.004026,223,222,1,17,0,0,0,0,0,0.256528,0.292304,0.008052,0.136891,0.004026,223,222,1,17,0,0,0,0,0;
#CREDIT:Kekkle;
#NOTES:
// measure 0
00000000
00000000
00000000
00000000
,  // measure 1
00000000
00000000
00000000
00000000
,  // measure 2
00000000
00000000
00000000
00000000
,  // measure 3
00000000
00000000
00000000
00000000
,  // measure 4
00000002
00000000
00000000
00000003
,  // measure 5
00002000
00003000
00000200
00000300
,  // measure 6
00020000
00000000
00000000
00000000
,  // measure 7
00000000
00030000
00002000
00000000
,  // measure 8
00000000
00003000
01000000
00010000
,  // measure 9
10000000
01000000
00100000
00001000
,  // measure 10
00010000
00010000
00000010
00000100
,  // measure 11
00000001
00001000
00000100
00010000
,  // measure 12
00001000
00001000
01000000
00100000
,  // measure 13
10000000
00010000
00100000
01000000
,  // measure 14
00010000
00010000
00001000
00000100
,  // measure 15
00000001
00000010
00000100
00000010
,  // measure 16
00000001
00000001
00000100
00001000
,  // measure 17
00010000
00100000
01000000
00010000
,  // measure 18
10000000
10000000
01000000
00010000
,  // measure 19
00001000
00010000
00000010
00000100
,  // measure 20
00000001
00000001
00000010
00000100
,  // measure 21
00010000
00001000
01000000
00100000
,  // measure 22
01000000
01000000
00001000
00010000
,  // measure 23
01000000
00010000
00001000
00000100
,  // measure 24
00000001
00000010
00000200
00000000
,  // measure 25
00000320
00000000
00000031
00000100
,  // measure 26
00001000
00010000
00100000
01000000
,  // measure 27
00001000
00010000
00002000
00000000
,  // measure 28
00023000
00000000
00030010
00000100
,  // measure 29
00001000
00010000
00000100
00000010
,  // measure 30
00000001
00001000
00000200
00000000
,  // measure 31
00020300
00000000
00031000
01000000
,  // measure 32
00100000
10000000
01000000
00010000
,  // measure 33
00001000
01000000
00010000
00010000
,  // measure 34
00100000
00100000
00001000
00001000
,  // measure 35
00010000
00010000
00000010
00000100
,  // measure 36
00000001
00001000
00000200
00000000
,  // measure 37
00000000
00000000
00000310
00000001
,  // measure 38
00000001
00000001
00000001
00001000
,  // measure 39
00001000
00001000
00001000
00000100
,  // measure 40
00000100
00000100
00000100
00010000
,  // measure 41
00010000
00010000
00010000
00001000
,  // measure 42
01000000
00000000
00100000
00000000
10000000
00010000
10000000
00000000
,  // measure 43
01000000
00000000
00000000
00000000
00100000
00000000
00000000
00010000
00000000
00000000
00100000
00000000
00001000
00000000
00000000
00000000
,  // measure 44
00010000
00000010
00000010
00000100
,  // measure 45
00000001
00001000
00001000
00000100
,  // measure 46
00010000
00000000
00001000
00010000
00001000
00000000
01000000
00000000
,  // measure 47
00100000
00000000
01000000
00100000
01000000
00000000
00100000
00000000
,  // measure 48
10000000
00000000
00100000
10000000
00100000
00000000
01000000
00000000
,  // measure 49
00001000
00000000
00010000
00000000
00000010
00000100
00000010
00000000
,  // measure 50
00000100
00000001
00001000
00000100
,  // measure 51
00010000
00001000
01000000
01000000
,  // measure 52
00100000
01000000
00001000
00010000
,  // measure 53
01000000
00010000
00001000
00001000
,  // measure 54
01000000
00010000
01000000
00001000
,  // measure 55
00010000
00000010
00000100
00000100
,  // measure 56
00000001
00000010
00000100
00010000
,  // measure 57
00002000
00000000
00010000
00010000
,  // measure 58
00023000
00000000
00000000
00000000
,  // measure 59
00000010
00000010
00001000
00001000
,  // measure 60
00030020
00000000
00000000
00000000
,  // measure 61
00010000
00010000
00001000
00001000
,  // measure 62
00020030
00000000
00000000
00000000
,  // measure 63
00001000
00001000
01000000
01000000
,  // measure 64
00032000
00000000
00000000
00000000
,  // measure 65
01000000
00000000
01003000
00000000
01000000
00100000
01000000
00100000
,  // measure 66
01100000
00000000
00000000
00000000
;

//---------------dance-double - Kekkle-CDP----------------
#NOTEDATA:;
#CHARTNAME:Kekkle-CDP;
#STEPSTYPE:dance-double;
#DESCRIPTION:Kekkle-CDP;
#DIFFICULTY:Challenge;
#METER:18;
#RADARVALUES:0.753478,1.253664,0.217416,0.249626,0.777060,655,628,27,31,0,0,0,0,0,0.753478,1.253664,0.217416,0.249626,0.777060,655,628,27,31,0,0,0,0,0;
#CREDIT:Kekkle;
#NOTES:
// measure 0
00000000
00000000
00000000
00000000
,  // measure 1
00000000
00000000
00000000
00000000
,  // measure 2
00000000
00000000
00000000
00000000
,  // measure 3
00000000
00000000
00000000
00000000
,  // measure 4
20010000
00000000
00000000
30200000
,  // measure 5
02300000
00000000
03002000
00023000
,  // measure 6
00030100
00000000
00000010
00000000
00000001
00000000
00000100
00000000
00000010
00001000
00000100
00010000
00001000
00000100
00001000
00010000
,  // measure 7
00001000
01000000
00010000
00100000
01000000
10000000
00100000
01000000
00010000
10000000
01000000
00010000
00001000
00000100
00001000
00010000
,  // measure 8
00001000
01000000
00001000
01000000
00001000
00010000
00001000
00010000
00000010
00010000
00000010
00010000
00000010
00000100
00000010
00000100
00000001
00000000
00000000
00000000
00000100
00000000
00000000
00000000
00001000
00000000
00000000
00000000
00010000
00000000
00000000
00000000
,  // measure 9
00001000
00000100
00000010
00001000
01000000
00100000
00010000
10000000
,  // measure 10
00100000
01000000
00001000
00010000
01000000
00100000
00001000
00020000
,  // measure 11
00000010
00000000
00000000
00000000
00000100
00000000
00000000
00000000
00031000
00000000
00000100
00000000
00000001
00000000
00000010
00000100
,  // measure 12
00000010
00001000
00010000
01000000
10000000
00100000
01000000
10000000
,  // measure 13
01000000
00001000
00010000
01000000
00010000
00001000
00000100
00000010
,  // measure 14
00001000
00000001
00000010
00001000
00010000
01000000
00100000
00020000
,  // measure 15
01000000
00000000
00000000
00000000
00100000
00000000
00000000
00000000
10030000
00000000
01000000
00000000
00010000
00000000
00001000
00000010
,  // measure 16
00001000
00000000
00010000
01000000
00010000
00000000
00001000
00000000
00000100
00000000
00000001
00000000
00000010
00000000
00001000
00000000
,  // measure 17
00010000
00000010
00000100
00001000
00010000
00000100
00001000
01000000
,  // measure 18
00100000
00001000
00010000
00100000
01000000
00010000
10000000
02000000
,  // measure 19
00100000
00000000
10000000
00000000
03010000
00001000
00000100
00000001
,  // measure 20
00000010
00000000
00000100
00001000
00000100
00000000
00010000
00000000
00001000
00000000
01000000
00000000
00100000
00000000
00010000
00000000
,  // measure 21
00001000
00010000
01000000
00010000
00001000
00000100
00000001
00000010
,  // measure 22
00001000
00000010
00000001
00000100
00000010
00010000
00001000
00000200
,  // measure 23
00000001
00000000
00000000
00000000
00001000
00000000
00000000
00000000
00000310
00001000
00000100
00010000
00001000
00000000
01000000
00010000
,  // measure 24
10000000
01000000
00100000
00000000
00001000
00010000
00001000
00010000
00000010
00000100
00001000
00000100
00000002
00000000
00000013
00000000
,  // measure 25
00000100
00001100
00000000
00011000
00000000
01001000
00000000
01100000
00100000
00000000
10000000
01000000
10000000
00000000
01000000
00010000
,  // measure 26
01000000
00000000
00010000
00001000
00010000
00000000
00001000
00000010
00001000
00000000
00000010
00000001
00000010
00000000
00000001
00000100
,  // measure 27
00001000
00000100
00000001
00000000
00000010
00000000
00000001
00000000
00000100
00001000
00010000
00200000
00000000
00000000
01300000
00010000
,  // measure 28
10000000
11000000
00000000
01100000
00000000
00101000
00000000
00011000
00010000
00000000
00000010
00001000
00000010
00000000
00000100
00000001
,  // measure 29
00000100
00000000
00001000
00000100
00001000
00000000
00010000
00001000
00010000
00000000
01000000
00010000
01000000
00000000
00100000
00010000
,  // measure 30
10000000
00100000
01000000
00000000
00010000
00000000
10000000
00000000
01000000
00010000
00001000
00000200
00000000
00000000
00000301
00000000
,  // measure 31
00000001
00000101
00000000
00001010
00000000
00011000
00000000
01001000
01000000
00000000
00010000
01000000
00010000
00000000
10000000
01000000
,  // measure 32
10000000
00000000
00100000
01000000
00100000
00000000
00010000
00100000
00010000
00000000
00001000
00010000
00001000
00000000
00000010
00000100
,  // measure 33
00001000
00000001
00000100
00000000
00000010
00000000
00001000
00000000
00000010
00000000
00001000
00000000
00010000
00000000
01000000
00000000
,  // measure 34
02000000
00100000
03200000
00010000
00320000
00001000
00032000
00000100
,  // measure 35
00003100
00000001
00000010
00001000
00010000
00000010
00000100
00001000
,  // measure 36
00010000
00000000
00100000
00000000
01000000
00000000
00010000
00000000
10000000
01000000
10000000
00010000
01000000
00010000
01000000
00001000
,  // measure 37
00010000
00001000
00010000
00000010
00000100
00000010
00001000
00000001
00002000
00000000
00000000
00000000
00003001
00000010
00000100
00000020
,  // measure 38
00001000
00000000
00000000
00000000
00000001
00000000
00000000
00000000
00000130
00000000
00010000
00001000
00010000
00100000
01000000
00020000
,  // measure 39
10000000
00000000
00000000
00000000
01000000
00000000
00000000
00100000
00000000
00000000
01030000
00000000
00001000
00010000
00001000
00000200
,  // measure 40
00000001
00000000
00000000
00000000
00001000
00000000
00000000
00000000
00000310
00000000
00001000
00000100
00000001
00000100
00010000
00001000
,  // measure 41
00000000
01000000
00010000
00100000
00000000
01000000
10000000
00010000
01010000
00000000
01001000
00000000
00001000
00000000
00010000
00000000
,  // measure 42
00010010
00000000
00000010
00000100
00000001
00001000
00000100
00000000
00010100
00000000
00010000
00000000
00011000
00000000
00001000
00000000
,  // measure 43
01001000
00000000
01000000
00100000
01100000
00000000
00000000
10100000
00000000
00000000
01010000
00000000
00010000
00000000
00100000
00000000
,  // measure 44
00101000
00000000
00001000
00010000
00000010
00000100
00000001
00000000
00000011
00000000
00000010
00000000
00000110
00000000
00000100
00000000
,  // measure 45
00010100
00000000
00000000
00000000
00010000
00000000
00001000
00000000
01000000
00010000
01000000
00010000
01000000
00100000
01000000
00100000
10000000
00010000
10000000
00010000
00100000
00010000
00100000
00010000
00100000
00000000
00001000
00000000
00010000
00000000
00000010
00001000
,  // measure 46
00000010
00001000
00000010
00000000
00000100
00000000
00000002
00000000
00000000
00000000
00000013
00000000
00001000
00000000
00010000
00000000
01000000
00100000
01000000
00000000
10000000
00000000
10000000
00000000
00010000
00000000
00100000
00000000
00001000
00000000
01000000
00010000
,  // measure 47
01000000
00010000
01000000
00000000
00100000
00000000
20000000
00000000
00000000
00000000
31000000
00000000
00010000
00000000
00001000
00000000
00000100
00000010
00000100
00000000
00000001
00000000
00000001
00000000
00000010
00000000
00000100
00000000
00010000
00000000
00000010
00000100
,  // measure 48
00000010
00000100
00000010
00000000
00001000
00000000
00000002
00000000
00000000
00000000
00000103
00000000
00001000
00000000
00010000
00000000
00100000
01000000
00100000
00000000
10000000
00000000
10000000
00000000
00010000
00000000
01000000
00000000
00001000
00000000
00010000
00000000
,  // measure 49
00000010
00001000
00000001
00000010
00000100
00000010
00000100
00010000
00001000
00010000
00100000
01000000
00100000
10000000
01000000
00100000
00001000
00010000
01000000
00100000
00010000
10000000
00100000
01000000
00020000
00000000
00000000
00000000
00000000
00000000
00000000
00000000
,  // measure 50
01030000
00001000
00010000
01000000
10000000
00100000
01000000
00001000
,  // measure 51
00010000
00000010
00000100
00001000
00010000
00100000
01000000
00001000
,  // measure 52
00010000
00001000
00000010
00000200
00001000
00000000
00000001
00000000
,  // measure 53
00000310
00000000
00000001
00000000
00001000
00000000
00000100
00010000
00000100
00010000
00001000
00000000
01000000
00000000
00100000
00000000
,  // measure 54
10000000
01000000
00010000
00001000
00010000
00100000
01000000
00001000
,  // measure 55
00010000
00000010
00000100
00001000
00010000
00000100
00000010
00001000
,  // measure 56
00010000
01000000
00100000
00002000
00010000
00000000
00000010
00000000
,  // measure 57
01003000
00010000
00100000
01000000
10000000
00000000
01000000
00010000
00001000
00000010
00000100
00000000
00001000
00000001
00000100
00000010
,  // measure 58
00020000
00001000
00100000
00030100
,  // measure 59
00000010
00000001
00000100
00001000
00010000
01000000
10000000
00010000
,  // measure 60
02000000
10000000
00001000
03010000
,  // measure 61
00100000
00010000
01000000
10000000
00010000
00001000
00000100
00000001
,  // measure 62
00000020
00001000
00000001
00000130
,  // measure 63
00010000
00001000
01000000
10000000
01000000
00010000
00100000
00001000
,  // measure 64
00010000
00000010
00010000
00000010
00000100
00000010
00000100
00000010
00000100
00000001
00000100
00000001
00001000
00000100
00001000
00000100
,  // measure 65
00010000
00001000
01000000
00010000
00100000
01000000
10000000
01000000
00100000
00001000
00010000
00000010
00000100
00000001
00001000
00000100
,  // measure 66
00000220
00000330
00000000
00000000
;
