#TITLE:Quad Strike -DG ver-;
#ARTIST:Midflight Digital Records;
#BANNER:Quad Strike -DG ver--.png;
#BACKGROUND:Quad Strike -DG ver--bg.png;
#MUSIC:Quad Strike -DG ver-.ogg;
#SAMPLESTART:48.862274;
#SAMPLELENGTH:15;
#SELECTABLE:YES;
#DISPLAYBPM:84:167;
#BPMS:0=83.5,36=167,100=83.5,102=334,106=167,114=83.5,118=167,190=83.5,220=167;
#STOPS:102=0.09,102.5=0.18,103.5=0.18,104.5=0.18,105.5=0.09;

//---------------dance-single - Talkion-bSP----------------
#NOTES:
     dance-single:
     Talkion:
     Beginner:
     4:
     0.158029,0.199831,0.089210,0.187341,0,124,114,10,21,0,0,0.158029,0.199831,0.089210,0.187341,0,124,114,10,21,0,0:
0000
0000
0000
0000
,
0002
0000
0000
1000
0000
0000
1000
0000
,
0000
1000
0000
0000
1003
0000
0000
0000
,
2000
0000
0000
0001
0000
0000
0001
0000
,
0000
0001
0000
0000
3001
0000
0000
0000
,
0200
0000
0000
0300
,
0020
0000
0000
0030
,
2000
0000
0000
3000
,
0002
0000
0000
0003
,
1000
0000
1000
0000
,
0001
0000
0001
0000
,
0100
0000
0100
0000
,
0010
0000
0010
0000
,
1000
0000
1000
0000
,
0001
0000
0001
0000
,
0020
0000
0000
0000
,
0100
0100
0130
0000
,
1000
0000
1000
0000
,
0001
0001
0001
0000
,
0200
0000
0000
0000
,
0310
0000
1000
0001
,
1000
0000
1000
0000
,
0001
0001
0001
0000
,
0020
0000
0000
0000
,
0130
0000
0000
0100
0000
0000
0000
0000
,
2000
0000
3000
0000
,
0000
0000
0001
0000
,
1001
0000
1000
0000
,
1001
0000
0002
0000
,
0000
0000
0103
0000
,
0110
0000
0010
0000
,
0110
0000
1000
0000
,
0100
0000
1000
0000
,
0100
0000
0010
0010
,
0020
0000
0030
0000
,
1001
0000
0001
0000
,
0100
0000
0001
0000
,
0100
0000
0010
0010
,
0020
0000
0000
0000
0100
0000
0000
0130
,
0000
0000
0001
0000
,
0110
0000
1000
0000
,
0110
0000
0001
0000
,
0110
0000
1000
0000
,
0110
0000
0001
0000
,
0010
0010
0010
0000
,
0100
0100
0100
0000
,
1000
1000
1000
0000
,
0010
0010
0020
0000
,
0130
0000
0200
0000
,
0310
0000
2000
0000
,
3001
0000
0002
0000
,
1003
0000
1001
0000
,
0100
0000
0200
0000
,
0310
0000
0020
0000
,
0130
0000
0002
0000
,
1003
1000
0001
0002
,
0103
0000
0000
0000
;

//---------------dance-single - Talkion-BSP----------------
#NOTES:
     dance-single:
     Talkion:
     Easy:
     9:
     0.349194,0.406798,0.107052,0.267630,0.084750,274,262,12,30,0,0,0.349194,0.406798,0.107052,0.267630,0.084750,274,262,12,30,0,0:
0000
0000
0000
0000
,
0001
0000
0000
0001
0000
0000
1000
0000
0000
1000
0000
0000
0010
0000
0000
0010
,
0000
0000
0100
0000
0000
0100
0000
0000
0002
0000
0000
0000
0003
0000
0000
0000
,
1000
0000
0000
1000
0000
0000
0001
0000
0000
0001
0000
0000
0010
0000
0000
0010
,
0000
0000
0100
0000
0000
0100
0000
0000
2000
0000
0000
0000
3000
0000
0000
0000
,
0002
0000
0000
0203
0000
0000
0000
0000
0000
0000
0000
0000
0000
0000
0010
0000
,
0320
0000
0000
2030
0000
0000
0000
0000
0100
0000
0000
0100
0000
0000
3100
0000
,
0020
0000
0000
0032
0000
0000
0000
0000
0000
0000
0000
0000
0000
0000
1000
0000
,
2003
0000
0000
3020
0000
0000
0000
0000
0100
0000
0100
0000
0130
0000
0000
0000
,
0002
0100
0100
0103
,
2000
0100
0100
3100
,
0002
0010
1000
0013
,
2000
0010
0001
3010
,
0002
0010
0100
0013
,
2000
0010
0100
3010
,
0001
0100
0001
0000
1000
0100
1000
0000
,
0010
0100
0010
0100
0010
0100
0010
0000
,
1000
0000
1100
0010
,
0001
1000
0001
0000
0110
0000
0000
0000
,
0001
0000
0101
0010
,
1000
0001
1000
0001
0010
0000
0100
0000
,
1000
0000
1010
0100
,
0001
1000
0001
0000
0110
0000
0000
0000
,
0001
0000
0011
0100
,
1000
0001
1000
0001
0100
0000
0010
0000
,
2000
0000
0000
0000
0001
0001
0000
0010
,
0000
0010
0000
3020
0000
0000
0130
0000
,
0010
0010
0010
0000
1000
0000
0001
0000
,
1000
1000
1000
0000
0002
0000
0000
0000
,
0010
0010
0000
0100
0000
0100
0000
0203
0000
0000
0000
0000
0310
0000
0000
0000
,
0100
0100
0100
0000
0001
0000
1000
0000
,
0001
0001
0001
0000
1000
0000
0100
0000
,
1000
0100
1000
0000
0001
0000
0100
0000
,
0010
0100
0010
0000
2000
0000
0000
3002
,
0000
0000
0010
0013
,
0100
1000
0100
0000
1000
0000
0001
0000
,
1000
0001
1000
0000
0010
0000
0100
0000
,
0001
0100
0001
0000
2000
0000
0000
3200
,
0000
0000
0010
0310
,
0001
1000
0001
1000
0010
0000
0100
0000
,
0010
0010
0010
0000
1000
0000
0100
0000
,
1000
1000
1000
0000
0001
0000
0100
0000
,
0001
0001
0001
0000
1000
0000
0100
0010
,
0001
0010
0100
0000
1000
0000
1100
0000
,
0001
0000
0000
0001
0000
0000
0001
0000
0100
0000
0000
0000
0110
0000
0000
0000
,
1000
0000
0000
1000
0000
0000
1000
0000
0100
0000
0000
0000
0110
0000
0000
0000
,
0001
1000
0001
0000
1000
0010
1000
0010
,
0100
0001
0100
0001
2000
0000
3100
0000
,
1000
1000
0001
0000
0002
0000
0103
0000
,
0001
0001
1000
0000
0200
0000
0310
0000
,
0001
0001
0100
0000
0200
0000
0310
0000
,
1000
1000
0001
0000
1100
0000
1000
0100
,
0010
0001
1000
0000
0101
0000
0001
0100
,
0010
1000
0001
0000
0110
0000
1000
0100
,
0001
0100
1000
0000
0010
0010
0100
0100
,
0002
0000
1003
0100
0010
0001
0010
0100
,
2000
0000
0000
0000
,
3000
0000
0000
0000
;

//---------------dance-single - Talkion-DSP----------------
#NOTES:
     dance-single:
     Talkion:
     Medium:
     12:
     0.495753,0.533922,0.330077,0.258709,0.209644,389,352,37,29,0,0,0.495753,0.533922,0.330077,0.258709,0.209644,389,352,37,29,0,0:
0000
0000
0000
0000
,
0001
0000
0000
0010
0000
0000
1000
0000
0000
0100
0000
0000
0001
0000
0000
0010
,
0000
0000
1000
0000
0000
0010
0000
0000
0002
0000
0000
2000
0000
3003
0000
0000
,
1000
0000
0000
0010
0000
0000
0001
0000
0000
0100
0000
0000
1000
0000
0000
0010
,
0000
0000
0001
0000
0000
0010
0000
0000
2000
0000
0000
0002
0000
3003
0000
0000
,
0001
0010
0100
2000
0000
0000
0000
0000
0010
0000
0000
0010
0000
0000
3010
0000
,
1000
0100
0010
0002
0000
0000
0000
0000
0100
0000
0000
0100
0000
0000
0103
0000
,
0001
0010
1000
0020
0000
0000
0000
0000
0100
0000
0000
0100
0000
0000
0130
0000
,
1000
0010
0001
0020
0000
0000
0000
0000
0100
0000
0100
0000
0230
0000
0000
0000
,
0301
0000
0001
0000
0010
0100
1000
0001
,
0100
0000
0100
0000
1000
0100
0001
0010
,
0100
0000
0100
0000
1000
0001
0100
0010
,
1000
0000
1000
0000
0100
0010
0110
0000
,
1000
0000
1000
0000
0010
0100
0001
0010
,
0100
0000
0100
0000
0001
0100
1000
0010
,
0100
0010
0100
0001
1000
0100
0010
0001
,
1000
1000
0001
0001
1000
0001
1001
0000
,
1000
0000
0010
1010
0000
1000
0001
0011
,
0000
0010
0110
0000
0100
0100
0100
0000
,
0010
0000
0001
1001
0000
1000
0010
0110
,
0000
0100
0101
0000
0001
0001
0001
0000
,
1000
0000
0100
1100
0000
1000
0001
0101
,
0000
0100
0110
0000
0010
0010
0010
0000
,
1000
0000
0001
1001
0000
1000
0100
0010
,
0001
1000
0010
0001
1000
0100
0001
0000
,
1000
0100
0010
0001
2000
0000
0000
0000
0010
0000
3010
0000
0000
0000
0101
0000
,
0000
1100
0000
1001
1002
0000
0100
0000
,
0010
0010
0013
0000
2001
0000
0100
0000
,
0010
0000
0010
0000
3010
0000
0000
0000
0100
0001
1000
0200
0000
0000
0000
0000
,
0010
0010
0000
0001
0000
0001
0000
0010
0310
0000
0000
0000
1100
0000
0000
0000
,
0010
0010
0010
0000
0100
0000
1001
0000
,
0100
0100
0100
0000
0001
0010
0100
1100
,
0000
1010
0000
0011
0000
0101
0000
1100
,
0000
1000
0001
0100
0010
0001
1000
0200
,
0000
0010
0310
0000
1000
0100
0010
0001
,
0100
0010
0110
0000
1000
0100
0010
0011
,
0000
0101
0000
1100
0000
1010
0000
0011
,
0000
0001
1000
0010
0100
1000
0001
0020
,
0000
0100
0130
0000
0001
0010
1000
0001
,
0100
1000
1001
0000
0012
0000
0100
0000
,
0010
0010
0013
0000
2010
0000
0100
0000
,
0010
0010
3010
0000
0210
0000
1000
0000
,
0001
0001
0301
0000
1000
0100
0010
0001
,
0200
0010
0010
0310
1000
0000
1000
0001
,
0010
0000
0000
0010
0000
0000
0010
0000
1000
0000
0010
0000
0001
0000
0100
0000
,
0010
0000
0000
0010
0000
0000
0010
0000
1000
0000
1000
0000
0100
0000
0010
0000
,
0001
0001
0100
0010
1000
0100
0010
1000
,
0001
0000
0100
0000
0010
0000
0001
0000
2000
0000
0000
0000
3010
0000
0100
0001
,
0100
0000
0001
0000
0001
0000
0000
0000
0002
0000
0000
0000
0013
0000
0100
1000
,
0100
0000
1000
0000
1000
0000
0000
0000
0020
0000
0000
0000
0130
0000
0001
1000
,
0001
0000
0010
0000
0010
0000
0000
0000
0200
0000
0000
0000
1300
0000
0001
1000
,
0001
0000
0100
0000
0100
0000
0000
0000
1002
0000
0000
0000
0013
0000
0100
1000
,
0100
1000
0001
0000
0100
0000
0000
0000
2001
0000
0000
0000
3100
0000
0010
0001
,
0010
0001
1000
0000
0010
0000
0000
0000
0210
0000
0000
0000
0301
0000
1000
0100
,
1000
0100
0010
0000
0001
0000
0000
0000
1000
0001
1000
0000
0010
0100
0010
0100
,
0002
0000
0000
0000
1003
0000
0100
1000
0000
0000
1000
0000
0001
0100
0001
0200
,
0020
0000
0000
0000
,
0330
0000
0000
0000
;

//---------------dance-single - Talkion-ESP----------------
#NOTES:
     dance-single:
     Talkion:
     Hard:
     15:
     0.635940,0.711896,0.481734,0.463892,0.535260,499,445,54,52,0,0,0.635940,0.711896,0.481734,0.463892,0.535260,499,445,54,52,0,0:
0000
0000
0000
0000
,
1002
0000
0000
0203
0000
0000
2300
0000
0000
3020
0000
0000
2030
0000
0000
3200
,
0000
0000
0302
0000
0000
2003
0000
0000
3200
0000
0000
0320
0000
0002
0033
0000
,
2001
0000
0000
3020
0000
0000
0032
0000
0000
0203
0000
0000
0302
0000
0000
0023
,
0000
0000
2030
0000
0000
3002
0000
0000
0023
0000
0000
0230
0000
2000
3300
0000
,
0001
0100
0010
2000
0000
0000
0000
0000
0001
0000
0000
0001
0000
0000
3100
0000
,
0010
0001
1000
0020
0000
0000
0000
0000
0100
0000
0000
0001
0000
0000
1030
0000
,
0001
0010
0100
2000
0000
0000
0000
0000
0001
0000
0000
0001
0000
0000
3010
0000
,
0100
0001
1000
0200
0000
0000
0000
0000
0010
0000
0310
0000
0001
1000
0001
0000
,
0100
0000
0010
0000
1000
0100
0000
1000
0100
0000
0010
0000
0001
0000
0000
0000
,
0001
0000
0010
0000
0100
1000
0000
0100
1000
0000
0001
0000
0100
0000
0000
0000
,
0100
0000
0010
0000
1000
0001
0000
1000
0001
0000
0010
0000
0100
0000
0000
0000
,
0100
0000
1000
0000
0001
0100
0000
0001
0100
0000
0010
0000
1000
0000
0000
0000
,
1000
0000
0001
0000
0010
0100
0000
0010
0100
0000
1000
0000
0001
0000
0000
0000
,
0001
0000
0100
0000
0010
1000
0000
0010
1000
0000
0001
0000
0010
0000
0000
0000
,
0010
0010
0100
1000
0010
0010
0100
0001
,
1000
0100
1000
0000
0001
0100
0001
0000
1000
0100
1000
0100
0010
0001
0010
0001
,
1000
0000
1010
0100
0010
0110
1001
0000
,
0001
0000
0000
0000
0011
0000
0100
0000
1000
0001
1000
0001
0100
0000
0000
0000
,
0010
0000
0101
0010
0100
0110
1001
0000
,
1000
0000
1100
0020
0031
0020
1030
0020
,
0031
0000
0101
0010
0100
0101
1001
0000
,
1000
0000
0000
0000
1100
0000
0010
0000
0100
0010
0100
0010
0001
0000
0000
0000
,
0010
0000
0110
1000
0010
0110
1001
0000
,
0001
0010
0100
1000
0001
0000
1000
0010
0100
0001
1000
0000
0110
0000
0000
0000
,
0001
0010
0100
1000
0002
0000
0000
0000
0100
0000
0103
0000
0000
0000
1010
0000
,
0000
0011
0000
0110
0210
0000
0310
0000
,
1100
0110
1100
0000
0201
0000
0310
0000
,
1001
0000
0011
0000
1001
0000
0000
0000
1000
0100
0010
0002
0000
0000
0000
0000
,
0100
0100
0000
1000
0000
0010
0000
0100
0103
0000
0000
0000
0110
0000
0000
0000
,
0011
0110
0011
0000
1020
0000
0130
0000
,
0001
1000
0001
1000
0200
0000
0000
0000
0310
0000
0001
0000
0001
0000
1000
0010
,
0001
0000
0010
0000
1000
0000
1000
0000
0100
0000
0001
0000
0001
0000
0100
1000
,
0010
0000
0100
0000
0001
0000
0001
0000
1000
0000
0100
0000
0010
0000
0001
1000
,
0002
0000
0100
0000
0203
0000
0000
0000
1000
0000
0000
0000
0301
0000
1000
0001
,
0010
0000
0100
0000
0110
0000
0000
0000
0100
0000
1000
0000
1000
0000
0001
0100
,
1000
0000
0100
0000
0001
0000
0001
0000
0010
0000
1000
0000
1000
0000
0010
0001
,
0100
0000
0010
0000
1000
0000
1000
0000
0001
0000
0010
0000
0100
0000
1000
0001
,
2000
0000
0010
0000
3020
0000
0000
0000
0130
0001
1000
0100
0010
0000
1000
0010
,
0100
1000
0001
0000
0110
0000
0000
0000
2001
0000
0000
0000
3100
0000
0000
0000
,
0011
1001
0011
0000
0210
0000
1300
0000
,
1001
1010
1001
0000
0201
0000
0310
0000
,
1100
0101
1100
0000
1002
0000
0013
0000
,
0100
1000
0100
1000
0100
1000
0001
0100
0010
0000
0000
0000
0110
0000
0000
1000
,
0100
0000
0001
0100
0000
0100
1000
0000
0010
0000
0000
0000
0110
0000
0000
0001
,
0100
0000
1000
0100
0000
0100
0001
0000
0010
0000
0000
0000
0010
0000
0100
1000
,
0010
0000
0100
0000
0010
0000
0100
0001
0010
0000
0100
0000
1000
0001
1000
0010
,
0100
0001
1000
0001
0010
0100
1000
0001
2000
0000
0000
3010
0100
0000
0001
1000
,
0100
1000
0001
0000
0010
0000
0000
0000
0020
0000
0100
0000
0031
0000
1000
0010
,
0100
0010
1000
0000
0001
0000
0000
0000
0002
0000
0000
0013
0100
0000
1000
0001
,
0100
0001
1000
0000
0010
0000
0000
0000
0020
0000
1000
0000
0031
0000
0010
1000
,
0100
0010
0001
0000
1000
0000
0000
0000
1002
0000
0000
0000
0103
0000
0010
1000
,
0100
0001
1000
0010
0100
1000
0001
0000
2001
0000
0000
0000
3010
0000
0100
0001
,
0010
1000
0001
0100
0010
0001
1000
0000
2001
0000
0000
0000
3010
0000
0001
0010
,
1000
0100
0010
0001
1000
0010
0100
0000
0010
0100
0010
0100
0001
1000
0100
0010
,
0001
0000
1000
0010
0100
0000
0001
0100
0000
0100
0010
0000
1000
0100
0001
0200
,
0020
0000
0000
0000
,
0330
0000
0000
0000
;

//---------------dance-single - Talkion-CSP----------------
#NOTES:
     dance-single:
     Talkion:
     Challenge:
     17:
     0.779951,0.839020,0.454971,0.223025,0.883179,612,561,51,25,0,0,0.779951,0.839020,0.454971,0.223025,0.883179,612,561,51,25,0,0:
0000
0000
0000
0000
,
1001
0000
0002
0010
0000
0013
0100
0000
0200
1000
0000
1300
0010
0000
0020
0001
,
0000
0031
0100
0000
0200
1000
0000
1300
0010
0000
0020
0100
0000
0130
0001
0000
,
1001
0000
2000
0100
0000
3100
0010
0000
0020
0001
0000
0031
0100
0000
0200
1000
,
0000
1300
0010
0000
0020
0001
0000
0031
0100
0000
0200
0010
0000
0310
1000
0000
,
0001
0010
0100
2000
0000
0000
0000
0000
0001
0000
0000
0001
0000
0000
3010
0100
,
0010
1000
0100
0020
0000
0000
0000
0000
1000
0000
0000
0001
0000
0000
0130
0000
,
1000
0010
0100
0002
0000
0000
0000
0000
1000
0000
0000
1000
0000
0000
0013
0100
,
0010
0000
0001
0000
0100
0000
0020
0000
0000
0000
0000
0000
0000
0000
0000
0000
1000
0000
0000
0000
1030
0000
0000
0000
0001
0000
1000
0000
0001
1000
0001
1000
,
0001
0000
0010
0000
0001
0100
0000
0010
0100
0010
0100
0000
1000
0000
0100
0001
,
0100
0000
0010
0000
1000
0001
0000
1000
0100
0010
0001
0000
1001
0000
0000
0000
,
1000
0000
0010
0000
1000
0100
0000
0010
0100
0010
0100
0000
0001
0000
0100
1000
,
0100
0000
0010
0000
0001
1000
0000
0001
0100
0010
1000
0000
1001
0000
0000
0000
,
0001
0000
0010
0000
1000
0010
0000
0100
0010
0100
0010
0000
0001
0000
1000
0010
,
0001
0000
0010
0000
0100
0001
0000
1000
0100
0010
0001
0000
1001
0000
0000
0000
,
1000
1000
0010
0010
0100
0100
0001
0001
,
1000
0100
0010
0001
1000
0010
0100
1000
0001
0010
1000
0001
1000
0001
0010
0100
,
1000
0000
0000
0000
1010
0000
0100
0000
1001
0000
0001
0000
0010
0100
1000
0100
,
0010
0000
0001
0100
0010
0000
0100
0000
1000
0100
1000
0100
0001
0000
0100
0010
,
1000
0000
0000
0000
1100
0000
0010
0000
1001
0000
0001
0000
0100
0010
1000
0010
,
0100
0000
0001
0010
0100
0000
0010
0000
1000
0010
1000
0010
0001
0000
1000
0010
,
0100
0000
0000
0000
0101
0000
0010
0000
1100
0000
1000
0000
0001
0100
0010
1000
,
0001
0000
0010
0100
0010
0000
1000
0000
0001
0100
0001
0100
1000
0000
0001
1000
,
0100
0000
0000
0000
1100
0000
0010
0000
0101
0000
0001
0000
1000
0100
0010
0001
,
1000
0010
0001
0010
0100
0000
1000
0100
0001
0010
0100
0000
1001
0000
0000
0000
,
0001
0100
0010
1000
0200
0000
0000
0000
0001
0000
0301
0000
0000
0000
0101
0000
,
0000
1100
0000
1001
1001
0000
0101
0000
,
1010
0110
1010
0000
1001
0000
1100
0000
,
0011
0000
0110
0000
0011
0000
0000
0000
1000
0010
0100
0002
0000
0000
0000
0000
,
0010
0010
0000
0100
0000
0010
0000
0100
0103
0000
0000
0000
0110
0000
0000
0000
,
1001
0000
1100
0000
1001
0000
0000
0000
0001
0100
0010
0000
1000
0100
0010
0000
,
0001
0100
0010
1000
0100
0001
0100
0010
0001
0000
0100
0000
0100
0000
1000
0100
,
0010
0100
1000
0000
0010
0000
0100
0001
0010
0000
0100
0000
0100
0000
0001
0100
,
1000
0100
0001
0000
1000
0000
0100
0010
0001
0000
0100
0000
0100
0000
1000
0100
,
0001
0100
1000
0000
0010
0000
0001
0010
0100
0000
0001
0010
0100
0000
0001
0100
,
1000
0010
0100
0010
0100
0000
0000
0000
0100
0000
0010
0000
0010
0000
0001
0010
,
0100
0010
0001
0000
1000
0000
0010
1000
0100
0000
0010
0000
0010
0000
1000
0010
,
0001
0010
1000
0000
0001
0000
0010
0100
1000
0000
0010
0000
0010
0000
0001
0010
,
1000
0010
0001
0000
1000
0100
0010
0001
1000
0010
0001
0010
0100
0000
1000
0001
,
0010
1000
0100
0000
1001
0000
0000
0000
0011
0000
0000
0000
0110
0000
0000
0000
,
1100
1010
1100
0000
1010
0000
0110
0000
,
0101
0011
0101
0000
0011
0000
1010
0000
,
0011
0000
1010
0000
0011
0000
0000
0000
1000
0100
0010
0000
0001
0100
0010
0000
,
1000
0100
0010
0001
0100
0010
0100
0010
1000
0000
0010
1000
0100
0000
0010
0001
,
0100
0000
0010
1000
0000
0100
0010
0000
0100
0000
1000
0010
0001
0000
1000
0100
,
0001
0000
1000
0100
0000
0010
0001
0000
1000
0010
0100
0001
1000
0001
0010
0100
,
1000
0001
1000
0010
0001
0010
1000
0010
0001
0010
0100
0001
1000
0001
0010
1000
,
0001
0100
0010
0001
1000
0001
0100
0010
2000
0000
0000
3100
0010
0000
0001
0100
,
0010
0100
0001
0000
0010
0000
0000
0000
0020
0000
1000
0000
0031
0000
0100
0010
,
1000
0010
0100
0000
0001
0000
0000
0000
0002
0000
0000
0013
0100
0000
1000
0010
,
0100
0010
1000
0000
0100
0000
0000
0000
0200
0000
0001
0000
1300
0000
0010
0001
,
0010
1000
0010
0000
0100
0000
0000
0000
1002
0000
0000
0010
0013
0000
0100
0001
,
1000
0010
0001
1000
0001
0100
0010
0000
2001
0000
0000
0100
3100
0000
0010
1000
,
0001
0100
1000
0001
1000
0010
0100
0000
1002
0000
0000
1000
1003
0000
0001
0010
,
0100
0001
1000
0010
0100
1000
0001
0000
0100
0010
0100
0010
1000
0001
1000
0001
,
0010
0100
1000
0010
0100
0001
0010
1000
0010
0100
1000
0001
0100
0010
0100
0010
,
0220
0000
0000
0000
,
0330
0000
0000
0000
;

//---------------dance-double - Talkion-BDP----------------
#NOTES:
     dance-double:
     Talkion:
     Easy:
     9:
     0.349194,0.406798,0.107052,0.267630,0.084750,274,262,12,30,0,0,0.349194,0.406798,0.107052,0.267630,0.084750,274,262,12,30,0,0:
// measure 0
00000000
00000000
00000000
00000000
,  // measure 1
00000001
00000000
00000000
00000001
00000000
00000000
00000010
00000000
00000000
00000010
00000000
00000000
00000100
00000000
00000000
00000100
,  // measure 2
00000000
00000000
00010000
00000000
00000000
00010000
00000000
00000000
00002000
00000000
00000000
00000000
00003000
00000000
00000000
00000000
,  // measure 3
00100000
00000000
00000000
00100000
00000000
00000000
00010000
00000000
00000000
00010000
00000000
00000000
01000000
00000000
00000000
01000000
,  // measure 4
00000000
00000000
00100000
00000000
00000000
00100000
00000000
00000000
00020000
00000000
00000000
00000000
00030000
00000000
00000000
00000000
,  // measure 5
00002000
00000000
00000000
00003020
00000000
00000000
00000000
00000000
00000000
00000000
00000000
00000000
00000000
00000000
00000001
00000000
,  // measure 6
00000032
00000000
00000000
00000203
00000000
00000000
00000000
00000000
00001000
00000000
00000000
00001000
00000000
00000000
00001300
00000000
,  // measure 7
00020000
00000000
00000000
02030000
00000000
00000000
00000000
00000000
00000000
00000000
00000000
00000000
00000000
00000000
10000000
00000000
,  // measure 8
23000000
00000000
00000000
30200000
00000000
00000000
00000000
00000000
00010000
00000000
00010000
00000000
00310000
00000000
00000000
00000000
,  // measure 9
00002000
00010000
00010000
00013000
,  // measure 10
00000020
00000100
00000100
00000130
,  // measure 11
00002000
00010000
00010000
00013000
,  // measure 12
02000000
00100000
00100000
03100000
,  // measure 13
00002000
00010000
00000100
00013000
,  // measure 14
00000200
00000010
00001000
00000301
,  // measure 15
00000100
00001000
00000100
00000000
00010000
00001000
00010000
00000000
,  // measure 16
00001000
00100000
00001000
00100000
00001000
00100000
00010000
00000000
,  // measure 17
10000000
00000000
11000000
00100000
,  // measure 18
00001000
00010000
00001000
00000000
00011000
00000000
00000000
00000000
,  // measure 19
00000010
00000000
00001010
00000001
,  // measure 20
00001000
00000010
00001000
00000010
00010000
00000000
00001000
00000000
,  // measure 21
00100000
00000000
00110000
10000000
,  // measure 22
01000000
00100000
01000000
00000000
01100000
00000000
00000000
00000000
,  // measure 23
00010000
00000000
00110000
00001000
,  // measure 24
00010000
00000100
00010000
00000100
00001000
00000000
00000001
00000000
,  // measure 25
00000200
00000000
00000000
00000000
00000010
00000010
00000000
00001000
,  // measure 26
00000000
00001000
00000000
00002300
00000000
00000000
00013000
00000000
,  // measure 27
00001000
00001000
00001000
00000000
00100000
00000000
00010000
00000000
,  // measure 28
00100000
00100000
00100000
00000000
00020000
00000000
00000000
00000000
,  // measure 29
01000000
01000000
00000000
00100000
00000000
00100000
00000000
00230000
00000000
00000000
00000000
00000000
00301000
00000000
00000000
00000000
,  // measure 30
00100000
00100000
00100000
00000000
00001000
00000000
00010000
00000000
,  // measure 31
00001000
00001000
00001000
00000000
00000100
00000000
00000010
00000000
,  // measure 32
00000100
00000001
00000100
00000000
00001000
00000000
00010000
00000000
,  // measure 33
00001000
00010000
00001000
00000000
00200000
00000000
00000000
02300000
,  // measure 34
00000000
00000000
10000000
13000000
,  // measure 35
00010000
01000000
00100000
00000000
01000000
00000000
00100000
00000000
,  // measure 36
01000000
00010000
01000000
00000000
00001000
00000000
00010000
00000000
,  // measure 37
00001000
00010000
00001000
00000000
00000020
00000000
00000000
00000230
,  // measure 38
00000000
00000000
00001000
00001300
,  // measure 39
00000001
00000100
00001000
00000100
00000001
00000000
00001000
00000000
,  // measure 40
00000100
00000100
00000100
00000000
00010000
00000000
00001000
00000000
,  // measure 41
00100000
00100000
00100000
00000000
00010000
00000000
01000000
00000000
,  // measure 42
10000000
10000000
10000000
00000000
01000000
00000000
00010000
00100000
,  // measure 43
01000000
00100000
00010000
00000000
00100000
00000000
00101000
00000000
,  // measure 44
00010000
00000000
00000000
00010000
00000000
00000000
00010000
00000000
00001000
00000000
00000000
00000000
00010100
00000000
00000000
00000000
,  // measure 45
00001000
00000000
00000000
00001000
00000000
00000000
00001000
00000000
00000001
00000000
00000000
00000000
00001001
00000000
00000000
00000000
,  // measure 46
00000010
00000001
00000010
00000000
00000100
00010000
00000100
00010000
,  // measure 47
00001000
00100000
00001000
00100000
00020000
00000000
01030000
00000000
,  // measure 48
00100000
00100000
10000000
00000000
02000000
00000000
03010000
00000000
,  // measure 49
00001000
00001000
00010000
00000000
00002000
00000000
00003100
00000000
,  // measure 50
00000001
00000001
00001000
00000000
00000002
00000000
00000013
00000000
,  // measure 51
00001000
00001000
00010000
00000000
00011000
00000000
00100000
00010000
,  // measure 52
01000000
00010000
00100000
00000000
00011000
00000000
00000010
00001000
,  // measure 53
00000100
00001000
00000010
00000000
00011000
00000000
00100000
00010000
,  // measure 54
01000000
00100000
10000000
00000000
01000000
01000000
00100000
00100000
,  // measure 55
00002000
00000000
00013000
00001000
00000100
00000001
00000010
00001000
,  // measure 56
00020000
00000000
00000000
00000000
,  // measure 57
00030000
00000000
00000000
00000000
;

//---------------dance-double - Talkion-DDP----------------
#NOTES:
     dance-double:
     Talkion:
     Medium:
     12:
     0.491930,0.533922,0.338998,0.249788,0.209644,386,348,38,28,0,0,0.491930,0.533922,0.338998,0.249788,0.209644,386,348,38,28,0,0:
// measure 0
00000000
00000000
00000000
00000000
,  // measure 1
10000000
00000000
00000000
01000000
00000000
00000000
00010000
00000000
00000000
00001000
00000000
00000000
00010000
00000000
00000000
00100000
,  // measure 2
00000000
00000000
00010000
00000000
00000000
00001000
00000000
00000000
00000020
00000000
00000000
00000002
00000000
00000033
00000000
00000000
,  // measure 3
00000001
00000000
00000000
00000100
00000000
00000000
00001000
00000000
00000000
00010000
00000000
00000000
00001000
00000000
00000000
00000010
,  // measure 4
00000000
00000000
00001000
00000000
00000000
00010000
00000000
00000000
00200000
00000000
00000000
20000000
00000000
30300000
00000000
00000000
,  // measure 5
10000000
01000000
00100000
00002000
00000000
00000000
00000000
00000000
00010000
00000000
00000000
00010000
00000000
00000000
00003100
00000000
,  // measure 6
00000001
00000010
00000100
00020000
00000000
00000000
00000000
00000000
00001000
00000000
00000000
00001000
00000000
00000000
00130000
00000000
,  // measure 7
10000000
01000000
10000000
00020000
00000000
00000000
00000000
00000000
00100000
00000000
00000000
00100000
00000000
00000000
00031000
00000000
,  // measure 8
00000100
00001000
00000001
00002000
00000000
00000000
00000000
00000000
00000010
00000000
00000010
00000000
00003020
00000000
00000000
00000000
,  // measure 9
00000130
00000000
00000100
00000000
00001000
00010000
01000000
00010000
,  // measure 10
00001000
00000000
00001000
00000000
00100000
00010000
00001000
00010000
,  // measure 11
00100000
00000000
00100000
00000000
01000000
10000000
00100000
10000000
,  // measure 12
01000000
00000000
01000000
00000000
00010000
00001000
00000100
00001000
,  // measure 13
00010000
00000000
00010000
00000000
00000100
00001000
00000010
00001000
,  // measure 14
00000100
00000000
00000100
00000000
00000010
00001000
00010000
00001000
,  // measure 15
00000010
00000001
00000010
00000001
00000100
00001000
00010000
00001000
,  // measure 16
00010000
00010000
00001000
00001000
00100000
01000000
01100000
00000000
,  // measure 17
10000000
00000000
00010000
01010000
00000000
00010000
00100000
00101000
,  // measure 18
00000000
00001000
00011000
00000000
00000100
00000100
00000100
00000000
,  // measure 19
00000010
00000000
00000001
00001001
00000000
00001000
00000100
00010100
,  // measure 20
00000000
00010000
00011000
00000000
00100000
00100000
00100000
00000000
,  // measure 21
00010000
00000000
01000000
01100000
00000000
00100000
00010000
00011000
,  // measure 22
00000000
00001000
00001010
00000000
00000100
00000100
00000100
00000000
,  // measure 23
00001000
00000000
00000010
00000110
00000000
00000100
00001100
00000000
,  // measure 24
00001000
00010000
01000000
10000000
00100000
00010000
00001000
00000000
,  // measure 25
00010000
01000000
10000000
01000000
00020000
00000000
00000000
00000000
00000100
00000000
00030100
00000000
00000000
00000000
00000110
00000000
,  // measure 26
00000000
00001001
00000000
00000101
00000201
00000000
00000010
00000000
,  // measure 27
00001000
00001000
00001300
00000000
00021000
00000000
01000000
00000000
,  // measure 28
00001000
00000000
00001000
00000000
00031000
00000000
00000000
00000000
00010000
00001000
00000010
00000002
00000000
00000000
00000000
00000000
,  // measure 29
00000100
00000100
00000000
00001000
00000000
00001000
00000000
00000010
00000013
00000000
00000000
00000000
00000110
00000000
00000000
00000000
,  // measure 30
00001000
00001000
00001000
00000000
00000100
00000000
00011000
00000000
,  // measure 31
00100000
00100000
00100000
00000000
00010000
01000000
00100000
10100000
,  // measure 32
00000000
11000000
00000000
01010000
00000000
00011000
00000000
00001100
,  // measure 33
00000000
00000001
00000010
00000100
00010000
00001000
00000100
00000020
,  // measure 34
00000000
00001000
00001030
00000000
00000100
00000010
00001000
00010000
,  // measure 35
00100000
01000000
01100000
00000000
00010000
00100000
01000000
11000000
,  // measure 36
00000000
10100000
00000000
00110000
00000000
00011000
00000000
00001010
,  // measure 37
00000000
00000001
00000100
00000010
00010000
00001000
00000010
00000200
,  // measure 38
00000000
00001000
00001300
00000000
00000001
00000010
00001000
00010000
,  // measure 39
01000000
10000000
00010000
00000000
21000000
00000000
00100000
00000000
,  // measure 40
00010000
00010000
30010000
00000000
00102000
00000000
00010000
00000000
,  // measure 41
00000100
00000100
00003100
00000000
00001002
00000000
00000010
00000000
,  // measure 42
00000100
00000100
00000103
00000000
00000001
00000010
00000100
00001000
,  // measure 43
00010000
00100000
01000000
10000000
00010000
00000000
00101000
00000000
,  // measure 44
00010000
00000000
00000000
00010000
00000000
00000000
00010000
00000000
00001000
00000000
00000000
00000000
00000110
00000000
00000000
00000000
,  // measure 45
00000001
00000000
00000000
00000001
00000000
00000000
00000001
00000000
00001000
00000000
00000000
00000000
00000001
00000000
00000010
00000000
,  // measure 46
00001000
00100000
00010000
00001000
00010000
00100000
00001000
01000000
,  // measure 47
00010000
00000000
00000100
00000000
00000010
00000000
00001000
00000000
00000200
00000000
00000000
00000000
00000310
00000000
00000001
00001000
,  // measure 48
00000001
00000000
00000100
00000000
00000100
00000000
00000000
00000000
00002000
00000000
00000000
00000000
00013000
00000000
01000000
00010000
,  // measure 49
01000000
00000000
00100000
00000000
00100000
00000000
00000000
00000000
00020000
00000000
00000000
00000000
10030000
00000000
00100000
01000000
,  // measure 50
00100000
00000000
10000000
00000000
10000000
00000000
00000000
00000000
02000000
00000000
00000000
00000000
03010000
00000000
00001000
00010000
,  // measure 51
00001000
00000000
00000100
00000000
00000100
00000000
00000000
00000000
00001002
00000000
00000000
00000000
00000013
00000000
00000100
00010000
,  // measure 52
00000100
00010000
00001000
00000000
00010000
00000000
00000000
00000000
00012000
00000000
00000000
00000000
00103000
00000000
00010000
01000000
,  // measure 53
00010000
01000000
00100000
00000000
10000000
00000000
00000000
00000000
20010000
00000000
00000000
00000000
31000000
00000000
00100000
00001000
,  // measure 54
00100000
00001000
00010000
00000000
00001000
00000000
00000000
00000000
00000100
00000010
00000100
00000000
00000001
00001000
00000001
00001000
,  // measure 55
00000200
00000000
00000000
00000000
00010300
00000000
00001000
00010000
00000000
00000000
00010000
00000000
00100000
01000000
00100000
02000000
,  // measure 56
00200000
00000000
00000000
00000000
,  // measure 57
03300000
00000000
00000000
00000000
;

//---------------dance-double - Talkion-EDP----------------
#NOTES:
     dance-double:
     Talkion:
     Hard:
     15:
     0.630843,0.686471,0.463892,0.401445,0.521879,495,443,52,45,0,0,0.630843,0.686471,0.463892,0.401445,0.521879,495,443,52,45,0,0:
// measure 0
00000000
00000000
00000000
00000000
,  // measure 1
00021000
00000000
00000000
02030000
00000000
00000000
23000000
00000000
00000000
30200000
00000000
00000000
00320000
00000000
00000000
00030020
,  // measure 2
00000000
00000000
00002030
00000000
00000000
00023000
00000000
00000000
00230000
00000000
00000000
00302000
00000000
00013000
00000000
00000000
,  // measure 3
00012000
00000000
00000000
00003020
00000000
00000000
00000032
00000000
00000000
00000203
00000000
00000000
00002300
00000000
00000000
02003000
,  // measure 4
00000000
00000000
03020000
00000000
00000000
00032000
00000000
00000000
00003200
00000000
00000000
00020300
00000000
00031000
00000000
00000000
,  // measure 5
00100000
00010000
10000000
00200000
00000000
00000000
00000000
00000000
01000000
00000000
00000000
01000000
00000000
00000000
00310000
00000000
,  // measure 6
00000100
00001000
00000001
00000200
00000000
00000000
00000000
00000000
00000010
00000000
00000000
00000001
00000000
00000000
00001300
00000000
,  // measure 7
00010000
01000000
00100000
00002000
00000000
00000000
00000000
00000000
00010000
00000000
00000000
00010000
00000000
00000000
00103000
00000000
,  // measure 8
00010000
10000000
00100000
00020000
00000000
00000000
00000000
00000000
00001000
00000000
00031000
00000000
00010000
00001000
00010000
00000000
,  // measure 9
00000100
00000000
00000010
00000000
00000100
00001000
00000000
00000100
00001000
00000000
00000001
00000000
00000100
00000000
00000000
00000000
,  // measure 10
00000100
00000000
00001000
00000000
00010000
01000000
00000000
00010000
01000000
00000000
00100000
00000000
00001000
00000000
00000000
00000000
,  // measure 11
00001000
00000000
00100000
00000000
00010000
01000000
00000000
00010000
01000000
00000000
00100000
00000000
10000000
00000000
00000000
00000000
,  // measure 12
10000000
00000000
01000000
00000000
00010000
00001000
00000000
00010000
00001000
00000000
00000100
00000000
00000010
00000000
00000000
00000000
,  // measure 13
00000010
00000000
00001000
00000000
00000001
00000010
00000000
00000001
00000010
00000000
00001000
00000000
00010000
00000000
00000000
00000000
,  // measure 14
00010000
00000000
00001000
00000000
00100000
00010000
00000000
00100000
00010000
00000000
01000000
00000000
00100000
00000000
00000000
00000000
,  // measure 15
00100000
00100000
10000000
01000000
00100000
00010000
00001000
00000100
,  // measure 16
00000010
00000001
00000010
00000000
00000001
00001000
00000001
00000000
00001000
00000010
00001000
00000010
00010000
00001000
00010000
00001000
,  // measure 17
00100000
00000000
00110000
01000000
00100000
01100000
10010000
00000000
,  // measure 18
00010000
00000000
00000000
00000000
00101000
00000000
00010000
00000000
00001000
00010000
00001000
00010000
00000100
00000000
00000000
00000000
,  // measure 19
00001000
00000000
00001010
00000100
00000010
00000110
00001001
00000000
,  // measure 20
00000001
00000010
00001000
00020000
00130000
20000000
30100000
00010000
,  // measure 21
00001000
00000000
00011000
00000100
00001000
00001010
00000101
00000000
,  // measure 22
00000001
00000000
00000000
00000000
00001001
00000000
00000100
00000000
00010000
00001000
00010000
00001000
00100000
00000000
00000000
00000000
,  // measure 23
00001000
00000000
00011000
00100000
00010000
01010000
10100000
00000000
,  // measure 24
10000000
01000000
00100000
00010000
01000000
00000000
00001000
00100000
00010000
00100000
00001000
00000000
00020000
00000000
00000000
00000000
,  // measure 25
00030100
00001000
00000001
00000100
00000020
00000000
00000000
00000000
00001000
00000000
00001030
00000000
00000000
00000000
00010100
00000000
,  // measure 26
00000000
00101000
00000000
10010000
20010000
00000000
31000000
00000000
,  // measure 27
00110000
00011000
00110000
00000000
00002100
00000000
00003010
00000000
,  // measure 28
00000101
00000000
00001100
00000000
00000101
00000000
00000000
00000000
00000010
00001000
00000100
00000020
00000000
00000000
00000000
00000000
,  // measure 29
00001000
00001000
00000000
00000100
00000000
00000001
00000000
00000100
00000130
00000000
00000000
00000000
00011000
00000000
00000000
00000000
,  // measure 30
00101000
00110000
00101000
00000000
20010000
00000000
30100000
00000000
,  // measure 31
01000000
00010000
01000000
00010000
20000000
00000000
00000000
00000000
31000000
00000000
00010000
00000000
00001000
00000000
00010000
00100000
,  // measure 32
00010000
00000000
00100000
00000000
01000000
00000000
00001000
00000000
00010000
00000000
01000000
00000000
00010000
00000000
00001000
00010000
,  // measure 33
00001000
00000000
00000100
00000000
00000001
00000000
00001000
00000000
00000001
00000000
00000010
00000000
00000100
00000000
00010000
00001000
,  // measure 34
00020000
00000000
00000000
00000000
00100000
00000000
00000000
00000000
00001000
00000000
00000000
00000000
01030000
00000000
10000000
00010000
,  // measure 35
01000000
00000000
00100000
00000000
01100000
00000000
00000000
00000000
01000000
00000000
00001000
00000000
00010000
00000000
01000000
00010000
,  // measure 36
01000000
00000000
00100000
00000000
00001000
00000000
00010000
00000000
00100000
00000000
00010000
00000000
00001000
00000000
00000010
00001000
,  // measure 37
00000010
00000000
00000100
00000000
00001000
00000000
00000001
00000000
00000100
00000000
00001000
00000000
00010000
00000000
00100000
01000000
,  // measure 38
00200000
00000000
00000000
00000000
00010000
00000000
00000000
00000000
10300000
01000000
00100000
00010000
01000000
00000000
00001000
00100000
,  // measure 39
00010000
00100000
00001000
00000000
00020000
00000000
00000000
00000000
00030100
00000000
00000000
00000000
00000110
00000000
00000000
00000000
,  // measure 40
00001001
00000101
00001001
00000000
00010100
00000000
00011000
00000000
,  // measure 41
01100000
01010000
01100000
00000000
10010000
00000000
11000000
00000000
,  // measure 42
00110000
01100000
00110000
00000000
00001000
00010000
00000100
00001000
,  // measure 43
00000001
00000100
00000001
00000100
00000001
00000100
00000010
00010000
00001000
00000000
00000000
00000000
00011000
00000000
00000000
00100000
,  // measure 44
00010000
00000000
10000000
00100000
00000000
00100000
00010000
00000000
00001000
00000000
00000000
00000000
00011000
00000000
00000000
00000010
,  // measure 45
00001000
00000000
00000001
00000010
00000000
00000010
00001000
00000000
00010000
00000000
00000000
00000000
00010000
00000000
01000000
00100000
,  // measure 46
01000000
00000000
00010000
00000000
00001000
00000000
00000100
00000010
00000100
00000000
00001000
00000000
00010000
01000000
00010000
01000000
,  // measure 47
00100000
00010000
10000000
00100000
10000000
00010000
00100000
00001000
00020000
00000000
00000000
00030100
00001000
00000000
00000001
00000100
,  // measure 48
00000001
00000100
00000010
00000000
00010000
00000000
00000000
00000000
00020000
00000000
00001000
00000000
00130000
00000000
10000000
00100000
,  // measure 49
10000000
00100000
01000000
00000000
00001000
00000000
00000000
00000000
00020000
00000000
00000000
00030100
00000010
00000000
00000001
00000100
,  // measure 50
00000001
00000100
00001000
00000000
00010000
00000000
00000000
00000000
00020000
00000000
00001000
00000000
00130000
00000000
10000000
00100000
,  // measure 51
10000000
00100000
00010000
00000000
00001000
00000000
00000000
00000000
00012000
00000000
00000000
00000000
00003100
00000000
00000001
00000100
,  // measure 52
00001000
01000000
00100000
01000000
00001000
00000000
00010000
00000000
00021000
00000000
00000000
00000000
01030000
00000000
10000000
01000000
,  // measure 53
00010000
00000100
00000010
00000100
00010000
00000000
00001000
00000000
00012000
00000000
00000000
00000000
00003100
00000000
00000001
00000010
,  // measure 54
00000100
00001000
00010000
00100000
01000000
00000000
00100000
00000000
00010000
10000000
00010000
10000000
00100000
01000000
00100000
01000000
,  // measure 55
00010000
00000000
00100000
00001000
00010000
00000000
00000010
00001000
00000000
00001000
00010000
00000000
00001000
00000010
00001000
00000020
,  // measure 56
00000200
00000000
00000000
00000000
,  // measure 57
00000330
00000000
00000000
00000000
;

//---------------dance-double - Talkion-CDP----------------
#NOTES:
     dance-double:
     Talkion:
     Challenge:
     17:
     0.749364,0.813596,0.419287,0.223025,0.780588,588,541,47,25,0,0,0.749364,0.813596,0.419287,0.223025,0.780588,588,541,47,25,0,0:
// measure 0
00000000
00000000
00000000
00000000
,  // measure 1
00011000
00000000
00002000
00000100
00000000
00003100
00000001
00000000
00000002
00000010
00000000
00000013
00001000
00000000
00002000
00100000
,  // measure 2
00000000
00103000
00010000
00000000
00020000
10000000
00000000
10030000
00100000
00000000
00200000
00010000
00000000
00310000
00001000
00000000
,  // measure 3
00011000
00000000
00020000
01000000
00000000
01030000
10000000
00000000
20000000
00100000
00000000
30100000
00010000
00000000
00020000
00000010
,  // measure 4
00000000
00030010
00001000
00000000
00002000
00000001
00000000
00003001
00000010
00000000
00000020
00001000
00000000
00001030
00010000
00000000
,  // measure 5
00001000
00010000
00100000
02000000
00000000
00000000
00000000
00000000
00010000
00000000
00000000
00010000
00000000
00000000
03100000
00000000
,  // measure 6
00010000
00001000
00000100
00000020
00000000
00000000
00000000
00000000
00001000
00000000
00000000
00001000
00000000
00000000
00000130
00000000
,  // measure 7
00001000
00010000
01000000
00200000
00000000
00000000
00000000
00000000
00010000
00000000
00000000
00010000
00000000
00000000
01300000
00000000
,  // measure 8
00010000
00000000
00001000
00000000
00000010
00000000
00000200
00000000
00000000
00000000
00000000
00000000
00000000
00000000
00000000
00000000
00010000
00000000
00000000
00000000
00010300
00000000
00000000
00000000
00001000
00000000
00100000
00000000
00001000
00100000
00001000
00100000
,  // measure 9
00001000
00000000
01000000
00000000
00100000
10000000
00000000
00100000
10000000
01000000
00100000
00000000
00001000
00000000
00000010
00000000
,  // measure 10
00000001
00000000
00000100
00000000
00000010
00001000
00000000
00000010
00001000
00000100
00010000
00000000
00011000
00000000
00000000
00000000
,  // measure 11
00010000
00000000
00000010
00000000
00000100
00000001
00000000
00000100
00000001
00000010
00000100
00000000
00010000
00000000
01000000
00000000
,  // measure 12
10000000
00000000
00100000
00000000
01000000
00010000
00000000
01000000
00010000
00100000
00001000
00000000
00011000
00000000
00000000
00000000
,  // measure 13
00001000
00000000
00100000
00000000
00010000
01000000
00000000
10000000
01000000
00010000
10000000
00000000
01000000
00000000
00001000
00000000
,  // measure 14
00000100
00000000
00000010
00000000
00000001
00001000
00000000
00000010
00000100
00001000
00010000
00000000
00001000
00000000
00000010
00000000
,  // measure 15
00000001
00000001
00000100
00000100
00001000
00001000
00010000
00010000
,  // measure 16
00100000
10000000
01000000
00000000
00100000
00010000
00001000
00000000
00000100
00000010
00000100
00000010
00000001
00000100
00000010
00001000
,  // measure 17
00000100
00000000
00000000
00000000
00000011
00000000
00000100
00000000
00010000
00000000
01000000
00000000
00100000
00010000
10000000
00010000
,  // measure 18
00100000
00000000
01000000
10000000
00100000
00000000
00010000
00000000
00001000
00010000
00001000
00010000
01000000
00000000
00010000
00000000
,  // measure 19
00001000
00000000
00000000
00000000
00010100
00000000
00001000
00000000
00000001
00000000
00000100
00000000
00000010
00001000
00000001
00001000
,  // measure 20
00000010
00000000
00000100
00001000
00010000
00000000
00001000
00000000
00000010
00001000
00000010
00001000
00010000
00000000
00001000
00100000
,  // measure 21
00010000
00000000
00000000
00000000
11000000
00000000
00100000
00000000
00001000
00000000
00000010
00000000
00000100
00001000
00000001
00001000
,  // measure 22
00000100
00000000
00000010
00000001
00000100
00000000
00001000
00000000
00010000
00001000
00010000
00001000
00000010
00000000
00001000
00000000
,  // measure 23
00010000
00000000
00000000
00000000
00101000
00000000
00010000
00000000
10000000
00000000
00100000
00000000
01000000
00010000
10000000
00010000
,  // measure 24
01000000
00100000
00010000
00001000
00010000
00000000
00001000
00010000
00001000
00000010
00000100
00000000
00001001
00000000
00000000
00000000
,  // measure 25
00000001
00000010
00001000
00010000
00200000
00000000
00000000
00000000
10000000
00000000
10300000
00000000
00000000
00000000
11000000
00000000
,  // measure 26
00000000
01010000
00000000
00011000
00011000
00000000
00001001
00000000
,  // measure 27
00011000
00001100
00000110
00000000
00011000
00000000
10010000
00000000
,  // measure 28
00011000
00000000
01010000
00000000
01100000
00000000
00000000
00000000
10000000
01000000
00010000
00002000
00000000
00000000
00000000
00000000
,  // measure 29
00000100
00000100
00000000
00010000
00000000
00000001
00000000
00010000
00013000
00000000
00000000
00000000
00011000
00000000
00000000
00000000
,  // measure 30
00001100
00000101
00001100
00000000
00011000
00000000
10010000
00000000
,  // measure 31
10000000
01000000
00100000
00001000
00010000
00000100
00000010
00000001
00001000
00000000
00000010
00000000
00000001
00000000
00000010
00001000
,  // measure 32
00010000
00000000
00001000
00000000
00000100
00000000
00000010
00000100
00001000
00000000
01000000
00000000
00100000
00000000
00010000
10000000
,  // measure 33
00100000
00000000
00010000
00000000
00000010
00000000
00001000
00000100
00000010
00000000
00000001
00000000
00000010
00000000
00001000
00010000
,  // measure 34
00100000
00000000
00010000
00000000
00001000
00000000
00010000
01000000
10000000
00000000
00010000
01000000
10000000
00000000
01000000
00010000
,  // measure 35
00100000
00001000
00010000
00001000
00100000
00000000
00000000
00000000
00010000
00000000
01000000
00000000
10000000
00000000
01000000
00010000
,  // measure 36
00001000
00000000
00010000
00000000
00100000
00000000
01000000
00100000
00010000
00000000
00000010
00000000
00000100
00000000
00001000
00000001
,  // measure 37
00000100
00000000
00001000
00000000
01000000
00000000
00010000
00100000
01000000
00000000
10000000
00000000
01000000
00000000
00010000
00001000
,  // measure 38
00000100
00000000
00001000
00000000
00010000
00000000
00001000
00000010
00000001
00000010
00001000
00010000
00001000
00000000
00010000
00100000
,  // measure 39
10000000
00010000
10000000
00000000
01100000
00000000
00000000
00000000
00011000
00000000
00000000
00000000
00001001
00000000
00000000
00000000
,  // measure 40
00011000
00001010
00000110
00000000
00011000
00000000
10010000
00000000
,  // measure 41
00011000
00110000
01100000
00000000
00011000
00000000
00001001
00000000
,  // measure 42
00000011
00000110
00001100
00000000
00010000
01000000
10000000
00100000
,  // measure 43
00010000
00001000
00010000
00000100
00001000
00000010
00000100
00000001
00000010
00000000
00001000
00010000
00001000
00000000
00100000
00010000
,  // measure 44
01000000
00000000
10000000
00010000
00000000
00100000
10000000
00000000
01000000
00000000
00010000
00001000
00010000
00000000
00000100
00001000
,  // measure 45
00000010
00000000
00000001
00001000
00000000
00000100
00000001
00000000
00000010
00000000
00001000
00000000
00100000
00000000
00010000
10000000
,  // measure 46
00010000
10000000
00100000
01000000
00010000
00100000
00001000
00010000
00000100
00001000
00000010
00000100
00000001
00000010
00001000
00000010
,  // measure 47
00000001
00000100
00001000
00000100
00000010
00010000
00001000
00010000
02000000
00000000
00000000
00100000
03100000
00000000
00010000
01000000
,  // measure 48
10000000
00010000
00001000
00000000
00000010
00000000
00000001
00000000
00000200
00000000
00001000
00000000
00000310
00000000
00001000
00000100
,  // measure 49
00000001
00001000
00010000
00000000
00100000
00000000
10000000
00000000
00020000
00000000
00000000
00100000
00130000
00000000
00001000
00010000
,  // measure 50
10000000
00010000
00001000
00000000
00000010
00000000
00000001
00000000
00002000
00000000
00000000
00000010
00003010
00000000
00010000
00001000
,  // measure 51
00000001
00001000
00010000
00000000
00100000
00000000
10000000
00000000
20010000
00000000
00000000
01000000
31000000
00000000
00010000
00000100
,  // measure 52
00000010
00000001
00001000
00010000
00001000
00000100
00000010
00000000
00001002
00000000
00000100
00000000
00000013
00000000
00001000
00100000
,  // measure 53
01000000
10000000
00010000
00001000
00010000
00100000
01000000
00000000
20010000
00000000
00000000
00010000
30010000
00000000
00001000
00000001
,  // measure 54
00000010
00001000
00010000
00100000
10000000
01000000
00010000
00000000
00001000
00010000
00001000
00010000
00000100
00001000
00000001
00000100
,  // measure 55
00000010
00000100
00000010
00001000
00010000
01000000
00100000
01000000
00100000
10000000
00010000
00100000
01000000
00100000
00001000
00020000
,  // measure 56
00002000
00000000
00000000
00000000
,  // measure 57
00033000
00000000
00000000
00000000
;
