#TITLE:QUANTUMFLUX;
#ARTIST:xRGTMx;
#ARTISTTRANSLIT:RGTM;
#BANNER:QUANTUMFLUX-bn.png;
#BACKGROUND:QUANTUMFLUX-bg.png;
#MUSIC:QUANTUMFLUX.ogg;
#OFFSET:0.864;
#SAMPLESTART:50.088;
#SAMPLELENGTH:15;
#BPMS:0=70,18=67.5,18.25=65,18.5=60,18.75=55,19=50,19.25=40,19.5=30,19.75=35,20.25=40,20.75=45,21.125=50,21.5=60,21.75=75,22=110,23=125,24=140,25=155,26=170,58=185,82=200,94=215,106=50,107=185,111=170,137.5=165,138=160,138.5=155,139=150,139.5=145,140=140,140.5=135,141=130,173=140,175=145,177=150,179=155,181=160,183=165,185=170,187=175,189=90,190=92.5,191=95,192=97.5,193=100,194=102.5,195=105,196=107.5,197=110,198=115,199=120,200=125,201=130,202=135,203=140,204=145,205=150,206=155,207=160,208=165,209=170,210=175,211=180,212=185,213=190,214=195,215=200,216=205,217=210,218=215,219=220,220=225,221=230,223=235,225=240,227=245,229=250,231=255,233=260,235=265,237=270,239=275,241=280,243=285,245=290,247=295,249=300,269=18.75,270=185,342=200,345=205,348=210,351=215,354=220,357=225,360=230,363=235,366=240,367=120;
#STOPS:366=0.25;

//---------------dance-single - Kekkle-bSP----------------
#NOTES:
     dance-single:
     Kekkle:
     Beginner:
     9:
     :
0000
0000
0000
0000
,
0000
0000
0000
0000
,
0000
0000
0000
0000
,
0001
0000
1000
0000
,
0010
0000
0000
0000
0000
0000
0000
0000
0100
0000
0000
0000
0002
0000
0000
0003
,
0000
0000
0000
0000
,
0000
0000
1000
0001
,
0100
0100
0001
1000
,
0100
0010
0001
0100
,
0010
0010
1000
0001
,
0010
0100
0010
0000
0001
0000
1000
0000
,
0010
0010
1000
0001
,
0010
0100
1000
0001
,
0100
0000
0010
0000
1000
0001
1000
0000
,
0200
0300
1000
0010
,
0100
0010
1000
1000
,
0001
0010
0100
0010
,
0001
0000
1000
0001
1000
0000
0010
0000
,
0100
0001
0100
0100
,
0010
1000
0001
0010
,
0200
0300
1000
0001
,
0100
0010
1000
1000
,
0010
0100
0001
1000
,
0200
0300
1000
0001
,
0100
0010
1000
0001
,
0010
0100
0010
0100
,
0010
0100
2000
3000
,
0001
0100
0110
0010
,
1000
0000
0010
0000
0000
0100
0000
0001
,
0000
0100
0000
0001
1000
0000
0001
0000
,
1000
0000
0000
0100
0000
1000
0000
0100
,
0010
0001
1000
1000
,
0010
0100
0001
0000
,
1000
0100
0100
0010
,
0110
0200
0000
0000
,
0300
1000
0001
1001
,
0000
1000
0010
0100
,
0100
0001
1000
1001
,
0000
0000
0001
0000
0010
0000
0100
0010
,
0100
1000
0001
0200
,
0300
0000
0010
0000
1000
0000
0001
1000
,
0001
0010
0100
0010
,
0010
0001
1000
0020
,
0030
0100
0000
0100
,
0000
0010
0000
0010
,
0000
1000
0000
1000
,
0000
0001
0000
0001
,
0000
1000
0010
1000
,
0010
0100
0001
0100
,
0001
0010
0100
0010
,
0100
1000
0001
1000
,
0001
0100
0000
0010
,
0000
1000
0000
0001
,
0000
0010
0000
0100
,
0000
0010
0000
0001
,
0000
1000
0000
0010
,
0000
0100
0000
0001
,
0000
0010
0000
0100
,
0000
1000
0000
0100
,
0000
0010
0000
0001
,
0000
1000
0000
0010
,
0000
0100
0000
0001
,
0000
0100
0000
0010
,
0000
1000
0000
0001
,
0000
0010
0000
0100
,
0000
1000
0000
0010
,
0000
0100
0000
0001
,
0000
0020
0030
0100
,
1000
0001
1000
0000
0010
0000
0200
0000
,
0000
0300
0001
0001
,
1000
1000
0010
0010
,
0100
0001
0100
0000
0001
0000
0001
0000
,
1000
1000
0100
0100
,
0010
0001
2000
0000
,
0000
3000
0001
0100
,
0010
0010
0200
0000
,
0000
0300
0001
1000
,
0001
0001
0010
0100
,
0010
0100
0010
0000
0001
0000
1000
0000
,
0001
1000
0001
0000
0100
0000
0100
0000
,
0010
0010
1000
0001
,
0010
0001
0010
0001
0010
0000
0001
0000
,
1000
0001
1000
0000
0010
0000
1000
0000
,
0010
1000
0010
0000
0100
0000
0100
0000
,
0001
0001
1000
0001
,
1000
0000
0001
0000
0100
0000
0000
0010
,
0000
0000
1000
0000
0000
0001
0000
0000
,
0010
0000
0000
0100
0000
0000
0010
0000
,
0000
0001
0000
0000
1000
0000
0000
1000
,
0000
0000
0001
0000
0000
0001
0000
0000
,
0100
0010
0100
0010
,
0100
0010
0100
0010
0000
0000
0220
0000
,
0000
0000
0000
0000
,
0000
0000
0000
0330
;

//---------------dance-single - Kekkle-BSP----------------
#NOTES:
     dance-single:
     Kekkle:
     Easy:
     12:
     :
0000
0000
0000
0000
,
0000
0000
0000
0000
,
0000
0000
0000
0000
,
1000
0000
0000
0001
0100
0001
0100
0001
,
1000
0000
0000
0100
0010
0100
1000
0001
,
0000
0000
0000
0100
,
0010
0100
0001
1000
,
0100
0010
0100
1000
0001
0000
0100
0000
,
0010
0100
0010
0000
1000
0000
0001
0000
,
0010
0100
1000
0001
0100
0010
0100
0010
,
1000
0001
1000
0001
0010
0000
0100
0000
,
1000
0001
1000
0010
0100
0000
0010
0000
,
1000
0001
0010
0000
0100
1000
0100
1000
,
0001
0100
0001
0100
0010
0100
0010
0100
,
0010
0200
0000
0300
0001
1000
0100
0000
,
0010
0001
0100
0000
0010
1000
0010
0100
,
0010
1000
0001
0000
0010
0100
1000
0000
,
0010
0100
0001
0100
0010
1000
0001
0000
,
0010
0100
1000
0000
1001
0000
0001
0100
,
0010
1000
0010
0000
0100
0001
0010
0000
,
0110
0000
0100
1000
0001
0000
0100
0000
,
0010
0000
1000
0000
1001
0000
0001
0010
,
0100
1000
0001
0000
0100
0000
0010
0000
,
1000
0002
0000
0003
1000
0010
1000
0000
,
0001
0010
0001
0000
1000
0001
1000
0000
,
0010
0100
0010
0100
0010
0100
0001
1000
,
0001
1000
0001
1000
0001
0000
1000
0000
,
0010
0000
0100
0001
1001
0000
1000
0000
,
0010
0000
0100
0000
0001
0000
1000
0100
,
1000
0100
1000
0100
0010
0000
0001
0000
,
1000
0000
0010
0000
0100
0001
0100
0001
,
0010
0000
0100
0000
1000
0001
0100
0000
,
0010
0100
0010
1000
0001
0000
0010
0000
,
0100
0000
1000
0010
0100
0000
0010
0100
,
0110
0001
1000
0001
,
1000
0000
0001
0100
0010
0100
0001
0000
,
1000
0100
0010
0100
1000
0010
0100
0001
,
0100
0001
1000
0000
0100
0000
0010
0001
,
0010
0100
1000
0001
1000
0001
0100
0010
,
1000
0001
0100
0000
0010
1000
1001
0000
,
0001
0010
0100
0010
0100
1000
0001
0000
,
0100
0010
1000
0010
0100
0000
0001
1000
,
0100
0010
0100
1000
0001
0100
0010
0100
,
0010
0100
0000
0100
,
0000
0010
0000
0010
,
0000
1000
0000
1000
,
0000
0001
0000
0001
,
0000
1001
1000
0001
,
0100
0110
0010
1000
,
0001
0011
0010
0100
,
1000
1010
0010
0100
,
0001
1000
0100
0010
,
0100
1000
0100
0010
,
0100
1000
0001
0100
,
0010
0100
0001
0100
,
0010
0100
0001
1000
,
0100
0010
0001
0010
,
0100
1000
0001
1000
,
0100
1000
0001
1000
,
0100
0010
0001
0010
,
0001
1000
0010
1000
,
0010
0100
0001
0100
,
0001
0010
0100
0010
,
0100
1000
0001
1000
,
0001
1000
0100
1000
,
0100
1000
0010
1000
,
0010
0100
0001
0100
,
0001
2000
3010
0100
,
0001
1000
0100
0000
0010
0001
0010
0000
,
0001
1000
0001
1000
0010
0000
0110
0000
,
0100
0101
0001
1001
,
1000
0100
1000
0100
0010
0000
0011
0000
,
0001
0000
1001
0000
1000
0000
0010
0100
,
0010
1000
0001
1000
0200
0000
0000
0000
,
0000
0310
0001
1000
,
0010
0000
0100
0001
0200
0000
0000
0000
,
0000
0000
0310
1000
0001
0010
0001
0010
,
0100
1000
0100
1000
0001
0000
0100
0000
,
0010
1000
0001
0010
0100
0000
1000
0000
,
0010
0100
0010
1000
0001
0000
0010
0000
,
0011
1001
1010
0110
,
0100
0010
1000
0010
0100
0000
0001
0000
,
0010
0100
1000
0100
0010
0000
0001
0000
,
1000
0010
0100
0010
1000
0001
1000
0001
,
0010
0100
0010
0100
1000
0001
0100
0010
,
1000
0001
0100
0010
1000
0001
1000
0001
,
0010
0001
0010
0100
0010
0100
1000
0100
,
1000
0010
1000
0010
0100
0010
0100
0001
,
0100
0002
0000
0000
1003
0010
1000
0010
,
0100
0001
0100
0001
0010
0100
0010
0100
,
1000
0001
1000
0001
1000
0001
1000
0001
,
1000
0001
1000
0001
0000
0000
2002
0000
,
0000
0000
0000
0000
,
0000
0000
0000
3003
;

//---------------dance-single - Kekkle-DSP----------------
#NOTES:
     dance-single:
     Kekkle:
     Medium:
     15:
     :
0000
0000
0000
0000
,
0000
0000
0000
0000
,
0000
0000
0000
0000
,
0002
0000
0003
1000
0010
1000
0001
0010
,
0002
0000
0000
0000
0003
0000
1000
0010
0100
0001
0100
0001
1000
0100
0010
0001
,
0000
0000
1000
1000
,
0001
0000
0001
0000
1000
0010
0100
0001
,
0100
0000
0010
0000
1000
0001
1000
0000
0100
0000
0010
0000
0100
0000
1000
0000
,
0001
0000
1000
0000
0100
0010
0100
0000
1000
0000
0010
0000
0100
0000
0001
0000
,
1000
0100
0010
0001
0010
0100
1000
0010
,
0100
0000
0001
0000
1000
0100
1000
0100
1000
0000
0010
0000
0100
0000
0001
0000
,
1000
0000
0100
0000
0010
0001
0010
0000
0100
0000
1000
0000
0010
0000
0100
0000
,
0010
0000
1000
0000
0100
0010
0100
0000
1000
0000
0001
0000
0100
0000
0010
0000
,
1000
0000
0001
0000
0010
0000
0100
0000
1000
0001
1000
0001
1000
0001
1000
0010
,
0100
0001
1001
0000
1000
0010
0100
0001
,
0010
0100
1000
0010
0100
0001
1000
1000
,
0100
0010
0001
1000
0010
0100
0001
1000
,
0100
0000
0010
0000
0001
1000
0001
1000
0001
0000
0100
0000
0010
0000
1000
0000
,
0010
0100
0001
1000
0100
0010
0100
0100
,
1000
0010
0100
0010
1000
0001
0010
0100
,
1000
0001
1000
0001
1000
0001
1000
0001
1000
0000
0010
0000
0100
0000
0001
0000
,
0010
0100
0010
0001
1000
0010
0100
0010
,
1000
0001
0010
0100
0010
0001
1000
0010
,
0100
0020
0000
0000
1030
0100
1000
0001
,
0100
0001
1000
0010
1000
0001
0010
0001
,
1000
0100
0010
0001
1000
0100
0010
0001
,
1000
0000
0010
0000
0100
0001
0100
0000
0002
0000
0000
0000
1003
0000
0010
0000
,
0100
0001
0100
0010
0110
0000
0100
0001
,
0100
0000
0010
0000
1000
0000
0001
0000
1000
0000
0000
0000
0001
1000
0001
0000
,
1000
0010
1000
0000
0010
0100
0010
0000
0100
0000
0010
0000
1000
0000
0001
0000
,
0010
0000
0100
0000
0010
0000
0000
0000
0001
1000
0001
0000
1000
0100
1000
0000
,
0010
0000
0100
0000
0010
0000
1000
0000
0001
0000
0010
0100
0010
0000
0000
0000
,
0001
0000
1000
0000
0010
0000
0100
0000
0001
1000
0100
0000
0000
0000
0010
0000
,
0001
0000
1000
0000
0010
0100
0010
0100
0010
0000
0000
0000
1000
0100
1000
0000
,
0001
0100
0001
0000
1000
0000
0000
0000
0100
0000
0000
0000
0010
0000
0000
0000
,
0001
0000
0000
0000
1000
0000
0010
0000
0100
0000
0001
0000
0100
0010
0100
0010
,
1000
0000
0000
0000
0001
0010
0000
0010
0100
0000
1000
0000
0001
0100
0001
0100
,
0010
0000
1000
0000
1000
0000
0000
0000
0100
0000
0010
0000
0001
1000
0001
1000
,
0010
0000
0000
0000
0100
0010
0000
0010
1000
0000
0001
0000
0010
0100
0010
0100
,
1000
0001
1000
0001
1000
0000
0000
0000
0010
0000
0100
0000
0110
0000
0000
0000
,
0010
0000
0000
0000
1000
0001
0000
0001
0010
0000
0100
0000
1000
0001
1000
0100
,
1000
0001
1000
0100
1000
0000
0000
0001
0100
0000
0010
0000
1000
0001
1000
0001
,
1000
0100
1000
0100
0010
0100
0010
0100
0010
0000
0001
0000
1000
0010
0100
0001
,
1000
0001
0100
0000
0000
0000
0010
0000
,
0000
1000
0000
0001
,
0000
0010
0000
0100
,
0000
1000
0010
0100
,
0001
1001
1100
1001
,
0011
1001
0110
1001
,
1100
0110
0011
0110
,
1100
1001
0101
1100
,
1001
0000
0001
0100
0010
0000
1000
0001
,
0010
0000
0100
1000
0001
0000
0100
0010
,
0100
0000
0001
1000
0100
0000
0010
0001
,
0100
0000
0010
1000
0001
0000
1000
0100
,
1000
0010
0100
0001
,
1000
0100
0010
0001
,
0100
0010
0100
0001
,
1000
0100
0010
0001
,
1000
0000
0010
0000
0100
0000
0001
1000
,
0001
0000
0010
0000
0100
0000
1000
0001
,
1000
0000
0010
0000
0100
0000
0010
1000
,
0010
0000
0100
0000
0001
0000
0010
0001
,
0010
0000
0100
1000
0100
0000
1000
0001
,
1000
0000
0001
0100
0001
0000
0100
0010
,
0100
0000
0010
1000
0010
1000
0010
0100
,
0010
0100
0001
0100
0001
0100
0001
1000
,
0010
1000
0002
0000
1003
0100
1000
0010
,
0100
0000
0010
0000
0100
0000
0000
0000
0001
1000
0001
0000
2000
0000
0000
0000
,
3010
0000
0100
0000
0001
0000
1000
0000
0100
0000
0000
0100
0010
0000
0000
0010
,
0001
0000
0000
0001
1000
0000
0000
1000
0010
0000
0000
0010
0100
0000
0000
0100
,
0001
0000
1000
0000
0100
0000
0010
0000
0100
0000
0000
0100
1000
0000
0000
1000
,
0010
0000
0000
0010
0100
0000
0000
0100
0001
0000
0000
0001
1000
0000
0100
0000
,
0010
0000
0100
0000
1000
0001
1000
0001
0200
0000
0000
0000
0010
0000
0000
0000
,
0000
0310
0110
1001
,
0001
1000
0100
0010
0001
1000
0010
0100
,
0001
0000
1000
0000
0010
0000
0100
0000
0001
0000
1000
0000
0100
0000
0010
0001
,
0010
0001
1000
0000
0010
0000
0100
0000
0001
0000
0100
0000
0010
0000
1000
0000
,
0001
0010
0001
0000
1000
0010
1000
0000
0001
0000
0100
0000
0010
0000
1000
0000
,
0001
0100
0001
0000
1000
0100
1000
0000
0010
0000
0100
0000
0010
0000
0100
0000
,
0001
1000
0001
1000
0100
0010
0001
1000
,
0100
0000
0010
0000
0001
1000
0001
1000
0010
0000
0100
0000
0001
0000
0100
0000
,
0010
0100
0010
0000
1000
0001
1000
0000
0100
0000
0010
0000
0001
0000
0010
0000
,
0100
1000
0100
0000
1000
0001
1000
0000
0001
0000
0100
0000
0010
0000
0100
0000
,
0001
0000
1000
0000
0100
0000
0010
0000
0001
1000
0001
1000
0001
1000
0001
1000
,
0010
0100
0001
1000
0100
0010
0100
1000
,
0001
1000
0001
0100
0001
0010
0100
0010
,
0001
0100
0001
1000
0100
1000
0010
0100
,
0010
2000
0000
0000
3001
0010
0100
1000
,
0010
0100
0001
0010
0100
0010
0001
1000
,
0010
0100
0001
1000
0100
0010
0001
0100
,
0010
0000
1000
0000
0010
0100
0010
0100
0000
0000
0000
0000
0220
0000
0000
0000
,
0000
0000
0000
0000
,
0000
0000
0000
0330
;

//---------------dance-single - Kekkle-ESP----------------
#NOTES:
     dance-single:
     Kekkle:
     Hard:
     17:
     :
0000
0000
0000
0000
,
0000
0000
0000
0000
,
0000
0000
0000
0000
,
2000
0000
0000
3001
0100
0010
1000
0100
,
0020
0000
0000
0000
0000
0000
0031
0100
0010
1000
0010
0100
0001
1000
0100
0010
,
0000
0000
0002
2003
,
3020
0000
0230
0000
0301
1000
0100
0010
,
0100
1000
0100
1000
0001
0100
0001
0100
0010
0000
1000
0000
0100
0000
1000
0000
,
0001
0010
0001
0010
0100
1000
0100
1000
0001
0000
0100
0000
0010
0000
1000
0000
,
0010
0000
0100
0000
0001
0000
0010
0000
0100
1000
0100
1000
0001
0100
0001
0100
,
0010
1000
0010
1000
0001
0010
0100
1000
0100
0000
0010
0000
0001
0000
0100
0000
,
0010
1000
0010
1000
0100
0010
0100
0010
0001
0000
1000
0000
0100
0000
0010
0000
,
0100
1000
0100
1000
0010
0100
0010
0100
0001
0010
0100
0000
1000
0010
0100
0000
,
0001
0100
0010
0000
1000
0100
0010
0000
0001
1000
0001
0010
0100
0010
0001
1000
,
0010
0000
0100
0000
0010
0100
0010
0000
1000
0100
1000
0000
0001
0000
0010
0000
,
0100
0010
0100
0000
1000
0001
1000
0000
0001
0000
0100
0010
1000
0010
1000
0001
,
0010
0001
0010
0000
0001
0000
0100
0010
0100
0000
0010
0000
1000
0001
1000
0000
,
0010
0000
1000
0000
0100
0010
0100
0010
0001
1000
0001
0000
0100
0000
0010
0000
,
1000
0010
1000
0000
0001
0000
0100
0000
0010
0100
0010
0100
0010
1000
0010
1000
,
0010
0000
0100
0001
0100
0000
0010
0000
1000
0100
1000
0000
0001
0100
0001
0100
,
0010
0100
0010
0100
0010
1000
0010
0000
0100
0001
1000
0000
0010
0000
0100
0000
,
0001
0010
0001
0000
0100
0000
0010
0000
1000
0001
0010
0000
0100
0000
0010
0000
,
0001
1000
0001
0000
0100
0000
0010
0000
0100
0001
1000
0000
0001
0000
0010
0000
,
0100
1000
0200
0000
0000
0000
0000
0000
0310
0000
0001
0000
1000
0000
0010
0000
,
0100
0010
1000
0001
0010
0100
0010
0001
,
0100
0000
0010
0000
1000
0000
0100
0000
0010
0000
0100
0000
1000
0001
1000
0001
,
1000
0001
1000
0001
1000
0001
1000
0001
0200
0000
0300
0000
0001
0000
0100
0000
,
0010
1000
0010
1000
0010
0000
0100
0000
0110
0000
0000
0000
0010
0000
1000
0000
,
0100
0000
1000
0000
0001
0000
0100
0000
0010
0000
1000
0000
0001
0010
0001
0000
,
1000
0010
1000
0000
0001
0100
0001
0000
1000
0000
0010
0100
0001
0000
1000
0000
,
0100
0000
0010
0001
1000
0000
0010
0000
1000
0001
1000
0000
0010
0100
0010
0000
,
1000
0000
0001
0000
0010
0000
0100
0000
1000
0000
0001
0100
0010
0000
1000
0000
,
0010
0100
0010
1000
0001
0010
0100
0010
0001
0010
0100
0000
1000
0000
0001
0000
,
0100
0000
0010
0000
1000
0100
0010
0001
0100
0000
0001
0000
1000
0100
0010
0100
,
1000
0010
0100
0010
2000
0000
3002
0000
0203
0000
0320
0000
0230
0000
0302
0000
,
2003
0000
3200
0000
0310
0000
0001
1000
0001
0100
0010
0100
0001
0000
1000
0100
,
0010
0100
1000
0001
0100
0010
0000
0010
0100
0000
0001
0000
1000
0100
1000
0001
,
0100
0010
0100
0010
1000
0000
0001
0010
0100
0010
0001
1000
0010
0100
0010
1000
,
0001
0010
0100
1000
0100
0010
0000
0010
0001
0000
1000
0000
0010
0100
0001
1000
,
0100
0010
0100
0010
0001
0000
1000
0010
0100
0001
0010
0100
1000
0000
0001
0100
,
0010
1000
0100
0010
0001
0100
0000
0100
0010
0000
1000
0001
0010
0100
1000
0010
,
0100
0000
0001
0000
0100
0000
0001
0000
0100
0000
0001
0000
1000
0000
0000
0000
0000
0000
0001
0000
0000
0100
0000
0000
0010
0000
0000
0100
0000
0000
0001
0000
0000
1000
0000
0000
0100
0000
0000
0000
0000
0000
0010
0000
0000
0001
0000
0000
,
0100
0010
1000
0100
0010
0001
0010
0100
1000
0000
1001
0000
0001
0100
0010
1000
,
0100
0110
0011
0000
0000
0000
1001
0000
,
0000
1010
0000
1100
,
0000
0101
0000
0011
,
0000
0000
1001
0000
0110
0010
1001
0000
,
1100
0100
0110
0000
0011
0000
0101
0000
,
0110
1010
1100
0110
,
0011
0101
0110
1010
,
1100
0110
0011
0101
,
0110
0010
1000
0001
0100
0010
0100
0001
,
0010
0100
0010
0100
1000
0001
0100
0010
,
0100
0010
1000
0001
0010
0100
0010
0001
,
0100
0010
1000
0100
0010
0100
1000
0001
,
0100
0010
0100
0001
1000
0100
0010
0100
,
0010
0001
1000
0010
0100
0010
0100
0001
,
1000
0100
0010
0100
1000
0010
0100
0010
,
1000
0100
0010
0001
0010
0100
1000
0100
,
0010
0100
1000
0010
0100
0001
1000
0100
,
0010
0100
0010
0001
1000
0010
0100
0010
,
0100
0001
1000
0100
0010
0001
0010
0100
,
0010
0001
1000
0010
0100
0010
1000
0010
,
0100
0001
0010
0100
1000
0010
0100
0001
,
0010
0100
1000
0010
0100
0001
0010
0100
,
1000
0100
0010
0001
0100
0010
1000
0100
,
0010
0001
0100
0010
1000
0100
0010
0100
,
1000
0000
0010
0000
0200
0000
0000
0000
0301
0000
1000
0000
0010
0000
0100
0001
,
0100
0001
0100
0000
0110
0000
0000
0000
0010
0100
0001
1000
0200
0000
0000
0000
,
0310
0001
0010
0001
1000
0010
1000
0010
0100
0000
0000
0001
0010
0000
0000
0100
,
1000
0000
0000
0001
0100
0000
0000
0010
1000
0000
0000
0100
0010
0000
0000
0001
,
0100
0010
1000
0000
1001
0000
0001
0000
0010
0000
0000
0100
1000
0000
0000
0010
,
0100
0000
0000
0001
0010
0000
0000
0100
1000
0000
0000
0001
0100
0000
0010
0000
,
1000
0000
0100
0000
0010
0001
1000
0010
0200
0000
0000
0000
0010
0000
0000
0000
,
1000
0000
0310
1000
0002
0000
0010
0000
,
0100
0000
1003
0100
0010
0100
1000
0010
,
0100
0000
0001
0000
1000
0000
0100
0010
0100
0000
1000
0001
0100
0000
0010
1000
,
0010
0100
0001
0000
0010
0000
0100
1000
0100
0000
0010
0001
0010
0000
0100
1000
,
0001
0100
0010
0100
0001
0000
1000
0100
0010
0000
0100
1000
0001
0000
0100
0010
,
0100
0010
1000
0001
0010
0000
0100
1000
0001
0000
0100
0010
0100
0000
0010
1000
,
0001
0000
0010
0100
1000
0000
0010
0100
0001
0000
1000
0010
0100
0000
0010
1000
,
0001
0010
0001
0010
0100
1000
0100
1000
0001
0000
0100
0010
0100
0000
0001
0000
,
1000
0010
1000
0010
1000
0010
0100
0000
0001
0000
0100
0010
0100
0000
0001
0000
,
0010
0100
0010
0100
0010
0100
1000
0000
0010
1000
0010
1000
0010
0100
0010
0100
,
0001
0100
0001
0100
0001
1000
0001
1000
0100
0010
0100
0010
0001
1000
0100
0010
,
0001
0010
0001
0000
0100
0000
0001
0000
1001
0000
1000
0000
0100
0000
0110
0000
,
0010
0001
1001
1000
0001
0101
0100
0010
,
1010
1000
0001
0011
0010
0100
1100
1000
,
0010
0200
0000
0000
0310
1000
0100
0010
,
0001
0010
0100
1000
0010
0100
0001
0100
,
0010
0000
1000
0000
0001
0000
0010
0000
0100
0000
0010
0000
0001
1000
0001
1000
,
0001
1000
0001
1000
0001
1000
0001
0000
0000
0000
0000
0000
2002
0000
0000
0000
,
0000
0000
0000
0000
,
0000
0000
0000
3003
;

//---------------dance-single - Kekkle-CSP----------------
#NOTES:
     dance-single:
     Kekkle:
     Challenge:
     19:
     :
0000
0000
0000
0000
,
0000
0000
0000
0000
,
0000
0000
0000
0000
,
0002
0000
0000
1003
0010
0100
0010
1000
,
0200
0000
0000
0000
0000
0000
0310
0001
1000
0010
0100
0001
0010
0100
1000
0010
,
0000
0000
0110
1010
,
0101
0000
0000
0000
0110
0000
1001
0000
0001
0000
0010
0100
1000
0000
0001
0100
,
0010
0100
0001
0100
0010
1000
0001
1000
0100
0000
0010
0001
0100
0000
0010
1000
,
0001
1000
0010
1000
0001
1000
0100
0010
0001
0000
1000
0010
0100
0000
0100
0010
,
1000
0000
0001
0010
0100
0000
0100
0010
0001
0010
0100
0010
0001
1000
0010
0100
,
0001
0000
0000
0100
0000
0000
0010
0000
0000
0100
0000
0000
0010
0000
0100
0000
0010
0000
0100
0000
0010
0000
0100
0000
0010
0000
0000
0000
0000
0000
1000
0000
0000
0001
0000
0000
0010
0000
0000
0000
0000
0000
0100
0000
0000
1000
0000
0000
,
0100
0010
0100
1000
0100
0010
0001
1000
0010
0000
0100
0001
1000
0000
0100
0010
,
0001
0010
0100
1000
0100
0010
0001
0000
0100
0010
1000
0010
0100
0001
1000
0001
,
0010
0000
0000
0100
0000
0000
1000
0000
0000
0010
0000
0000
0100
0000
0000
0001
0000
0000
1000
0000
0000
0100
0000
0000
0010
0000
0001
0000
0010
0000
0001
0000
0010
0000
0001
0000
0010
0000
0001
0000
0010
0000
0001
0000
0010
0000
0001
0000
,
0010
0000
1001
0000
0001
0100
0010
0000
1000
0001
0010
0000
0100
0000
0010
0000
,
0001
1000
0010
0000
1000
0100
0010
0000
0110
0000
0100
1000
0100
0010
0001
1000
,
0010
0100
0010
0000
1000
0000
0001
0010
0100
0000
1000
0000
0010
0100
0001
0000
,
0100
0000
0000
0000
0000
0000
0010
0000
0000
0000
0000
0000
1000
0000
0001
0000
1000
0000
0001
0000
1000
0000
0001
0000
1000
0000
0000
0010
0000
0000
0100
0000
0000
0000
0000
0000
0001
0000
0000
0000
0000
0000
1000
0000
0000
0000
0000
0000
,
0100
0010
0100
0000
1000
0000
0001
0000
0100
0010
1000
0010
0100
0001
1000
0100
,
0010
0000
0001
0010
0100
0000
0010
0000
0100
1000
0010
0000
0100
0001
1000
0010
,
0100
0000
0000
0001
0000
0000
1000
0000
0001
0000
1000
0000
0001
0000
1000
0000
0001
0000
1000
0000
0001
0000
1000
0000
0010
0000
0000
0100
0000
0000
0001
0000
0000
0000
0000
0000
1000
0000
0000
0000
0000
0000
0100
0000
0000
0000
0000
0000
,
0010
0001
1000
0000
0010
0100
0001
0000
1000
0000
0100
0010
0001
0010
0100
0010
,
0001
1000
0010
0000
0100
0000
0001
0010
0100
0000
1000
0000
0010
0100
0001
1000
,
0010
0000
0220
0000
0000
0000
0330
0000
1000
0001
0010
0001
1000
0000
0001
0100
,
0010
0100
0001
0000
1000
0010
0100
0010
1000
0000
0001
0010
0100
1000
0001
0000
,
0100
0010
1000
0100
1000
0001
0100
0001
1000
0010
1000
0001
0010
0001
0100
0010
,
1000
0100
0010
0001
0100
0001
0010
0100
0020
0000
0000
0000
0031
0000
1000
0001
,
0100
0001
0010
0100
1000
0000
0010
0200
0020
0000
0330
0000
0100
0000
0010
0000
,
1000
0000
0001
0000
0010
0000
0100
0000
1000
0000
0100
0000
0010
0001
1000
0000
,
0010
1000
0001
0000
0010
0001
1000
0000
0010
0000
0100
0000
0001
0000
0010
0000
,
0100
0000
1000
0000
0010
0000
0100
0000
0001
1000
0100
0000
1000
0001
0100
0000
,
0010
0000
0000
1000
0000
0000
0001
0000
0000
0010
0000
0000
0100
0000
0000
0010
0001
0010
0001
0000
0000
1000
0000
0000
,
0010
0000
0000
0100
0000
0000
0010
0000
0000
1000
0000
0000
0001
0000
0000
0100
0000
0000
0001
0000
0000
0010
0000
0000
0100
0000
1000
0000
0100
0000
1000
0000
0000
0000
0000
0000
0001
0000
0000
0000
0000
0000
1000
0000
0000
0010
0000
0000
,
0100
0000
0000
0000
0000
0000
0001
0000
0000
0000
0000
0000
1000
0000
0100
0000
1000
0000
0100
0000
1000
0000
0100
0000
1000
0000
0000
0000
0000
0000
0001
0000
0000
0000
0000
0000
0100
0000
0010
0000
0100
0000
0010
0000
0000
1000
0000
0000
,
0001
1000
0001
0010
0000
0000
0100
0000
0000
1000
0000
0000
0010
0000
0000
0100
0000
0000
0001
0000
0000
0010
0000
0000
,
0100
0000
0000
0000
0000
0000
1000
0000
0000
0000
0000
0000
1001
0000
0000
0000
0000
0000
0001
0000
0000
0100
0000
0000
0010
0000
0000
0100
0000
0000
0001
0000
0000
1000
0000
0000
0001
0000
1000
0000
0001
0000
1000
0000
0100
0000
0010
0000
,
0100
0000
0000
1000
0000
0000
0001
0000
0000
0010
0000
0000
0100
0000
0000
0010
0000
0000
0000
0000
0000
0010
0000
0000
0001
0000
0000
0000
0000
0000
1000
0000
0000
0000
0000
0000
0001
0000
1000
0000
0010
0000
1000
0000
0001
0000
0010
0000
,
0001
0000
0000
0000
0000
0000
0000
0000
0000
0000
0000
0000
0010
0000
0000
0000
0000
0000
0100
0000
0000
0000
0000
0000
0010
0000
0000
0000
0000
0000
0000
0000
0000
0000
0000
0000
0001
0000
0000
0000
0000
0000
0000
0000
0000
0000
0000
0000
1000
0000
0000
0000
0000
0000
0000
0000
0000
0000
0000
0000
0000
0000
0000
0000
0000
0000
0000
0000
0000
0000
0000
0000
0010
0000
0000
0000
0000
0000
0000
0000
0000
0000
0000
0000
1000
0000
0000
0000
0000
0000
0000
0000
0000
0000
0000
0000
0001
0000
0000
0000
0000
0000
0000
0000
0000
0000
0000
0000
1000
0000
0000
0000
0000
0000
0000
0000
0000
0000
0000
0000
0100
0000
0000
0000
0000
0000
0000
0000
0000
0000
0000
0000
0010
0000
0000
0000
0000
0000
0000
0000
0000
0000
0000
0000
0001
0000
0000
0000
0000
0000
0000
0000
0000
0000
0000
0000
0100
0000
0000
0000
0000
0000
0000
0000
0000
0000
0000
0000
0010
0000
0000
0000
0000
0000
0000
0000
1000
0000
0000
0000
0000
0000
0000
0000
0010
0000
0000
0000
0000
0000
0000
0000
,
1000
0000
0001
0000
1000
0000
0100
0000
1000
0000
0001
0000
0100
0000
0000
0010
0000
0000
0000
0000
0000
0100
0000
0000
0001
0000
0000
1000
0000
0000
0100
0000
0000
1000
0000
0000
0010
0000
0100
0000
0010
0000
0100
0000
0001
0000
1000
0000
,
0100
0000
1000
0000
0100
0000
0010
0000
0001
0000
0010
0000
0100
0000
0000
0000
0000
0000
1000
0000
0000
0010
0000
0000
0100
0000
0000
0001
0000
0000
1000
0000
0000
0001
0000
0000
1001
0000
0000
0000
0000
0000
0001
0000
0000
1000
0000
0000
,
0010
0100
0001
1000
0100
1000
0010
0000
0010
0000
0010
0000
1000
0000
0000
0001
0000
0000
1001
0000
0000
1000
0000
0000
,
0100
0000
1000
0000
0010
0000
0100
0000
0001
0000
1000
0000
0010
0000
0000
0000
0000
0000
0100
0000
0000
0001
0000
0000
1000
0000
0000
0100
0000
0000
1000
0000
0000
0010
0000
0000
0100
0000
0001
0000
0100
0000
0010
0000
1000
0000
0001
0000
,
1000
0000
0100
0000
0010
0000
0100
0000
1000
0000
0001
0000
1000
0000
0001
0000
0100
0000
0010
0000
1000
0000
0010
0000
0100
0000
0000
0000
0000
0000
0001
0000
0000
0000
0000
0000
0010
0000
0000
0100
0000
0000
1000
0000
0000
0010
0000
0000
,
0100
0110
1001
0000
0000
0000
0011
0000
,
0000
1100
0000
0101
,
0000
1010
0000
0011
,
0000
0000
0000
0000
1000
0100
0010
0000
0011
0000
1100
0000
1001
0000
0000
0000
,
1000
0001
0101
1000
0110
0010
1010
0100
,
0101
0001
1100
0100
0110
0001
0101
0100
,
1010
0010
0110
0100
0011
0001
1001
0100
,
0110
0010
1001
1000
1100
0010
0011
0001
,
1001
0000
1000
0000
1010
0000
0010
0100
0001
0000
0001
0010
0100
0000
0100
1000
,
0010
0000
0010
0100
0001
0000
1000
0100
0010
0000
0010
0001
0100
0000
0100
0001
,
1000
0000
1000
0100
0010
0000
0001
1000
0010
0000
0010
0100
0001
0000
0001
1000
,
0100
0000
0100
0010
0001
0000
1000
0010
0100
0000
0100
0010
1000
0000
1000
0001
,
0010
0000
0010
0100
1000
0000
0010
0000
0100
0000
0001
0000
0100
0000
0010
0000
,
1000
0001
0010
0100
1000
0001
0010
0100
,
0010
0001
1000
0010
0100
0010
1000
0001
,
0010
0100
0010
0001
1000
0010
0100
0001
,
0010
0100
1000
0100
0010
0001
0100
0010
,
1000
0001
0010
0100
1000
0010
0100
0010
,
1000
0100
0010
0001
0100
0010
1000
0010
,
0100
0001
1000
0100
0010
0100
1000
0010
,
0100
0000
0000
0001
0000
0000
0010
0000
0100
0000
0010
0000
0100
0000
1000
0000
0100
0000
1000
0000
0001
0000
1000
0000
,
0001
0100
0001
0100
0010
0100
0010
1000
0010
1000
0001
1000
,
0001
0010
0001
1000
0010
0100
0001
0100
0010
1000
0100
0010
,
0001
0010
0100
1000
0010
0100
0001
1000
0100
0010
0001
0100
,
0010
0000
0000
0000
1000
0000
0000
0000
0001
0000
0000
0000
2000
0000
0000
0000
0000
0000
0000
0000
0000
0000
0000
0000
3001
0000
0000
0000
0000
0000
0100
0000
0000
0000
0000
0000
0010
0000
0000
0000
0000
0000
1000
0000
0000
0001
0000
0000
,
0010
0000
0000
0001
0000
0000
0100
0000
0000
0000
0000
0000
0110
0000
0000
0000
0000
0000
0000
0000
0000
0000
0000
0000
0001
0000
1000
0000
0001
0000
1000
0000
0001
0000
1000
0000
0002
0000
0000
0000
0000
0000
0000
0000
0000
0000
0000
0000
,
0013
0001
0010
0100
1000
0100
0010
0001
0100
0000
0010
1000
0100
0000
0010
0000
,
0100
0000
0010
0001
0100
0000
0010
0000
0100
0000
0010
1000
0100
0000
0010
0001
,
1000
0010
0100
0000
0110
0000
0010
0000
1000
0000
0001
0010
0100
0000
0010
0000
,
0100
0000
1000
0010
0100
0000
0010
0000
0100
0000
0001
0010
0100
0000
1000
0000
,
0001
0000
0100
0000
0010
1000
0100
0010
0001
0000
0100
0000
0110
0000
0010
0000
,
1000
0100
0110
0010
0001
1000
1010
0010
,
0100
0001
0011
0010
0100
1000
0010
0100
,
0001
0000
0000
0000
0000
0000
1000
0000
0000
0000
0000
0000
0100
0000
0010
0000
0100
0000
0010
0000
0000
0000
0000
0000
0001
0000
0000
0000
0000
0000
1000
0000
0000
0000
0000
0000
0010
0000
0000
0100
0000
0000
0001
0000
0000
0100
0000
0000
,
0010
1000
0100
0000
0010
0000
0001
1000
0010
0000
0100
0001
1000
0000
0100
0010
,
0001
1000
0010
0100
0001
1000
0100
0010
0001
0000
1000
0010
0100
0000
0010
0100
,
0001
1000
0100
0010
0100
1000
0100
0010
0001
0000
0100
0010
1000
0000
1000
0010
,
0100
0000
0001
0010
0100
0000
0100
0010
0001
0000
0100
0001
1000
0000
0100
1000
,
0001
0000
0000
0000
0000
0000
0100
0000
0000
0010
0000
0000
1000
0000
0001
0000
1000
0000
0001
0000
0010
0000
0100
0000
1000
0000
0000
0000
0000
0000
0001
0000
0000
0010
0000
0000
0100
0000
0000
0000
0000
0000
0010
0000
0000
0001
0000
0000
,
1000
0010
0100
0001
1000
0100
0010
0001
0100
0000
0010
1000
0100
0000
0010
0001
,
0010
0100
1000
0010
0100
0010
1000
0000
0001
0010
0100
1000
0010
0100
0010
1000
,
0001
0000
0000
1000
0000
0000
0100
0000
0000
0010
0000
0000
0001
0000
0000
0100
0000
0000
0010
0000
0000
1000
0000
0000
0001
0000
1000
0000
0001
0000
1000
0000
0001
0000
1000
0000
0001
0000
1000
0000
0001
0000
1000
0000
0001
0000
1000
0000
,
0001
0000
0200
0000
0310
0000
0100
0010
1000
0001
1000
0001
0010
0000
0100
1000
,
0100
1000
0001
0000
0100
0010
0100
0010
1000
0000
0001
0010
0001
0010
0100
0000
,
1000
0001
0100
0001
1000
0000
0100
1000
0001
1000
0100
0000
0010
0001
1000
0000
,
0001
0000
0200
0000
0000
0000
0000
0000
0310
1000
0010
1000
0100
0000
0010
0001
,
0010
0001
0100
0000
0010
1000
0100
1000
0010
0000
0100
0001
0010
0001
0100
0000
,
0010
1000
0010
0100
0001
1000
0100
0010
0100
0010
0001
1000
0001
0100
0010
0100
,
0010
0000
1000
0000
0001
0000
0010
0000
0100
0000
1000
0000
0001
0000
0010
0000
0200
0300
0000
0000
0000
0000
0000
0000
2002
0000
0000
0000
0000
0000
0000
0000
,
0000
0000
0000
0000
,
0000
0000
0000
3003
;

//---------------dance-double - Kekkle-BDP----------------
#NOTES:
     dance-double:
     Kekkle:
     Easy:
     12:
     :
00000000
00000000
00000000
00000000
,
00000000
00000000
00000000
00000000
,
00000000
00000000
00000000
00000000
,
10000000
00000000
00000000
00010000
01000000
00100000
01000000
00001000
,
00010000
00000000
00000000
00000010
00001000
00000010
00000100
00000001
,
00000000
00000000
00000000
00001000
,
00000100
00010000
00001000
01000000
,
00010000
01000000
00010000
01000000
00100000
00000000
10000000
00000000
,
00010000
10000000
00010000
00000000
00100000
00000000
00001000
00000000
,
00010000
00001000
00010000
00000000
00000010
00001000
00000010
00000000
,
00001000
00000001
00000010
00000001
00001000
00000000
00000010
00000000
,
00001000
00000100
00001000
00000100
00010000
00000000
00001000
00000000
,
00010000
00001000
00010000
00000000
00001000
01000000
00010000
00000000
,
01000000
00100000
10000000
00000000
00010000
10000000
00010000
10000000
,
00010000
20000000
00000000
00000000
30100000
01000000
00010000
00000000
,
01000000
00001000
00010000
00000000
00000100
00001000
00000100
00001000
,
00000001
00000100
00000010
00000000
00001000
00000010
00000100
00000000
,
00001000
00010000
00001000
00010000
00100000
01000000
00010000
00000000
,
10000000
01000000
00100000
00000000
01100000
00000000
01000000
10000000
,
00010000
01000000
00010000
00000000
00100000
00001000
00010000
00000000
,
00000010
00001000
00000010
00001000
00000100
00000010
00000100
00000000
,
00001000
00000001
00001000
00000000
00000100
00000010
00000100
00000010
,
00000001
00001000
00000001
00000000
00001000
00000100
00010000
00000000
,
00001000
02000000
00000000
00000000
03010000
10000000
00010000
00000000
,
00100000
01000000
00100000
00000000
00001000
00010000
00001000
00000000
,
00010000
00000010
00010000
00000010
00010000
00000010
00001000
00000100
,
00001000
00000100
00001000
00000100
00002000
00000000
00003001
00000000
,
00000100
00000000
00000010
00000100
00000110
00000000
00000010
00000000
,
00010000
00000000
00001000
00000000
01000000
00010000
00000000
10000000
,
00000000
01000000
00000000
00100000
00010000
00000000
01000000
00000000
,
00001000
00000000
00010000
00000100
00000000
00000010
00000000
00000100
,
00001000
00000000
00000001
00000000
00000100
00000010
00000100
00000000
,
00000010
00010000
00001000
01000000
00010000
01000000
00000000
00100000
,
10000000
00010000
10000000
01000000
10000000
00000000
00010000
00000000
,
10010000
20000000
30200000
02300000
,
03020000
00000000
01030000
00000000
00001000
00000000
00010000
00000010
,
00001000
00000000
00000010
00000100
00000010
00000000
00001000
00000001
,
00001000
00000001
00000010
00000000
00000100
00000000
00010000
00001000
,
00010000
00000000
00100000
01000000
00010000
00000000
10000000
00010000
,
10000000
00010000
00100000
00000000
01000000
00100000
01100000
00000000
,
01000000
00000000
10000000
00010000
01000000
00000000
00001000
00010000
,
00001000
00000100
00000010
00000000
00001000
00000000
00000001
00000010
,
00000001
00000010
00000100
00001000
00000100
00000000
00010000
00001000
,
01000000
00010000
00000000
10000000
,
00000000
00010000
00000000
01000000
,
00000000
00001000
00000000
00010000
,
00000000
00000010
00000000
00000110
,
00000000
00000100
00000001
00000010
,
00000100
00000010
00000001
00001000
,
00000010
00010000
00001000
00010000
,
00000100
00010000
00001000
01000000
,
00010000
01000000
00100000
10000000
,
00100000
01000000
00010000
01000000
,
00001000
00010000
00000100
00001000
,
00000100
00000010
00000001
00001000
,
00000010
00001000
00000010
00010000
,
00001000
00010000
00001000
01000000
,
00010000
01000000
00100000
10000000
,
00010000
10000000
00010000
00100000
,
00001000
00100000
00001000
00010000
,
00000010
00001000
00000010
00001000
,
00000001
00000010
00000001
00000010
,
00000100
00010000
00001000
00010000
,
00001000
01000000
00010000
01000000
,
00100000
10000000
00010000
01000000
,
00001000
00010000
00000010
00001000
,
00000001
00000010
00000100
00010000
,
00001000
02000000
03010000
10000000
,
01000000
00100000
01000000
00000000
10000000
00010000
10000000
00000000
,
00010000
01000000
00001000
00010000
00000010
00000000
00001010
00000000
,
00001000
00001001
00000001
00000011
,
00000010
00001000
00010000
00001000
00010000
00000000
00011000
00000000
,
00001000
00000000
01001000
00000000
01000000
00000000
00100000
10000000
,
00010000
00100000
00010000
00000000
02000000
00000000
00000000
00000000
,
00000000
03010000
00100000
00001000
,
00010000
00000000
00000010
00001000
00000200
00000000
00000000
00000000
,
00000000
00000000
00000310
00000001
00001000
00000010
00001000
00000000
,
00000100
00010000
00000100
00010000
00001000
00000000
01000000
00000000
,
00010000
00100000
01000000
00100000
00010000
00000000
10000000
00000000
,
00100000
01000000
00001000
00010000
00001000
00000000
00011000
00000000
,
00010000
00000000
00010010
00000000
00000010
00000000
00000100
00000001
,
00000100
00000010
00001000
00000001
00001000
00000000
00000100
00000000
,
00000010
00000100
00010000
00001000
00010000
00000000
00001000
00000000
,
01000000
00010000
01000000
00100000
10000000
00010000
10000000
00010000
,
00100000
01000000
00100000
01000000
00010000
00001000
00010000
00001000
,
00010000
00002000
00000000
00000000
01003000
00010000
01000000
00100000
,
10000000
00100000
01000000
00001000
01000000
00010000
00100000
00010000
,
00001000
00000100
00001000
00000001
00000100
00000001
00001000
00000100
,
00010000
00002000
00000000
00000000
01003000
00010000
01000000
00010000
,
10000000
01000000
10000000
01000000
00100000
00010000
00100000
00001000
,
00010000
00001000
00010000
00001000
00010000
00001000
00010000
00001000
,
00010000
00001000
00010000
00001000
00000000
00000000
00022000
00000000
,
00000000
00000000
00000000
00000000
,
00000000
00000000
00000000
00033000
;

//---------------dance-double - Kekkle-DDP----------------
#NOTES:
     dance-double:
     Kekkle:
     Medium:
     15:
     :
00000000
00000000
00000000
00000000
,
00000000
00000000
00000000
00000000
,
00000000
00000000
00000000
00000000
,
20000000
00000000
00000000
30010000
01000000
00001000
00010000
00000010
,
00002000
00000000
00000000
00000000
00000000
00000000
00003001
00000010
00000100
00001000
00000100
00000010
00000100
00010000
00001000
01000000
,
00000000
00000000
00010000
10000000
,
00100000
00000000
01000000
00000000
00001000
00010000
00001000
00000010
,
00000001
00001000
00000010
00000100
00000010
00001000
00010000
01000000
,
00100000
10000000
00010000
00100000
00010000
01000000
00100000
00010000
,
00001000
00000100
00000010
00000100
00000001
00001000
00000100
00000010
,
00000100
00000000
00010000
00000000
00001000
00010000
00001000
00010000
00001000
00000000
01000000
00000000
00100000
00000000
10000000
00000000
,
00100000
01000000
00001000
00010000
00001000
00000010
00000001
00001000
,
00000001
00000010
00000100
00010000
00001000
00000100
00000010
00000100
,
00001000
00000000
00010000
00000000
00100000
00000000
10000000
00000000
00010000
10000000
00010000
10000000
00010000
10000000
00010000
10000000
,
01000000
02200000
00000000
03300000
00100000
00001000
00010000
00000100
,
00010000
00001000
00100000
00001000
00010000
00000100
00000010
00000010
,
00000001
00000100
00001000
00010000
00100000
10000000
01000000
00010000
,
00001000
00000000
00010000
00000000
01000000
00100000
01000000
00100000
01000000
00000000
10000000
00000000
00010000
00000000
01000000
00000000
,
00100000
00000000
00010000
00000000
00001000
00000000
00010000
00000000
00100000
00000000
00010000
00000000
00001000
00010000
00001000
00010000
,
00001000
00000100
00000001
00001000
00000001
00000010
00000100
00001000
,
00010000
00100000
01000000
00100000
00001000
00010000
00001000
00000100
,
00000010
00000100
00001000
00000001
00000010
00000100
00000001
00001000
,
00000100
00010000
00001000
00010000
01000000
00100000
01000000
10000000
,
00100000
00020000
00000000
00000000
00031000
00000100
00000010
00001000
,
00000100
00000010
00000100
00010000
00001000
01000000
00100000
00010000
,
10000000
01000000
00100000
01000000
00001000
00010000
00000100
00000010
,
00000001
00000100
00000010
00010000
00002000
00000000
01003000
00100000
,
10000000
00000000
00010000
00000000
00100000
00000000
01000000
00100000
02000000
00000000
00000000
00000000
13000000
00000000
00100000
00000000
,
00010000
00000000
00100000
00000000
01000000
00000000
00001000
00000000
00010000
00000000
00000000
00000000
00001000
00010000
00001000
00000000
,
00010000
00001000
00010000
00000000
00001000
00010000
00001000
00000000
00010000
00000000
00000010
00000000
00000100
00000000
00000001
00000000
,
00001000
00000000
00000100
00000000
00000010
00000000
00000000
00000000
00000100
00001000
00000100
00000000
00001000
00000100
00001000
00000000
,
00000100
00010000
00001000
00010000
00100000
10000000
00010000
00000000
,
10000000
00000000
01000000
00000000
00100000
00000000
00010000
00000000
00100000
01000000
00100000
00000000
00001000
00000000
00010000
00000000
,
00000010
00000000
00001000
00000000
00000001
00001000
00000001
00001000
00000001
00000000
00000000
00000000
00001000
00000100
00001000
00000000
,
00000100
00010000
00000100
00000000
00020000
00000000
00000000
00000000
00032000
00000000
00000000
00000000
02003000
00000000
00000000
00000000
,
03200000
00000000
00000000
00000000
10300000
00000000
01000000
00000000
10000000
00000000
00010000
00000000
01000000
00001000
01000000
00001000
,
01000000
00000000
00000000
00000000
00010000
00100000
00000000
00100000
00001000
00000000
00010000
00000000
00000010
00001000
00000010
00001000
,
00000010
00000000
00000100
00000000
00000100
00000000
00000000
00000000
00000001
00000000
00000010
00000000
00000100
00001000
00000100
00001000
,
00000100
00000000
00000000
00000000
00010000
00001000
00000000
00001000
01000000
00000000
00010000
00000000
00100000
01000000
00100000
01000000
,
00100000
00010000
10000000
00010000
10000000
00000000
00000000
00000000
00100000
00000000
01000000
00000000
01001000
00000000
00000000
00000000
,
00001000
00000000
00010000
00000000
00000010
00001000
00000000
00001000
00000010
00000000
00000100
00000000
00000001
00000000
00001000
00000000
,
00000100
00010000
00001000
00010000
00001000
00000000
00000000
01000000
00010000
00000000
00100000
00000000
01000000
10000000
01000000
10000000
,
00010000
10000000
00010000
10000000
00010000
01000000
00010000
01000000
00001000
00000000
00010000
00000000
00000010
00001000
00000010
00001000
,
00000100
00000010
00000001
00000000
00000000
00000000
00001000
00000000
,
00000000
00010000
00000000
10000000
,
00000000
00010000
00000000
00001000
,
00000000
00000001
00000100
00000010
,
00010000
00011000
01001000
01100000
,
10100000
11000000
01100000
00101000
,
00011000
00010100
00001100
00001001
,
00000101
00000110
00010010
00011000
,
01001000
00000000
01000000
00100000
10000000
00000000
00010000
00100000
,
01000000
00000000
00100000
00001000
00010000
00000000
00001000
00010000
,
00000010
00000000
00001000
00000010
00000100
00000000
00000010
00000100
,
00000001
00000000
00000010
00000100
00001000
00000000
00000100
00010000
,
00001000
00010000
00001000
01000000
,
00100000
10000000
00010000
10000000
,
01000000
00100000
00001000
00010000
,
01000000
00010000
00001000
00000010
,
00000001
00000000
00001000
00000000
00000010
00000000
00001000
00000010
,
00001000
00000000
00010000
00000000
01000000
00000000
00010000
01000000
,
00010000
00000000
00001000
00000000
00000100
00000000
00001000
00000100
,
00001000
00000000
00010000
00000000
00100000
00000000
00010000
00100000
,
00010000
00000000
10000000
00100000
10000000
00000000
00100000
01000000
,
00100000
00000000
01000000
00001000
01000000
00000000
00001000
00010000
,
00001000
00000000
00010000
00000010
00010000
00000010
00001000
00000010
,
00001000
00000010
00001000
00000001
00001000
00000001
00000010
00000100
,
00000010
00000100
00020000
00000000
00031000
01000000
00100000
10000000
,
00010000
00000000
00010000
00000000
00100000
00000000
00000000
00000000
01000000
00100000
01000000
00000000
00200000
00000000
00000000
00000000
,
00310000
00000000
10000000
00000000
00100000
01000000
00100000
01000000
00100000
00000000
00000000
00100000
10000000
00000000
00000000
10000000
,
01000000
00000000
00000000
01000000
00010000
00000000
00000000
00010000
00001000
00000000
00000000
00001000
00000010
00000000
00000000
00000010
,
00000001
00000000
00001000
00000000
00000010
00000000
00000100
00000000
00000001
00000000
00000000
00000001
00000010
00000000
00000000
00000010
,
00001000
00000000
00000000
00001000
00010000
00000000
00000000
00010000
01000000
00000000
00000000
01000000
00100000
00000000
00010000
00000000
,
10000000
00000000
00100000
00000000
01000000
00010000
01000000
00010000
02000000
00000000
00000000
00000000
00100000
00000000
00000000
00000000
,
00000000
03100000
01100000
10010000
,
01010000
00000000
01000000
00001000
00020000
00000000
00000010
00000000
,
00000000
00000000
00000000
00000000
00030010
00000000
00000100
00000000
00000001
00000000
00001000
00000000
00000100
00000000
00000010
00000001
,
00000010
00000001
00000010
00000000
00000100
00000000
00010000
00000000
00001000
00000000
00010000
00000000
00100000
00000000
01000000
00000000
,
00010000
00100000
00010000
00000000
10000000
00100000
10000000
00000000
01000000
00000000
00010000
00000000
00001000
00000000
00000010
00000000
,
00000001
00000100
00000001
00000000
00001000
00000100
00001000
00000000
00000010
00000000
00000100
00000000
00001000
00000000
00010000
00000000
,
00100000
01000000
00001000
00010000
01000000
00100000
00001000
00010000
,
00001000
00000000
00000100
00000000
00000010
00001000
00000010
00001000
00000001
00000000
00001000
00000000
00000100
00000000
00010000
00000000
,
00001000
00010000
00001000
00000000
00010000
00001000
00010000
00000000
00001000
00000000
01000000
00000000
00100000
00000000
01000000
00000000
,
00010000
10000000
00010000
00000000
10000000
01000000
10000000
00000000
00100000
00000000
01000000
00000000
00001000
00000000
00010000
00000000
,
00000010
00000000
00001000
00000000
00000100
00000000
00000010
00000000
00000001
00001000
00000001
00001000
00000001
00001000
00000001
00001000
,
00000100
00000010
00000001
00001000
00000010
00000100
00001000
00010000
,
00001000
00000100
00000010
00010000
00001000
00010000
01000000
10000000
,
00100000
10000000
01000000
00010000
00001000
00000010
00001000
00010000
,
01000000
00200000
00000000
00000000
00310000
10000000
00100000
00010000
,
00001000
00000100
00000010
00010000
00001000
00010000
00000100
00000010
,
00000100
00010000
01000000
00100000
00010000
10000000
00100000
00010000
,
00001000
00000000
00010000
00000000
00001000
00010000
00001000
00010000
00000000
00000000
00000000
00000000
00022000
00000000
00000000
00000000
,
00000000
00000000
00000000
00000000
,
00000000
00000000
00000000
00033000
;

//---------------dance-double - Kekkle-EDP----------------
#NOTES:
     dance-double:
     Kekkle:
     Hard:
     17:
     :
00000000
00000000
00000000
00000000
,
00000000
00000000
00000000
00000000
,
00000000
00000000
00000000
00000000
,
20000000
00000000
00000000
30100000
00010000
00100000
01000000
00001000
,
00020000
00000000
00000000
00000000
00000000
00000000
00030010
00001000
00000010
00000100
00000001
00001000
00000100
00010000
00001000
01000000
,
00000000
00000000
00200000
20300000
,
30020000
00000000
00230000
00000000
00301000
00010000
00000010
00000100
,
00000001
00001000
00000001
00001000
00000100
00000010
00000100
00000010
00000001
00000000
00001000
00000000
00000100
00000000
00010000
00000000
,
00001000
00010000
00001000
00010000
00001000
01000000
00001000
01000000
00010000
00000000
00100000
00000000
01000000
00000000
10000000
00000000
,
00010000
00000000
01000000
00000000
00001000
00000000
00010000
00000000
00000010
00001000
00000010
00001000
00000001
00000010
00000001
00000010
,
00000100
00001000
00000100
00001000
00000100
00010000
00000100
00010000
00001000
00000000
01000000
00000000
00010000
00000000
00100000
00000000
,
01000000
10000000
01000000
00100000
01000000
10000000
01000000
00100000
01000000
00000000
00100000
00000000
00001000
00000000
00010000
00000000
,
00000010
00001000
00000010
00000100
00000010
00001000
00000010
00000000
00000100
00000001
00000100
00000000
00000001
00001000
00000001
00000000
,
00001000
00000100
00001000
00000000
00000100
00010000
00000100
00000000
00010000
00001000
00010000
00001000
01000000
00010000
01000000
00100000
,
10000000
00000000
00010000
00000000
01000000
00100000
01000000
00000000
00010000
10000000
00010000
00000000
00100000
00000000
01000000
00000000
,
00100000
00010000
00100000
00000000
00001000
00010000
00001000
00000000
00100000
00000000
00001000
00100000
00001000
00100000
00001000
00010000
,
00001000
00010000
00000100
00000000
00001000
00000000
00000010
00000100
00000010
00000000
00001000
00000000
00000010
00000100
00000010
00000000
,
00001000
00000000
00000001
00000000
00000010
00000100
00000010
00000100
00001000
00000100
00001000
00000000
00000100
00000000
00010000
00000000
,
00001000
00010000
00001000
00000000
01000000
00000000
00010000
00000000
00100000
01000000
00100000
01000000
10000000
00010000
10000000
00010000
,
01000000
00000000
00100000
01000000
00100000
00000000
10000000
00000000
00010000
01000000
00010000
00000000
01000000
00100000
01000000
00100000
,
01000000
00001000
01000000
00001000
00010000
00001000
00010000
00001000
00010000
00000010
00010000
00000000
00000010
00000000
00000100
00000000
,
00000001
00001000
00000001
00000000
00000010
00000000
00000100
00000000
00001000
00000100
00001000
00000000
00000100
00000000
00010000
00000000
,
00001000
01000000
00001000
00000000
01000000
00000000
00010000
00000000
10000000
01000000
10000000
00000000
00100000
00000000
01000000
00000000
,
00010000
02000000
00000000
00000000
03100000
10000000
00100000
00010000
,
00001000
00000100
00000010
00001000
00000001
00000010
00001000
00010000
,
00001000
00000100
00001000
00010000
00100000
01000000
00010000
10000000
,
01000000
00100000
01000000
00100000
01000000
00100000
01000000
00100000
02000000
00000000
00000000
00000000
03100000
00000000
00001000
00000000
,
00010000
00001000
00010000
00001000
00010000
00000000
00000010
00001000
00000020
00000000
00000000
00000000
00000130
00000000
00000001
00000000
,
00000100
00000000
00000010
00000000
00001000
00000000
00010000
00000000
00100000
00000000
01000000
00000000
10000000
01000000
10000000
00000000
,
00010000
01000000
00010000
00000000
10000000
01000000
10000000
00000000
00100000
00000000
01000000
00000000
00100000
00000000
00010000
00000000
,
00001000
00000000
00000100
00000000
00000010
00000000
00001000
00000000
00000001
00000010
00000001
00000000
00001000
00000010
00001000
00000000
,
00000001
00000000
00000010
00000000
00000100
00000000
00010000
00000000
00001000
00000000
00000100
00000010
00000100
00000000
00001000
00000000
,
00010000
00001000
00010000
00001000
01000000
00010000
01000000
00010000
10000000
01000000
10000000
00000000
00010000
00000000
01000000
00000000
,
00100000
00000000
01000000
00000000
00001000
00010000
00001000
00010000
00001000
00000000
00010000
00000000
00000010
00001000
00000010
00000100
,
00000001
00000100
00000001
00000000
00002000
00000000
00003200
00000000
00020300
00000000
00032000
00000000
02003000
00000000
03020000
00000000
,
00230000
00000000
02300000
00000000
13000000
00000000
00100000
01000000
00100000
01000000
00001000
01000000
00001000
00000000
00010000
00000010
,
00010000
00000010
00001000
00000010
00000100
00000001
00000000
00000001
00001000
00000000
00000100
00000000
00001000
00000010
00001000
00000010
,
00000100
00000001
00001000
00000100
00000010
00000000
00000001
00001000
00000100
00000010
00000100
00010000
00001000
00000000
00010000
00001000
,
01000000
00010000
01000000
00010000
00100000
01000000
00000000
01000000
10000000
00000000
00010000
00000000
01000000
00100000
10000000
00100000
,
01000000
00010000
00100000
00001000
00010000
00000000
00001000
00000100
00000010
00000100
00000001
00000000
00001001
00000000
00001000
00000010
,
00000100
00000010
00001000
00000100
00010000
00001000
00000000
00001000
01000000
00000000
00010000
00000000
10010000
00000000
10000000
01000000
,
00100000
00010000
00100000
01000000
10000000
00000000
00100000
01000000
00100000
10000000
00100000
01000000
00010000
00100000
00010000
00100000
,
00001000
00010000
00001000
00010000
00000010
00001000
00000010
00000100
00000001
00000000
00001001
00000000
00001000
00000100
00010000
00001000
,
01000000
01010000
10010000
00000000
00000000
00000000
01010000
00000000
,
00000000
00011000
00000000
00010010
,
00000000
00000110
00000000
00001001
,
00000000
00000000
00001100
00000000
00010100
00010000
00011000
00000000
,
00101000
00100000
01100000
00000000
11000000
00000000
10010000
00000000
,
01100000
01010000
00011000
00010100
,
00000110
00000011
00001001
00001010
,
00010010
00011000
00101000
01100000
,
10010000
00000000
10000000
00100000
01000000
00100000
10000000
00100000
,
01000000
00100000
01000000
00001000
00010000
00001000
00010000
00000010
,
00010000
00000010
00001000
00000001
00001000
00000100
00000010
00000100
,
00000010
00000001
00001000
00000100
00010000
00000100
00010000
00001000
,
01000000
00001000
01000000
00010000
01000000
00100000
01000000
00100000
,
10000000
00010000
10000000
01000000
00100000
01000000
00100000
00001000
,
00100000
00001000
00010000
00000010
00010000
00001000
00010000
00000100
,
00001000
00000100
00001000
00000001
00000100
00000001
00000100
00000010
,
00010000
00000010
00010000
00001000
00010000
00000100
00010000
00000100
,
00010000
00001000
01000000
00010000
01000000
00100000
10000000
00010000
,
10000000
00010000
00100000
01000000
00100000
01000000
10000000
00010000
,
01000000
00010000
10000000
01000000
00100000
01000000
00100000
00001000
,
00010000
00001000
00100000
00001000
00010000
00000010
00001000
00000010
,
00000100
00000001
00001000
00000100
00000010
00000100
00001000
00000100
,
00010000
00001000
01000000
00010000
01000000
00001000
01000000
00100000
,
10000000
00010000
00100000
01000000
10000000
01000000
00100000
00010000
,
00100000
00000000
00001000
00000000
00020000
00000000
00000000
00000000
00030100
00000000
00001000
00000000
00000001
00000000
00000100
00000010
,
00000100
00000010
00000100
00000000
00000101
00000000
00000000
00000000
00000001
00001000
00000001
00001000
00000200
00000000
00000000
00000000
,
00010300
00001000
00010000
00001000
01000000
00010000
01000000
00100000
01000000
00000000
00000000
00100000
10000000
00000000
00000000
01000000
,
00100000
00000000
00000000
00001000
00010000
00000000
00000000
00000010
00001000
00000000
00000000
00000001
00000010
00000000
00000000
00000100
,
00001000
00000001
00000100
00000000
00000110
00000000
00000010
00000000
00001000
00000000
00000000
00000100
00010000
00000000
00000000
00001000
,
01000000
00000000
00000000
00010000
00100000
00000000
00000000
01000000
10000000
00000000
00000000
00100000
01000000
00000000
00001000
00000000
,
00010000
00000000
00000010
00000000
00001000
00000001
00001000
00000001
00000020
00000000
00000000
00000000
00001000
00000000
00000000
00000000
,
00000001
00000000
00000130
00010000
00002000
00000000
00000100
00000000
,
00010000
00000000
01003000
00010000
10000000
00100000
00010000
00001000
,
00000100
00000000
00000001
00000000
00001000
00000000
00000100
00000000
00000010
00000000
00000100
00000000
00010000
00000000
00001000
00010000
,
00001000
00010000
00001000
00000000
01000000
00000000
00010000
10000000
01000000
00000000
00100000
00010000
00100000
00000000
01000000
10000000
,
01000000
10000000
00010000
01000000
00010000
00000000
01000000
00100000
01000000
00000000
00001000
00010000
00001000
00000000
00010000
00000010
,
00010000
00000010
00001000
00000010
00001000
00000000
00000001
00000010
00000100
00000000
00001000
00000000
00000001
00000000
00000100
00000010
,
00001000
00000000
00000010
00000000
00010000
00000000
00001000
00010000
00001000
00000000
01000000
00001000
01000000
00000000
00010000
00100000
,
00010000
00000000
10000000
01000000
10000000
01000000
10000000
00010000
10000000
00000000
01000000
00000000
00010000
00000000
00001000
00000000
,
00000010
00000100
00000010
00000100
00000010
00000100
00000010
00000000
00000001
00000000
00000100
00000000
00001000
00000000
00010000
00000000
,
00100000
01000000
00100000
01000000
00100000
01000000
00100000
00000000
10000000
00010000
10000000
00010000
10000000
00100000
10000000
00100000
,
01000000
00100000
01000000
00100000
01000000
00001000
01000000
00001000
00010000
00001000
00010000
00001000
00010000
00001000
00010000
00001000
,
00010000
00000010
00001000
00000100
00000110
00000010
00000001
00001001
,
00001000
00000100
00010100
00010000
00001000
01001000
01000000
00100000
,
10100000
10000000
00010000
01010000
01000000
00001000
00011000
00010000
,
00000010
00000200
00000000
00000000
00000301
00001000
00000100
00000010
,
00000100
00010000
00001000
00010000
00100000
10000000
01000000
00100000
,
01000000
00000000
00010000
00000000
00001000
00000000
00000010
00000000
00000100
00000000
00001000
00000000
00000001
00001000
00000001
00001000
,
00000001
00001000
00000001
00001000
00000001
00001000
00000001
00001000
00000000
00000000
00000000
00000000
00002002
00000000
00000000
00000000
,
00000000
00000000
00000000
00000000
,
00000000
00000000
00000000
00003003
;

//---------------dance-double - Kekkle-CDP----------------
#NOTES:
     dance-double:
     Kekkle:
     Challenge:
     18:
     :
00000000
00000000
00000000
00000000
,
00000000
00000000
00000000
00000000
,
00000000
00000000
00000000
00000000
,
20000000
00000000
00000000
31000000
00010000
01000000
00100000
00001000
,
00020000
00000000
00000000
00000000
00000000
00000000
00030010
00000100
00000001
00001000
00000100
00001000
00010000
00100000
01000000
00100000
,
00000000
00000000
00110000
10010000
,
11000000
00000000
01100000
00000000
00100000
00001000
00010000
00000010
,
00000100
00000001
00001000
00000001
00000100
00000001
00001000
00000100
00010000
00000000
00001000
00000000
01000000
00000000
00010000
00000000
,
10000000
01000000
00100000
01000000
10000000
01000000
00100000
00010000
10000000
00000000
00100000
00000000
01000000
00000000
00100000
00000000
,
00010000
00001000
00000100
00000000
00001000
00000100
00000010
00000000
00000100
00000001
00001000
00000001
00000100
00000010
00001000
00000100
,
00010000
00001000
00100000
00001000
00010000
00001000
00000100
00001000
00010000
00000000
00100000
00000000
01000000
00000000
00100000
00000000
,
10000000
00010000
00100000
01000000
10000000
01000000
00100000
00010000
10000000
00000000
00100000
00000000
01000000
00000000
00001000
00000000
,
00010000
00000010
00000100
00000010
00001000
00000001
00001000
00000000
00000100
00000010
00000100
00010000
00000100
00000010
00000100
00001000
,
00000100
00000000
00000000
00010000
00000000
00000000
00001000
00000000
00000000
01000000
00000000
00000000
00001000
00000000
00000000
00010000
00000000
00000000
00001000
00000000
00000000
00100000
00000000
00000000
00010000
00000000
00000000
10000000
00000000
00000000
00010000
00000000
00000000
10000000
00000000
00000000
00010000
00000000
10000000
00000000
00010000
00000000
10000000
00000000
00010000
00000000
10000000
00000000
,
00010000
00000000
20020000
00000000
00000000
00000000
30030000
00000000
00010000
01000000
00100000
00000000
10000000
00000000
00010000
00000000
,
00100000
00001000
00010000
00000000
01000000
00100000
00010000
00000000
00100000
00000000
00001000
00010000
00000100
00010000
00001000
00010000
,
00000100
00001000
00000010
00000000
00000100
00000000
00000001
00001000
00000100
00000000
00000010
00000000
00000001
00001000
00000010
00000000
,
00001000
00000000
00000000
00000000
00000000
00000000
00000001
00000000
00000000
00000000
00000000
00000000
00001000
00000000
00000010
00000000
00001000
00000000
00000010
00000000
00001000
00000000
00000010
00000000
00001000
00000000
00000000
00000001
00000000
00000000
00001000
00000000
00000000
00000000
00000000
00000000
00000100
00000000
00000000
00000000
00000000
00000000
00010000
00000000
00000000
00000000
00000000
00000000
,
00001000
00100000
01000000
00000000
00100000
00000000
00010000
00000000
10000000
00100000
01000000
00001000
01000000
00010000
00100000
00001000
,
00010000
00000000
00001000
00010000
00001000
00000000
00000100
00000000
00000010
00001000
00000001
00000000
00000010
00000100
00001000
00000100
,
00000010
00000000
00000000
00000100
00000000
00000000
00001000
00000000
00000000
00000100
00000000
00000000
00000010
00000000
00000100
00000000
00000010
00000000
00000100
00000000
00000010
00000000
00000100
00000000
00000010
00000000
00000000
00000100
00000000
00000000
00000010
00000000
00000000
00000000
00000000
00000000
00000001
00000000
00000000
00000000
00000000
00000000
00001000
00000000
00000000
00000000
00000000
00000000
,
00000010
00010000
00001000
00000000
00000100
00000000
00001000
00000000
00010000
00000000
00100000
10000000
00010000
10000000
01000000
00100000
,
00010000
10000000
00010000
00000000
10000000
00000000
00010000
00000000
00100000
01000000
10000000
00000000
01000000
00100000
00010000
00100000
,
00001000
00022000
00000000
00033000
00010000
00000010
00000010
00001000
,
00000001
00000001
00000010
00000100
00000100
00010000
00001000
00001000
,
01000000
00100000
10000000
00010000
01000000
00000000
00001000
01000000
00001000
00010000
00000100
00000000
00001000
00000100
00010000
00000100
,
00001000
00000100
00000010
00000001
00001000
00000010
00010000
00000100
00002000
00000000
00000000
00000000
00003001
00000000
00001000
00000100
,
00010000
00000100
00001000
00000100
00010000
00000000
00001000
00020000
00002000
00000000
00033000
00000000
01000000
00000000
00010000
00000000
,
10000000
00000000
01000000
00000000
00010000
00000000
00001000
00000000
00000010
00000000
00000001
00000000
00001000
00000001
00001000
00000000
,
00000001
00000010
00000001
00000000
00001000
00000010
00001000
00000000
00000100
00000000
00010000
00000000
00001000
00000000
00010000
00000000
,
00100000
00000000
00001000
00000000
00100000
00000000
10000000
00000000
00010000
01000000
00010000
00000000
10000000
01000000
10000000
00000000
,
00100000
00000000
00010000
00000000
00001000
00000000
00010000
00000000
00000010
00000000
00010000
00000100
00001000
00000000
00000010
00000000
,
00000100
00000001
00000100
00000010
00010000
00000010
00001000
00000010
00000100
00000001
00001000
00000000
00000100
00000000
00000010
00000001
,
00001000
00000000
00000000
00000000
00000000
00000000
00000010
00000000
00000000
00000000
00000000
00000000
00001000
00000000
00000100
00000000
00001000
00000000
00000100
00000000
00000000
00001000
00000000
00000000
00000100
00000000
00000000
00000000
00000000
00000000
00010000
00000000
00000000
00000000
00000000
00000000
00001000
00000000
00000000
01000000
00000000
00000000
00010000
00000000
00000000
01000000
00000000
00000000
,
00100000
01000000
00100000
01000000
00000000
00000000
20000000
00000000
00000000
32000000
00000000
00000000
03200000
00000000
00000000
00320000
00000000
00000000
00032000
00000000
00000000
00003200
00000000
00000000
,
00000320
00000000
00000000
00000000
00000000
00000000
00000032
00000000
00000000
00000000
00000000
00000000
00001003
00000000
00000000
00000000
00000000
00000000
00000010
00000000
00000000
00000100
00000000
00000000
00000001
00000000
00000000
00000100
00000000
00000000
00000010
00000000
00000000
00001000
00000000
00000000
00000100
00000000
00010000
00000000
00000100
00000000
00010000
00000000
00001000
00000000
00010000
00000000
,
00001000
00000000
00000000
00000000
00000000
00000000
01000000
00000000
00000000
00010000
00000000
00000000
00100000
00000000
00000000
01000000
00000000
00000000
10000000
00000000
00000000
01000000
00000000
00000000
00100000
00000000
00000000
00000000
00000000
00000000
00001000
00000000
00000000
00000000
00000000
00000000
01000000
00000000
00010000
00000000
01000000
00000000
00001000
00000000
00010000
00000000
00001000
00000000
,
00010000
00000000
00000100
00000000
00010000
00000000
00000010
00000000
00001000
00000000
00000010
00000000
00000100
00000000
00000000
00000000
00000000
00000000
00000001
00000000
00000000
00000010
00000000
00000000
00000100
00000000
00000000
00000010
00000000
00000000
00000001
00000000
00000000
00001000
00000000
00000000
00000010
00000000
00000000
00000100
00000000
00000000
00001000
00000000
00000000
00010000
00000000
00000000
,
00100000
00000000
01000000
00000000
00100000
00000000
10000000
00000000
00010000
00000000
10000000
00000000
01000000
00000000
00000000
00100000
00000000
00000000
00001000
00000000
00000000
00010000
00000000
00000000
00000100
00000000
00000000
00010000
00000000
00000000
00001000
00000000
00000000
00000100
00000000
00000000
00000010
00000000
00000100
00000000
00000010
00000000
00001000
00000000
00000010
00000000
00000100
00000000
,
00000001
00000000
00001000
00000000
00000001
00000000
00001000
00000000
00000100
00000000
00001000
00000000
00000100
00000000
00000000
00000000
00000000
00000000
00000010
00000000
00000000
00000001
00000000
00000000
00000010
00000000
00000000
00000100
00000000
00000000
00010000
00000000
00000000
00000000
00000000
00000000
00011000
00000000
00000000
00000000
00000000
00000000
00001000
00000000
00000000
01000000
00000000
00000000
,
00010000
00000000
00100000
00000000
00010000
00000000
10000000
00000000
00000000
00100000
00000000
00000000
01000000
00000000
00000000
00000000
00001000
00000000
00000000
00000000
00010000
00000000
00000000
00000000
00000100
00000000
00000000
00000000
00000000
00000000
00001000
00000000
00000000
00000000
00000000
00000000
00001001
00000000
00000000
00000000
00000000
00000000
00000001
00000000
00000000
00000000
00000000
00000000
,
00001000
00000000
00000100
00000000
00010000
00000000
00001000
00000000
00010000
00000000
00000010
00000000
00001000
00000000
00000000
00000000
00000000
00000000
00000100
00000000
00000000
00000010
00000000
00000000
00000001
00000000
00000000
00000010
00000000
00000000
00000100
00000000
00000000
00001000
00000000
00000000
00000001
00000000
00000100
00000000
00000001
00000000
00001000
00000000
00000100
00000000
00010000
00000000
,
00000100
00000000
00010000
00000000
00001000
00000000
01000000
00000000
00010000
00000000
01000000
00000000
00100000
00000000
10000000
00000000
00010000
00000000
10000000
00000000
00010000
00000000
10000000
00000000
01000000
00000000
00000000
00000000
00000000
00000000
00100000
00000000
00000000
00000000
00000000
00000000
00001000
00000000
00000000
00010000
00000000
00000000
00001000
00000000
00000000
00000100
00000000
00000000
,
00000001
00001000
00001001
00000000
00000000
00000000
00011000
00000000
,
00000000
10010000
00000000
00011000
,
00000000
00001001
00000000
00011000
,
00000000
00000000
00000000
00000000
10000000
01000000
00010000
00000000
00001000
00000000
00000100
00000000
00000001
00000000
00000000
00000000
,
00001000
00000001
00001001
00000010
00001100
00010000
00011000
00001000
,
01001000
00100000
10100000
01000000
01010000
00001000
00011000
00010000
,
00010100
00000010
00000011
00000001
00001001
00000010
00000110
00010000
,
00011000
00001000
00101000
00010000
10010000
10000000
11000000
00100000
,
00101000
00000000
00001000
00000000
00011000
00000000
00010000
00000010
00001000
00000000
00001000
00000001
00000010
00000000
00000010
00000100
,
00001000
00000000
00001000
00000100
00010000
00000000
00001000
01000000
00010000
00000000
00010000
10000000
01000000
00000000
01000000
00100000
,
00010000
00000000
00010000
00100000
00001000
00000000
00010000
00001000
00000100
00000000
00000100
00000010
00001000
00000000
00001000
00000001
,
00000010
00000000
00000010
00000100
00010000
00000000
00001000
00010000
00100000
00000000
00100000
01000000
00010000
00000000
00010000
10000000
,
01000000
00000000
01000000
00100000
00001000
00000000
00010000
00000000
00001000
00000000
00000100
00000000
00000010
00000000
00001000
00000000
,
00000010
00000100
00000001
00001000
00000100
00000010
00000100
00010000
,
00000100
00000010
00000100
00001000
00010000
00100000
01000000
00100000
,
00010000
10000000
00100000
01000000
00100000
00010000
00100000
01000000
,
00001000
01000000
00010000
00100000
01000000
00100000
00001000
00010000
,
00000100
00000010
00000100
00001000
00000100
00000010
00000001
00000100
,
00000010
00001000
00100000
00010000
00100000
10000000
00010000
00100000
,
01000000
00100000
00010000
10000000
00100000
01000000
00010000
01000000
,
00100000
00000000
00000000
00010000
00000000
00000000
00001000
00000000
00010000
00000000
00001000
00000000
00010000
00000000
00001000
00000000
00010000
00000000
00000010
00000000
00010000
00000000
00000010
00000000
,
00010000
00000010
00010000
00000100
00001000
00000100
00001000
00000100
00001000
00000001
00001000
00000001
,
00001000
00000001
00001000
00000001
00000010
00000001
00001000
00000010
00001000
00000010
00010000
00000100
,
00010000
00001000
01000000
00001000
01000000
00010000
00100000
00010000
10000000
01000000
10000000
01000000
,
00100000
00000000
00000000
00000000
00010000
00000000
00000000
00000000
01000000
00000000
00000000
00000000
00020000
00000000
00000000
00000000
00000000
00000000
00000000
00000000
00000000
00000000
00000000
00000000
10030000
00000000
00000000
00000000
00000000
00000000
00100000
00000000
00000000
00000000
00000000
00000000
01000000
00000000
00000000
00000000
00000000
00000000
00001000
00000000
00000000
00100000
00000000
00000000
,
00010000
00000000
00000000
00100000
00000000
00000000
00001000
00000000
00000000
00000000
00000000
00000000
00011000
00000000
00000000
00000000
00000000
00000000
00000000
00000000
00000000
00000000
00000000
00000000
00010000
00000000
00000010
00000000
00010000
00000000
00000010
00000000
00000000
00000000
00000000
00000000
00000200
00000000
00000000
00000000
00000000
00000000
00000000
00000000
00000000
00000000
00000000
00000000
,
00000301
00000010
00000001
00001000
00000010
00010000
00001000
00010000
00001000
00000000
01000000
00010000
00100000
00000000
01000000
00000000
,
00100000
00000000
01000000
10000000
00100000
00000000
01000000
00000000
00100000
00000000
01000000
00100000
00010000
00000000
00001000
00000100
,
00000010
00000100
00000001
00000000
00001001
00000000
00001000
00000000
00000100
00000000
00000010
00000001
00000100
00000000
00000010
00000000
,
00000100
00000000
00000010
00001000
00000100
00000000
00000010
00000000
00000100
00000000
00000010
00000000
00000001
00000000
00000100
00000000
,
00001000
00000000
00010000
00000000
00100000
10000000
00100000
10000000
01000000
00000000
00010000
00000000
00001000
00000000
00000010
00000000
,
00001000
00010000
01000000
00100000
00001000
00000010
00000001
00000100
,
00010000
00001000
00000010
00010000
00001000
01000000
10000000
01000000
,
00010000
00000000
10000000
00000000
00010000
00100000
01000000
00000000
10000000
00000000
00010000
00000000
01000000
00000000
00100000
00010000
,
00001000
00010000
00100000
00000000
00010000
00000000
00000100
00001000
00000010
00000000
00000100
00000001
00001000
00000000
00000100
00000010
,
00000001
00000010
00000100
00010000
00001000
00010000
00001000
01000000
00010000
00000000
10000000
00100000
01000000
00000000
00010000
01000000
,
00001000
01000000
00010000
01000000
00100000
00010000
00001000
00100000
00001000
00000000
00010000
00001000
00000100
00000000
00001000
00000000
,
00000100
00000000
00000001
00001000
00000100
00000000
00000010
00000001
00000100
00000000
00000010
00010000
00001000
00000000
00010000
00001000
,
01000000
00000000
00000000
00010000
00000000
00000000
01000000
00000000
00000000
00100000
00000000
00000000
01000000
00000000
00100000
00000000
01000000
00000000
00100000
00000000
01000000
00000000
00100000
00000000
01000000
00000000
00000000
00000000
00000000
00000000
00010000
00000000
00000000
10000000
00000000
00000000
01000000
00000000
00000000
00000000
00000000
00000000
00100000
00000000
00000000
00001000
00000000
00000000
,
00010000
00001000
00100000
00001000
00010000
00000010
00001000
00000100
00000010
00000000
00000001
00001000
00000010
00000000
00000100
00000001
,
00000100
00000010
00010000
00000010
00001000
00000100
00001000
00000000
00000100
00010000
00001000
01000000
00001000
01000000
00010000
01000000
,
00100000
00000000
00000000
10000000
00000000
00000000
00010000
00000000
00000000
10000000
00000000
00000000
01000000
00000000
00000000
00100000
00000000
00000000
00001000
00000000
00000000
00010000
00000000
00000000
00001000
00000000
00010000
00000000
00001000
00000000
00010000
00000000
00001000
00000000
00010000
00000000
00001000
00000000
00010000
00000000
00001000
00000000
00010000
00000000
00001000
00000000
00010000
00000000
,
00001000
00000000
00020000
00000000
00031000
00000000
00010000
00001000
00010000
00000010
00010000
00000010
00001000
00000000
00000010
00000100
,
00000010
00000100
00000001
00000000
00001000
00000100
00001000
00000100
00000010
00000000
00000100
00010000
00000100
00010000
00001000
00000000
,
01000000
00010000
01000000
00010000
10000000
00000000
01000000
00100000
01000000
00100000
00010000
00000000
10000000
00100000
01000000
00000000
,
00001000
00000000
00020000
00000000
00000000
00000000
00000000
00000000
00030010
00001000
00000001
00001000
00000001
00000000
00001000
00000100
,
00001000
00000100
00010000
00000000
00001000
01000000
00001000
01000000
00100000
00000000
10000000
00010000
10000000
00010000
01000000
00000000
,
00100000
10000000
00100000
10000000
00100000
01000000
00100000
01000000
00010000
01000000
00010000
01000000
00001000
01000000
00001000
01000000
,
00001000
00000000
00010000
00000000
00001000
00000000
00010000
00000000
00000010
00000000
00010000
00000000
00000010
00000000
00000100
00000000
00000020
00000030
00000000
00000000
00000000
00000000
00000000
00000000
00002002
00000000
00000000
00000000
00000000
00000000
00000000
00000000
,
00000000
00000000
00000000
00000000
,
00000000
00000000
00000000
00003003
;
