#TITLE:Poseidon(kors k mix)(XX-Special);
#ARTIST:NAOKI underground;
#BANNER:Poseidon(kors k mix)(XX-Special).png;
#BACKGROUND:Poseidon(kors k mix)(XX-Special)-bg.png;
#MUSIC:Poseidon(kors k mix)(XX-Special).ogg;
#SAMPLESTART:66.31;
#SAMPLELENGTH:15;
#DISPLAYBPM:152;
#BPMS:0=152.542,4=151.957,70=152,127=155.172,128=150,128.5=152.027,131=75.63,132=152.009;
#STOPS:70=0.393,127=0.2,127.5=0.2,128=0.2,128.5=0.193;

//---------------dance-single - Pandemonium X-CSP----------------
#NOTES:
     dance-single:
     Pandemonium X-CSP:
     Challenge:
     16:
     :
0000
0000
0000
0000
,
0000
0000
0000
0000
,
0000
0000
0000
0000
,
0000
0000
0000
0000
,
0000
0000
0000
0000
,
0000
0000
0000
0000
,
1000
0000
0001
0100
0001
0010
0001
1000
0000
0001
0000
0100
0010
1000
0000
0001
,
1000
0010
0100
0001
0100
0010
0000
0010
0100
0000
0010
1000
0000
0100
0000
0010
,
0001
0000
1000
0010
1000
0001
0100
0001
0000
0010
0001
0000
1000
0001
0000
1000
,
0001
0100
0010
0100
0001
0000
1000
0100
0000
0010
0001
0000
1200
0000
0320
0000
,
0031
0000
1000
0010
1000
0100
1000
0001
0000
0010
0001
0000
1000
0100
0020
0000
,
0031
0000
1000
0010
0100
0010
1000
0100
0000
0010
0000
0001
0100
0010
2000
0000
,
3001
0000
1000
0010
0100
0001
0010
0100
0000
0010
0100
1000
0010
0100
0020
0000
,
1030
0000
0001
0100
0001
0100
0010
1000
0000
0100
0000
0010
0001
1000
0020
0030
,
1001
0000
1000
0100
0010
0001
1000
0010
0000
0100
0010
1000
0100
0010
0002
0000
,
1003
0001
1000
0001
0000
1000
0100
0010
0001
0100
0010
1000
0001
1000
0020
0000
,
1030
0000
0001
0010
0001
1000
0100
0010
0000
0001
0010
0100
1000
0001
2000
0000
,
3001
0020
0000
0100
0000
0000
0031
0000
0000
0000
0000
0000
1002
0000
0000
0203
,
0000
0000
0310
1000
0200
0000
0000
2300
0000
0000
3002
0000
0203
0000
0000
0320
,
0000
0000
0130
0001
2000
0000
0000
3200
0000
0000
1300
0000
1200
0000
0000
0320
,
0000
0000
0130
1000
0020
0000
0000
0230
0000
0000
0301
0000
2000
0000
0000
3002
,
0000
0000
0203
0000
0020
0000
0000
0000
0330
0000
0000
0000
1020
0000
0000
0230
,
0000
0000
0310
0100
0002
0000
0000
0023
0000
0000
0031
0000
0102
0000
0000
2003
,
0000
0000
3010
1000
0200
0000
0000
2300
0000
0000
3010
0000
0210
0000
0000
0302
,
0000
0000
0103
0010
2000
0000
0000
3200
0000
0000
0310
0000
0200
0000
0000
0320
,
0000
0032
2000
0000
3003
0000
0201
0310
,
0102
0000
0013
0000
0201
0000
0310
0000
0100
0001
1000
0000
1020
0000
0130
0000
,
2010
0000
3100
0000
1020
0000
0130
0000
0010
1000
0001
0000
1002
0000
0013
0000
,
2001
0000
3010
0000
1002
0000
0013
0000
0100
1000
0010
0000
1010
0000
1000
0010
,
0000
0100
0001
0000
2002
0000
0000
0000
0000
0000
3003
0000
1100
0000
0100
0000
,
0110
0000
0010
0001
0100
0000
0010
0000
0110
0000
0010
1000
0100
0000
0010
0000
,
0011
0000
0010
0100
1000
0000
0100
0000
1100
0000
1000
0000
0011
MMMM
1010
MMMM
,
0011
0000
MMMM
0000
1010
0000
MMMM
0000
1001
0000
0000
0000
0001
0000
0000
0000
1000
0000
0000
0000
0001
0000
0000
0000
0200
0000
0000
0000
0020
0030
0020
0330
,
1001
0000
0001
0100
0001
1000
0100
0000
0010
0100
0010
0100
0010
0001
1000
0000
,
0001
0100
0020
0000
2030
0000
3100
1000
0001
0010
0100
0010
0100
0000
1000
0001
,
1000
0000
0000
0000
0000
0000
0001
0000
0000
0200
0000
0000
0000
0000
0000
0310
0000
0000
2000
0000
0000
0000
0000
0000
3100
0000
0000
0000
0000
0000
0010
0000
0000
0002
0000
0000
0000
0000
0000
0103
0000
0000
0010
0000
0100
0000
0010
0000
,
0200
0000
0000
0000
0000
0000
0000
0000
0000
0000
0000
0000
0301
1000
0001
1000
0001
1000
0002
0000
0000
0203
0000
0000
,
0310
0000
0000
1000
0001
1000
0010
0000
0100
0000
0010
1000
0100
1000
0001
0000
,
0010
0100
2000
0000
3020
0000
0130
0001
0100
0001
0100
0001
0100
0000
0001
0000
,
1000
0000
0100
2000
0000
3010
0200
0000
0310
0000
1000
0000
1001
0000
0000
0000
,
0101
0000
1100
0000
0101
0000
1001
0000
0000
0000
2000
3000
0002
0003
2000
3000
,
0001
0000
0100
0010
0000
0100
0010
0100
0001
0000
1000
0001
0000
0001
1000
0001
,
0100
0000
0001
0100
0000
0100
0001
0100
0010
0000
0010
0100
0000
0010
0100
0010
,
1000
0000
1000
0001
0000
0001
0100
0001
1000
0000
0100
0010
0000
0010
0100
0010
,
0001
0000
0001
0100
0000
0100
0010
0100
0001
0000
0001
1000
0000
0100
1000
0100
,
0010
0000
0001
0010
0000
0100
1000
0010
0100
0000
0010
1000
0000
0001
0010
0100
,
0010
0000
0100
1000
0000
0100
0010
0001
1000
0000
0001
0100
0000
0001
0010
0100
,
1000
0000
0100
1000
0000
0100
0010
0001
1000
0000
0010
1000
0000
0010
0100
0001
,
1000
0000
0001
0100
0000
0001
0100
0000
0001
0000
1000
0100
0000
1000
0100
0000
,
0010
0000
0001
0000
0101
0000
0100
0010
1000
0000
0010
0000
1010
0000
1000
0100
,
0010
0000
0001
0000
0011
0000
0010
0100
1000
0000
0010
0000
1010
0000
1000
0001
,
0100
0000
0001
0000
1100
0000
0001
1000
0010
0000
1000
0000
0101
0000
0010
0100
,
1000
0000
0010
0000
0101
0000
0001
0010
0100
0000
1000
0000
1001
0000
0000
0000
,
1000
0000
0001
0100
0010
0000
0100
0001
1000
0000
0100
0000
0110
0000
0010
0000
,
0001
0000
0010
0001
0100
0000
0010
1000
0100
0000
0010
0000
0011
0000
1001
0000
,
1000
0001
1000
0001
0100
0010
0100
0010
1000
0001
1000
0001
0100
0010
0100
0010
,
1000
0000
0000
0001
0000
0000
1000
0000
0000
0001
0000
0000
1000
0000
0000
0001
0000
0000
1000
0000
0001
0000
1000
0000
0001
0000
1000
0000
0001
0000
1000
0000
0001
0000
1000
0000
0001
0000
1000
0000
0001
0000
1000
0000
0001
0000
1000
0000
,
0020
0000
0000
0000
,
0030
0000
0000
0000
;

//---------------dance-double - Pandemonium X-CDP----------------
#NOTES:
     dance-double:
     Pandemonium X-CDP:
     Challenge:
     17:
     :
00000000
00000000
00000000
00000000
,
00000000
00000000
00000000
00000000
,
00000000
00000000
00000000
00000000
,
00000000
00000000
00000000
00000000
,
00000000
00000000
00000000
00000000
,
00000000
00000000
00000000
00000000
,
10000000
00000000
00100000
01000000
00010000
00100000
00002000
00013000
00000000
00010000
00000100
00001000
00000010
00000100
00000000
00001001
,
00000000
00000001
00000010
00000001
00000100
00000000
00000020
00001030
00000100
00010000
00000100
00001000
00000100
00010000
00000000
00001000
,
01000000
00000000
00100000
10000000
00010000
00100000
00020000
10030000
01000000
10000000
00000000
00100000
01000000
00010000
00000000
11000000
,
00000000
01000000
10000000
00100000
01000000
00010000
00100000
00001000
00010000
00001000
00010000
00001000
00020000
00000000
00032000
00000000
,
01003000
00000000
00100000
10000000
01000000
00000000
00100000
00010000
01000000
00000000
00010000
00100000
00001000
00010000
00000200
00000000
,
00010300
00000000
00000100
00001000
00000001
00000000
00000100
00000001
00001000
00000000
00000100
00010000
00001000
01000000
00200000
00000000
,
10300000
00000000
01000000
00100000
00010000
00000000
00100000
00001000
00010000
00000000
00000100
00001000
00000010
00001000
00000002
00000000
,
00000013
00000000
00000001
00000100
00000001
00001000
00000100
00000010
00000000
00000100
00000010
00000001
00001000
00000010
00000200
00000000
,
00000301
00000000
00001000
00000001
00000010
00000000
00000100
00010000
00001000
00000000
01000000
00100000
10000000
00000000
00020000
00000000
,
10030000
00000000
01000000
10000000
00100000
00000000
01000000
00010000
10000000
00000000
00010000
00100000
00001000
00000000
00020000
00000000
,
00031000
00000000
00010000
00000100
00001000
00000000
00000010
00000100
00000001
00000000
00000010
00000100
00001000
00000000
00000100
00000000
,
00010000
00000000
00000000
00000100
00000000
00000000
00000000
00000000
00000000
00010000
00000000
00000000
00001000
00000000
00000000
00000000
00000000
00000000
00010000
00000000
00001000
00000000
00010000
00000000
00000000
00000000
00000000
00000000
00000000
00000000
00000000
00000000
00000000
00000000
00000000
00000000
00002000
00000000
00000000
00000000
00000000
00000000
00000000
00000000
00000000
02003000
00000000
00000000
,
00000000
00000000
03100000
10000000
02000000
00000000
00000000
03020000
00000000
00000000
00032000
00000000
00023000
00000000
00000000
00030020
,
00000000
00000000
00000130
00000001
00002000
00000000
00000000
00003020
00000000
00000000
00020030
00000000
00032000
00000000
00000000
02003000
,
00000000
00000000
03010000
10000000
00020000
00000000
00000000
01030000
00000000
00000000
00001000
00000000
02001000
00000000
00000000
03020000
,
00000000
00000000
00130000
00001000
00020000
00000000
00000000
00000000
00030000
00000000
00000000
00000000
00020000
00000000
00000000
00030020
,
00000000
00000000
00000130
00000001
00000200
00000000
00000000
00002300
00000000
00000000
00023000
00000000
00032000
00000000
00000000
02003000
,
00000000
00000000
03100000
10000000
00020000
00000000
00000000
02030000
00000000
00000000
03002000
00000000
00023000
00000000
00000000
00030020
,
00000000
00000000
00001030
00000010
00020000
00000000
00000000
00032000
00000000
00000000
00013000
00000000
00012000
00000000
00000000
00203000
,
00000000
00310000
20020000
00000000
30030000
00000000
02100000
00000000
,
00001000
00000000
00000000
00000000
00010000
00000000
00000000
00000000
03001000
00010000
00001000
00010000
00000020
00000000
00000000
00000000
,
00001000
00000000
00000000
00000000
00010000
00000000
00000000
00000000
00001030
00000010
00010000
00001000
00200000
00000000
00000000
00000000
,
00001000
00000000
00000000
00000000
00010000
00000000
00000000
00000000
00301000
01000000
00100000
10000000
01000000
00000000
00100000
01000000
,
00000000
00100000
00010000
01000000
00100000
01000000
00000000
01000000
00100000
10000000
00010000
00000000
00110000
00000000
00100000
00000000
,
00101000
00000000
00001000
00000000
00011000
00000000
00010000
00000000
00000100
00001000
00000010
00000000
00000101
00000000
00000100
00000000
,
00000110
00000000
00000010
00000000
00001010
00000000
00001000
00000000
00000100
00010000
00001000
00000000
00011000
MMMMMMMM
00100010
MMMMMMMM
,
00011000
00000000
MMMMMMMM
00000000
01000100
00000000
00000000
00000000
00001000
00000000
00000000
00000000
01000000
00000000
00000000
00000000
00100000
00000000
00000000
00000000
10000000
00000000
00000000
00000000
02000000
00000000
00000000
00000000
00200000
00300000
00200000
03300000
,
10010000
00000000
10000000
00010000
00100000
00010000
01000000
00000000
00010000
00000000
00100000
00010000
00100000
00000000
01000000
00000000
,
10000000
01000000
00010000
00000000
01000000
00000000
10000000
00100000
01000000
00010000
00100000
01000000
10000000
00000000
00010000
01000000
,
00020000
00000000
00130000
00002000
00000000
00013000
00000020
00000000
00000130
00000000
00000001
00000020
00000000
00000130
00001000
00000010
,
00002000
00000000
00000000
00000000
00000000
00000000
00000000
00000000
00000000
00000000
00000000
00000000
00003001
00000100
00000001
00000100
00000001
00000100
00000001
00000000
00000000
00001000
00000000
00000000
,
00001100
00000000
00000100
00001000
00000010
00000100
00000001
00000000
00001000
00000000
00000001
00000010
00000001
00000000
00000010
00000000
,
00000001
00000100
00001000
00000000
00000100
00000000
00000001
00001000
00000100
00010000
00000100
00010000
00000200
00000000
00000000
00000000
,
00020300
00000000
00031000
02000000
00000000
03100000
20000000
00000000
30010000
00000000
00100000
00000000
01100000
00000000
00000000
00000000
,
11000000
00000000
00110000
00000000
00101000
00000000
00022000
00033000
00000000
00000000
00020000
00000000
00030020
00000000
00000230
00000000
,
00000301
00000000
00000010
00000001
00000000
00000010
00000001
00000100
00000010
00000000
00000100
00000010
00000000
00000100
00000010
00001000
,
00000100
00000000
00001000
00000100
00000000
00001000
00000100
00010000
00001000
00000000
00010000
00001000
00000000
00010000
00001000
01000000
,
00100000
00000000
01000000
00100000
00000000
01000000
00010000
00100000
01000000
00000000
00100000
00010000
00000000
10000000
00010000
01000000
,
00010000
00000000
01000000
00100000
00000000
10000000
01000000
00100000
01000000
00000000
00100000
01000000
00000000
00100000
01000000
10000000
,
00010000
00000000
10000000
00100000
00000000
01000000
00010000
00100000
00001000
00000000
00010000
00000100
00000000
00001000
00000010
00000100
,
00000001
00000000
00000010
00000100
00000000
00000010
00000001
00000100
00000010
00000000
00001000
00000100
00000000
00010000
00001000
01000000
,
00100000
00000000
10000000
00010000
00000000
00100000
00001000
00010000
00000100
00000000
00001000
00000010
00000000
00000100
00000001
00000010
,
00000100
00000000
00001000
00000100
00000000
00001000
00000100
00010000
00001000
00000000
01000000
00100000
00000000
10000000
01000000
00000000
,
00110000
00000000
00000000
00100000
00001000
00000000
00010000
00000000
00010100
00000000
00010000
00000000
00011000
00000000
00000000
00000000
,
01001000
00000000
00000000
01000000
00100000
00000000
10000000
00000000
10010000
00000000
00100000
00000000
10010000
00000000
00000000
00000000
,
00110000
00000000
00000000
00100000
00001000
00000000
00010000
00000000
00010010
00000000
00000010
00000000
00001010
00000000
00000000
00000000
,
00000101
00000000
00000000
00000001
00000010
00000000
00000100
00000000
00001100
00000000
00001000
00000000
00001001
00000000
00000010
00000000
,
00001001
00000000
00000001
00000100
00000001
00000000
00000100
00000010
00000100
00000000
00000010
00001000
00000010
00000000
00001000
00000100
,
00001000
00000000
00000100
00010000
00000100
00000000
00010000
00001000
00010000
00000000
00001000
01000000
00001000
00000000
01000000
00000000
,
00100000
10000000
00010000
00100000
00001000
00010000
00000100
00001000
00000010
00000100
00000001
00000010
00000100
00001000
00000100
00010000
,
00001000
00000000
00000000
00100000
00000000
00000000
00001000
00000000
00000000
00010000
00000000
00000000
00001000
00000000
00000000
00100000
00000000
00000000
00001000
00000000
00010000
00000000
00001000
00000000
00010000
00000000
00001000
00000000
00010000
00000000
00001000
00000000
00010000
00000000
00001000
00000000
00010000
00000000
00001000
00000000
00010000
00000000
00001000
00000000
00010000
00000000
00001000
00000000
,
00020000
00000000
00000000
00000000
,
00030000
00000000
00000000
00000000
;
